VERSION	0.00.00	1.03.00
FES_MODE	0
BPM_DEF	182.000	182.000	182.000	182.000
MET_DEF	4	4
RESOLUTION	384
CLK_DEF	384
COMPATIBLE_CODE	MA2

BPM	0	0	182.000
MET	0	0	4	4

BST	1	288	1
SI_	1	288	1	96	48	7
SV_	1	288	1	96	48	3
TAP	2	96	6
TAP	2	144	6
XTP	2	192	1
TAP	2	192	4
TAP	2	288	3
STR	2	288	5
SI_	2	288	5	96	48	3
XTP	3	0	2
TAP	3	96	1
TAP	3	144	1
XTP	3	192	3
TAP	3	288	2
STR	3	288	4
SI_	3	288	4	96	48	7
XTP	4	0	0
TAP	4	96	6
TAP	4	144	6
XTP	4	192	1
TAP	4	192	5
TAP	4	288	0
STR	4	288	6
SCL	4	288	6	96	48	3
XTP	5	0	2
TAP	5	96	1
TAP	5	144	1
XTP	5	192	3
STR	5	288	2
SI_	5	288	2	96	48	4
TAP	5	288	4
XTP	6	0	0
TAP	6	96	6
TAP	6	144	6
XTP	6	192	1
TAP	6	192	4
TAP	6	288	3
STR	6	288	5
SI_	6	288	5	96	48	0
XTP	7	0	2
TAP	7	96	1
TAP	7	144	1
XTP	7	192	3
STR	7	288	2
SCR	7	288	2	96	48	5
TAP	7	288	5
XTP	8	0	0
TAP	8	96	6
TAP	8	144	6
XTP	8	192	1
TAP	8	192	5
TAP	8	288	3
STR	8	288	6
SUL	8	288	6	96	144	4
XTP	9	0	2
TAP	9	96	1
TAP	9	144	1
XTP	9	192	3
TAP	9	216	2
TAP	9	240	4
TAP	9	264	3
BRK	9	288	5
HLD	10	0	1	96
TAP	10	96	3
HLD	10	144	3	96
TAP	10	240	2
TAP	10	288	3
TAP	10	336	4
TAP	11	0	1
TAP	11	0	5
STR	11	48	1
SI_	11	48	1	96	48	6
STR	11	48	5
SI_	11	48	5	96	48	2
XTP	11	144	1
XTP	11	144	5
TAP	11	288	3
TAP	11	288	4
TAP	11	336	5
HLD	12	0	6	96
TAP	12	96	5
HLD	12	144	5	96
TAP	12	240	7
TAP	12	288	6
TAP	12	336	5
TAP	13	0	3
TAP	13	0	4
TAP	13	48	3
STR	13	48	4
SI_	13	48	4	96	48	0
STR	13	144	1
SCR	13	144	1	96	48	3
TAP	13	240	7
TAP	13	264	6
TAP	13	288	5
HLD	14	0	2	96
TAP	14	0	4
TAP	14	96	3
HLD	14	144	1	96
TAP	14	144	4
TAP	14	240	2
TAP	14	288	3
TAP	14	336	4
TAP	15	0	5
TAP	15	48	4
TAP	15	48	5
TAP	15	144	3
HLD	15	144	6	96
TAP	15	240	5
TAP	15	288	4
TAP	15	336	3
STR	16	0	2
SCR	16	0	2	96	48	5
STR	16	96	5
SCL	16	96	5	96	48	2
TAP	16	192	2
TAP	16	288	6
TAP	16	336	7
TAP	17	0	0
STR	17	48	1
SI_	17	48	1	96	48	5
XHO	17	144	7	96
XTP	17	240	0
BRK	17	288	1
BRK	17	288	6
HLD	18	0	0	96
TAP	18	0	4
TAP	18	96	7
HLD	18	144	7	96
TAP	18	240	3
TAP	18	288	2
TAP	18	336	1
TAP	19	0	0
TAP	19	0	4
STR	19	48	0
SI_	19	48	0	96	48	3
STR	19	48	4
SI_	19	48	4	96	48	7
XTP	19	144	0
XTP	19	144	4
TAP	19	288	3
TAP	19	288	7
TAP	19	336	2
TAP	20	0	1
TAP	20	0	5
TAP	20	48	1
TAP	20	96	1
TAP	20	96	3
HLD	20	144	1	96
TAP	20	240	0
TAP	20	288	1
TAP	20	336	2
TAP	21	0	3
HLD	21	0	4	72
HLD	21	72	5	72
STR	21	144	6
SCL	21	144	6	96	48	4
TAP	21	240	1
TAP	21	264	2
TAP	21	288	3
TAP	22	0	3
HLD	22	0	5	96
TAP	22	96	4
TAP	22	144	3
HLD	22	144	6	96
TAP	22	240	5
TAP	22	288	4
TAP	22	336	3
TAP	23	0	2
TAP	23	48	2
TAP	23	48	3
HLD	23	144	1	96
TAP	23	144	4
TAP	23	240	2
TAP	23	288	3
TAP	23	336	4
STR	24	0	5
SCL	24	0	5	96	96	2
STR	24	96	2
SCL	24	96	2	96	96	7
STR	24	192	7
SCL	24	192	7	96	96	4
TAP	24	288	4
TAP	24	336	3
TAP	25	0	2
STR	25	48	1
SI_	25	48	1	96	48	5
XTP	25	144	1
XTP	25	144	6
TAP	25	240	7
TAP	25	264	0
BRK	25	288	7
STR	26	0	1
SCR	26	0	1	96	48	3
STR	26	192	6
SCL	26	192	6	96	48	4
TTP	27	0	3	E	0	M1
TTP	27	96	5	E	0	M1
TTP	27	192	4	E	0	M1
HLD	28	0	2	96
HLD	28	96	3	96
HLD	28	192	4	96
HLD	28	288	5	96
TAP	29	0	2
TAP	29	48	3
TAP	29	48	4
TTP	29	144	0	C	0	M1
BST	30	0	2
SI_	30	0	2	96	48	7
BST	30	0	6
SI_	30	0	6	96	48	3
XTP	30	96	2
XTP	30	96	6
HLD	30	192	0	72
TAP	30	192	4
HLD	30	264	1	72
STR	30	336	2
SCR	30	336	2	96	48	5
TAP	31	48	7
TAP	31	96	7
TAP	31	144	6
TAP	31	192	4
TAP	31	192	5
TAP	31	264	1
TAP	31	264	2
STR	31	336	6
SCL	31	336	6	96	48	3
TAP	31	336	7
TAP	32	48	1
HLD	32	96	1	48
TAP	32	144	0
TAP	32	168	1
TAP	32	240	3
TAP	32	240	6
TAP	32	288	7
TAP	32	336	0
TAP	33	0	1
TAP	33	0	4
TAP	33	72	3
STR	33	72	6
SCL	33	72	6	96	144	7
HLD	33	144	1	144
XTP	33	336	1
XTP	33	336	6
XTP	33	360	2
XTP	33	360	5
XST	34	0	3
SI_	34	0	3	96	48	0
XST	34	0	4
SI_	34	0	4	96	48	7
XTP	34	96	3
XTP	34	96	4
TAP	34	192	1
HLD	34	192	6	72
STR	34	264	4
SI_	34	264	4	96	48	0
TAP	34	336	5
TAP	35	48	6
TAP	35	96	7
TAP	35	144	0
HLD	35	192	1	72
STR	35	264	3
SI_	35	264	3	96	48	7
TAP	35	336	2
TAP	36	48	1
TAP	36	96	0
TAP	36	96	7
TAP	36	144	6
TAP	36	192	4
TAP	36	192	5
TAP	36	240	3
STR	36	288	1
SXL	36	288	1	96	144	5
TAP	36	288	2
TAP	36	336	0
HLD	37	0	7	96
TAP	37	144	6
STR	37	192	6
SI_	37	192	6	96	48	2
TTP	37	288	0	C	1	M1
XST	38	0	0
SI_	38	0	0	96	48	4
XTP	38	48	0
XST	38	192	1
SI_	38	192	1	96	48	3
XST	38	192	7
SI_	38	192	7	96	48	5
XTP	38	240	1
XTP	38	240	7
TAP	39	0	3
TAP	39	0	4
TAP	39	48	5
TAP	39	96	2
TAP	39	96	6
TAP	39	144	1
XTP	39	192	0
XTP	39	192	7
XTP	39	240	0
XTP	39	240	7
HLD	39	336	3	96
TAP	39	336	4
TAP	40	48	7
TAP	40	96	0
TAP	40	96	6
TAP	40	144	1
TAP	40	192	2
TAP	40	192	6
TAP	40	240	5
STR	40	288	2
SCL	40	288	2	96	96	5
TAP	40	288	4
TAP	40	336	3
HLD	41	0	4	144
TAP	41	144	3
XTP	41	192	1
XTP	41	192	6
TAP	41	336	3
TAP	41	336	4
TAP	42	0	3
STR	42	0	4
SI_	42	0	4	96	48	0
TAP	42	96	1
TAP	42	192	2
HLD	42	192	7	72
HLD	42	264	6	72
TAP	42	336	5
TAP	43	48	3
TAP	43	48	4
TAP	43	96	2
TAP	43	144	1
HLD	43	192	0	72
TAP	43	192	5
HLD	43	264	1	72
TAP	43	336	2
TAP	44	48	3
TAP	44	48	4
TAP	44	96	5
TAP	44	144	6
TAP	44	192	0
TAP	44	192	7
TAP	44	240	1
TAP	44	288	2
TAP	44	288	3
TAP	44	336	4
XTP	45	0	1
XTP	45	0	5
XTP	45	48	2
XTP	45	48	6
XST	45	96	1
SXR	45	96	1	96	144	1
XST	45	96	5
SXR	45	96	5	96	144	5
XTP	45	144	2
XTP	45	144	6
XTP	45	192	1
XTP	45	192	5
TAP	46	0	3
TAP	46	48	4
TAP	46	96	3
TAP	46	144	5
TAP	46	192	3
HLD	46	192	6	72
HLD	46	264	5	72
TAP	46	336	4
TAP	47	48	2
TAP	47	96	3
TAP	47	144	2
TAP	47	192	1
TAP	47	192	4
TAP	47	240	2
TAP	47	288	5
TAP	47	312	5
TAP	47	336	4
STR	48	48	1
SCL	48	48	1	96	48	6
TAP	48	48	6
TAP	48	96	1
TAP	48	96	6
TAP	48	192	5
TAP	48	240	4
TAP	48	288	5
TAP	48	336	3
TAP	48	336	6
TAP	49	48	2
TAP	49	96	3
TAP	49	144	2
HLD	49	192	1	72
TAP	49	192	4
HLD	49	264	2	72
STR	49	336	3
SI_	49	336	3	96	48	0
TAP	50	48	7
HLD	50	96	7	96
TAP	50	192	0
TAP	50	264	3
TAP	50	264	4
TAP	50	336	1
TAP	50	336	6
TAP	51	48	2
TAP	51	96	0
TAP	51	144	7
HLD	51	192	5	96
TTP	51	288	7	E	0	M1
TTP	51	304	0	E	0	M1
TTP	51	320	1	E	0	M1
TTP	51	336	2	E	0	M1
TTP	51	352	3	E	0	M1
TTP	51	368	4	E	0	M1
TAP	52	48	6
TAP	52	96	6
TAP	52	144	5
TAP	52	192	1
TAP	52	192	4
TAP	52	240	2
TAP	52	288	3
TAP	52	288	6
TAP	52	336	5
TAP	53	0	1
STR	53	0	4
SI_	53	0	4	96	48	7
TAP	53	96	0
TAP	53	144	0
HLD	53	192	0	144
XTP	53	192	7
XTP	53	240	7
XTP	53	288	7
XTP	53	336	7
TTP	54	0	0	C	1	M1
TTP	54	0	1	B	0	M1
TTP	54	0	2	B	0	M1
TTP	54	0	5	B	0	M1
TTP	54	0	6	B	0	M1
TTP	55	192	4	B	0	M1
TTP	55	204	3	B	0	M1
TTP	56	0	5	E	0	M1
TTP	56	192	4	B	0	M1
TTP	57	0	3	B	0	M1
TTP	57	192	3	E	0	M1
HLD	58	0	4	288
TAP	58	96	6
TAP	58	288	6
TAP	59	0	5
TAP	59	96	4
TAP	59	192	3
TAP	59	288	2
HLD	60	0	1	192
HLD	60	192	6	192
TAP	61	0	1
TAP	61	96	0
TAP	61	120	7
TAP	61	144	0
TAP	61	168	7
TAP	61	192	0
TAP	61	216	7
TAP	61	240	0
TAP	61	264	7
STR	61	288	0
SI_	61	288	0	96	24	4
TAP	61	312	7
TAP	61	336	0
TAP	61	360	7
TTP	62	6	0	B	0	M1
TTP	62	12	0	C	0	M1
TTP	62	18	4	B	0	M1
XTP	62	336	0
XTP	62	336	4
XTP	62	352	1
XTP	62	352	5
XTP	62	368	2
XTP	62	368	6
XHO	63	0	3	180
XHO	63	0	7	180
TTP	63	186	7	B	0	M1
TTP	63	192	0	C	1	M1
TTP	63	198	3	B	0	M1
BRK	63	264	1
BRK	63	264	5
BRK	63	336	2
BRK	63	336	6
TAP	64	48	0
TAP	64	48	7
TAP	64	96	1
TAP	64	96	6
TAP	64	144	2
TAP	64	144	5
TAP	64	192	3
TAP	64	192	4
TAP	64	264	6
TAP	64	264	7
TAP	64	336	0
STR	64	336	1
SCR	64	336	1	96	48	4
TAP	65	48	6
HLD	65	96	6	48
TAP	65	144	7
TAP	65	168	6
TAP	65	240	1
TAP	65	240	4
TAP	65	288	0
TAP	65	336	7
TAP	66	0	3
TAP	66	0	6
TAP	66	72	1
STR	66	72	4
SCR	66	72	4	96	120	1
HLD	66	144	3	144
XTP	66	336	3
XTP	66	336	4
XTP	66	360	2
XTP	66	360	5
XST	67	0	1
SI_	67	0	1	96	48	4
XST	67	0	6
SI_	67	0	6	96	48	3
XTP	67	96	1
XTP	67	96	6
TAP	67	192	0
TAP	67	192	7
TAP	67	264	3
TAP	67	264	4
BRK	67	336	1
BRK	67	336	6
TAP	68	48	5
TAP	68	72	4
XTP	68	96	6
TAP	68	144	2
TAP	68	168	3
XTP	68	192	1
TAP	68	240	5
TAP	68	264	4
XTP	68	288	7
TAP	68	336	2
TAP	68	360	3
XHO	69	0	0	48
TAP	69	48	7
TAP	69	96	4
XTP	69	96	6
TAP	69	144	5
XTP	69	192	1
TAP	69	192	3
TAP	69	240	2
TAP	69	288	4
XTP	69	288	6
TAP	69	336	5
XTP	70	0	3
XTP	70	24	4
XTP	70	48	2
XTP	70	72	5
XTP	70	96	3
XTP	70	120	4
XTP	70	144	1
XTP	70	168	6
XTP	70	192	3
XTP	70	216	4
XTP	70	240	0
XTP	70	264	7
TTP	70	288	0	C	1	M1
TTP	70	288	3	B	0	M1
TTP	70	288	4	B	0	M1
XST	71	0	7
SI_	71	0	7	96	48	3
XTP	71	48	7
XST	71	192	0
SCR	71	192	0	96	48	3
XST	71	192	4
SCR	71	192	4	96	48	7
XTP	71	240	0
XTP	71	240	4
TAP	72	0	0
TAP	72	0	4
TAP	72	48	7
TAP	72	96	2
TAP	72	96	6
TAP	72	144	1
XTP	72	192	0
XTP	72	192	4
STR	72	240	0
SI_	72	240	0	96	48	4
XTP	72	240	4
HLD	72	336	7	96
TAP	73	48	0
TAP	73	96	1
TAP	73	96	7
TAP	73	144	6
TAP	73	192	1
TAP	73	192	5
TAP	73	240	2
TAP	73	288	3
STR	73	288	5
SCR	73	288	5	96	96	2
TAP	73	336	4
HLD	74	0	3	144
TAP	74	144	4
XTP	74	192	1
XTP	74	192	6
TAP	74	336	3
TAP	74	336	4
STR	75	0	3
SI_	75	0	3	96	48	0
STR	75	0	4
SI_	75	0	4	96	48	7
HLD	75	192	1	72
TAP	75	192	6
STR	75	264	3
SCR	75	264	3	96	72	7
XTP	75	336	2
TAP	76	48	1
TAP	76	96	0
TAP	76	144	7
TAP	76	192	1
HLD	76	192	6	72
STR	76	264	4
SCL	76	264	4	96	72	0
XTP	76	336	5
TAP	77	48	6
TAP	77	96	7
TAP	77	144	0
TAP	77	192	1
TAP	77	192	4
TAP	77	240	2
TAP	77	288	3
TAP	77	288	6
TAP	77	336	5
TAP	78	0	0
TAP	78	0	4
TAP	78	48	3
TAP	78	48	7
TAP	78	96	0
STR	78	96	4
SXL	78	96	4	96	144	4
SXR	78	96	4	96	144	4
TAP	78	144	3
TAP	78	144	7
XTP	79	0	2
XTP	79	0	6
XTP	79	48	1
XTP	79	48	5
XST	79	96	2
SI_	79	96	2	96	48	5
XST	79	96	6
SI_	79	96	6	96	48	1
XTP	79	144	1
XTP	79	144	5
XTP	79	192	2
XTP	79	192	6

T_REC_TAP	328
T_REC_BRK	10
T_REC_XTP	99
T_REC_HLD	48
T_REC_XHO	4
T_REC_STR	45
T_REC_BST	3
T_REC_XST	14
T_REC_TTP	31
T_REC_THO	0
T_REC_SLD	64
T_REC_ALL	646
T_NUM_TAP	517
T_NUM_BRK	13
T_NUM_HLD	52
T_NUM_SLD	64
T_NUM_ALL	646
T_JUDGE_TAP	530
T_JUDGE_HLD	118
T_JUDGE_SLD	64
T_JUDGE_ALL	712
TTM_EACHPAIRS	139
TTM_SCR_TAP	258500
TTM_SCR_BRK	33800
TTM_SCR_HLD	52000
TTM_SCR_SLD	96000
TTM_SCR_ALL	440300
TTM_SCR_S	425850
TTM_SCR_SS	439000
TTM_RAT_ACV	10029

