VERSION	0.00.00	1.03.00
FES_MODE	0
BPM_DEF	182.000	182.000	182.000	182.000
MET_DEF	4	4
RESOLUTION	384
CLK_DEF	384
COMPATIBLE_CODE	MA2

BPM	0	0	182.000
MET	0	0	4	4

BRK	1	288	1
XHO	2	0	0	96
TAP	2	96	3
TAP	2	144	3
XTP	2	192	1
TAP	2	240	1
TAP	2	288	4
TAP	2	336	4
XHO	3	0	2	96
TAP	3	96	5
TAP	3	144	5
XTP	3	192	3
TAP	3	240	3
TAP	3	288	6
TAP	3	336	6
XHO	4	0	0	96
TAP	4	96	3
TAP	4	144	3
XTP	4	192	1
TAP	4	240	1
TAP	4	288	4
TAP	4	336	4
XHO	5	0	2	96
TAP	5	96	5
TAP	5	144	5
XTP	5	192	3
TAP	5	240	3
TAP	5	288	6
TAP	5	336	6
XHO	6	0	0	96
TAP	6	96	3
TAP	6	144	3
XTP	6	192	1
TAP	6	240	1
TAP	6	288	3
TAP	6	336	3
XHO	7	0	2	96
TAP	7	96	0
TAP	7	144	0
XTP	7	192	3
TAP	7	240	3
TAP	7	288	4
TAP	7	336	4
XHO	8	0	0	96
TAP	8	96	3
TAP	8	144	3
XTP	8	192	1
TAP	8	240	1
TAP	8	288	3
TAP	8	336	3
XHO	9	0	2	96
TAP	9	96	0
TAP	9	144	0
XTP	9	192	3
TAP	9	240	3
TAP	9	288	4
TAP	9	336	4
HLD	10	0	2	96
TAP	10	96	3
STR	10	144	3
SI_	10	144	3	96	48	7
TAP	10	240	0
HLD	10	288	0	96
TAP	11	0	7
TAP	11	48	7
TAP	11	144	1
TAP	11	144	6
TAP	11	240	3
TAP	11	288	4
TAP	11	336	5
HLD	12	0	5	96
TAP	12	96	4
STR	12	144	4
SI_	12	144	4	96	48	0
TAP	12	240	7
HLD	12	288	7	96
TAP	13	0	0
STR	13	48	0
SI_	13	48	0	96	48	3
STR	13	48	7
SI_	13	48	7	96	48	4
XTP	13	240	3
XTP	13	264	4
XTP	13	288	3
TAP	13	336	2
HLD	14	0	2	96
TAP	14	96	3
STR	14	144	3
SI_	14	144	3	96	48	7
TAP	14	240	1
HLD	14	288	1	96
TAP	15	0	5
STR	15	48	2
SI_	15	48	2	96	48	7
STR	15	48	6
SI_	15	48	6	96	48	3
TAP	15	240	3
TAP	15	288	4
TAP	15	336	2
HLD	16	0	2	96
HLD	16	96	0	96
HLD	16	192	7	96
HLD	16	288	5	96
TAP	17	0	4
STR	17	48	4
SCL	17	48	4	96	48	1
SCR	17	48	4	96	48	7
XTP	17	240	7
XTP	17	288	7
TAP	17	336	1
HLD	18	0	1	96
TAP	18	96	3
STR	18	144	3
SI_	18	144	3	96	48	7
TAP	18	240	0
HLD	18	288	0	96
TTP	19	0	5	B	0	M1
TTP	19	0	5	E	0	M1
TTP	19	0	6	E	0	M1
TTP	19	48	2	B	0	M1
TTP	19	48	2	E	0	M1
TTP	19	48	3	E	0	M1
TTP	19	144	0	C	0	M1
TTP	19	144	3	B	0	M1
TTP	19	144	4	B	0	M1
XTP	19	240	7
XTP	19	264	0
XTP	19	288	7
TAP	19	336	6
HLD	20	0	6	96
TAP	20	96	4
STR	20	144	4
SI_	20	144	4	96	48	0
TAP	20	240	7
TAP	20	288	7
XTP	21	0	1
XTP	21	0	6
XST	21	48	1
SI_	21	48	1	96	48	4
XST	21	48	6
SI_	21	48	6	96	48	3
XTP	21	240	2
XTP	21	240	5
XTP	21	288	2
XTP	21	288	5
TAP	21	336	6
STR	22	0	6
SLL	22	0	6	96	96	2
TAP	22	96	1
STR	22	144	1
SLR	22	144	1	96	96	5
TAP	22	240	6
HLD	22	288	6	96
TAP	23	0	0
TAP	23	48	0
TAP	23	144	1
TAP	23	144	5
XTP	23	240	3
XTP	23	264	4
XTP	23	288	3
TAP	23	336	2
STR	24	0	2
SCR	24	0	2	96	48	5
TAP	24	96	7
STR	24	192	6
SCR	24	192	6	96	48	1
TAP	24	288	3
TAP	25	0	2
TAP	25	48	2
HLD	25	144	5	96
XTP	25	240	3
TAP	25	288	2
TAP	25	288	6
STR	26	0	1
SCR	26	0	1	96	48	3
STR	26	0	4
SCR	26	0	4	96	48	6
STR	26	192	3
SCL	26	192	3	96	48	1
STR	26	192	6
SCL	26	192	6	96	48	4
STR	27	0	1
SCR	27	0	1	96	48	3
STR	27	0	4
SCR	27	0	4	96	48	6
HLD	27	192	3	96
TAP	27	192	6
TAP	27	288	7
HLD	27	336	7	96
TAP	28	48	0
STR	28	96	0
SI_	28	96	0	96	48	3
STR	28	192	7
SI_	28	192	7	96	48	4
TAP	29	0	3
TAP	29	0	4
STR	29	48	3
SCL	29	48	3	96	48	0
STR	29	48	4
SCR	29	48	4	96	48	7
TAP	29	336	1
TAP	29	336	6
STR	30	0	0
SI_	30	0	0	96	48	3
STR	30	0	7
SI_	30	0	7	96	48	4
XTP	30	96	0
XTP	30	96	7
XTP	30	192	2
XTP	30	192	5
XTP	30	264	1
XTP	30	264	6
XTP	30	336	1
XTP	30	336	6
TAP	31	48	2
STR	31	96	2
SXR	31	96	2	96	192	7
HLD	31	192	4	144
TAP	32	48	0
STR	32	96	0
SLL	32	96	0	96	48	4
SLR	32	96	0	96	48	4
XTP	32	288	2
XTP	32	288	6
TAP	33	0	4
TAP	33	72	3
TAP	33	72	5
HLD	33	144	2	96
TAP	33	144	6
TAP	33	240	5
TAP	33	288	5
TAP	33	336	1
TAP	33	336	6
STR	34	0	0
SI_	34	0	0	96	48	3
STR	34	0	7
SI_	34	0	7	96	48	4
XTP	34	96	0
XTP	34	96	7
XTP	34	192	2
XTP	34	192	5
XTP	34	264	1
XTP	34	264	6
XTP	34	336	1
XTP	34	336	6
TAP	35	48	5
STR	35	96	5
SI_	35	96	5	96	48	0
STR	35	192	4
SLL	35	192	4	96	96	7
TAP	36	48	5
HLD	36	96	5	96
TAP	36	192	3
TAP	36	240	2
STR	36	288	1
SI_	36	288	1	96	48	4
TAP	36	288	4
TAP	36	336	5
STR	37	0	6
SI_	37	0	6	96	48	2
TAP	37	96	0
TAP	37	144	0
TAP	37	192	1
TAP	37	192	4
BST	37	288	7
SI_	37	288	7	96	48	3
XTP	38	0	7
STR	38	96	0
SI_	38	96	0	96	48	4
STR	38	96	1
SI_	38	96	1	96	48	3
XTP	38	192	0
XTP	38	192	1
STR	38	288	0
SLL	38	288	0	96	96	4
STR	38	288	7
SLR	38	288	7	96	96	3
TAP	39	192	0
TAP	39	192	7
TAP	39	240	0
TAP	39	240	7
HLD	39	336	2	96
TAP	39	336	5
TAP	40	48	3
STR	40	96	3
SCR	40	96	3	96	96	7
STR	40	192	7
SCR	40	192	7	96	96	3
STR	40	288	3
SCR	40	288	3	96	96	7
TAP	41	0	7
TAP	41	96	3
BRK	41	192	1
BRK	41	192	5
TAP	41	288	0
TAP	41	336	0
STR	42	0	1
SI_	42	0	1	96	48	4
STR	42	0	7
SI_	42	0	7	96	48	4
XTP	42	96	1
XTP	42	96	7
XTP	42	192	3
XTP	42	192	5
XTP	42	264	2
XTP	42	264	6
XTP	42	336	2
XTP	42	336	6
TAP	43	48	5
TAP	43	96	3
TAP	43	96	5
TAP	43	192	2
TAP	43	192	6
TAP	43	264	1
TAP	43	264	4
TAP	43	336	3
TAP	43	336	7
TAP	44	48	2
HLD	44	96	2	96
TAP	44	144	4
HLD	44	192	5	96
TAP	44	240	3
HLD	44	288	2	96
TAP	44	336	4
TAP	45	0	5
TAP	45	48	5
TAP	45	96	3
TAP	45	96	4
TTP	45	192	0	C	1	M1
TTP	45	192	2	B	0	M1
TTP	45	192	2	E	0	M1
TTP	45	192	5	B	0	M1
TTP	45	192	6	E	0	M1
STR	46	0	0
SI_	46	0	0	96	48	4
TAP	46	48	0
TAP	46	96	7
TAP	46	144	7
HLD	46	192	6	72
HLD	46	264	5	72
STR	46	336	4
SI_	46	336	4	96	48	0
TAP	47	48	3
STR	47	96	3
SI_	47	96	3	96	48	7
STR	47	192	6
SI_	47	192	6	96	48	2
TAP	47	288	0
TAP	48	0	0
STR	48	0	1
SCR	48	0	1	96	48	4
TAP	48	96	6
XTP	48	192	7
XTP	48	240	7
XTP	48	288	3
XTP	48	288	6
XTP	48	336	3
XTP	48	336	6
TAP	49	0	5
TAP	49	48	4
TAP	49	96	3
TAP	49	144	2
TAP	49	192	1
TAP	49	192	4
TAP	49	264	2
TAP	49	264	5
TAP	49	336	3
TAP	49	336	6
TAP	50	0	3
STR	50	0	6
SI_	50	0	6	96	48	1
BRK	50	96	0
HLD	50	192	0	72
HLD	50	264	2	72
TAP	50	336	3
TAP	51	48	5
STR	51	96	5
SI_	51	96	5	96	48	1
STR	51	192	2
SI_	51	192	2	96	48	6
TAP	51	288	7
HLD	51	336	7	96
TAP	52	48	3
TAP	52	96	2
TAP	52	144	4
TAP	52	192	5
TAP	52	240	0
TAP	52	288	1
TAP	52	336	7
HLD	53	0	6	96
TAP	53	96	4
TAP	53	144	4
TAP	53	192	3
TAP	53	192	5
TAP	53	240	2
STR	53	288	1
SI_	53	288	1	96	48	5
HLD	53	288	3	1536
XTP	54	0	1
TAP	57	288	4
TAP	58	0	2
HLD	58	0	5	1056
TAP	58	96	4
TAP	58	192	4
TAP	58	288	4
TAP	58	336	3
TAP	59	0	3
TAP	59	96	4
TAP	59	192	4
TAP	59	288	4
TAP	59	336	3
TAP	60	0	3
TAP	60	96	4
TAP	60	192	4
TAP	60	288	4
TAP	60	336	3
TAP	61	0	3
TAP	61	96	1
TAP	61	96	6
TAP	61	192	0
TAP	61	216	7
TAP	61	240	0
TAP	61	264	7
TAP	61	288	0
HLD	62	0	2	288
HLD	62	0	5	288
TTP	63	0	0	C	1	M1
TTP	63	0	3	B	0	M1
TTP	63	0	3	E	0	M1
TTP	63	0	4	B	0	M1
TTP	63	0	5	E	0	M1
XTP	63	192	0
XTP	63	192	7
XTP	63	264	1
XTP	63	264	6
XTP	63	336	3
XTP	63	336	4
TAP	64	48	5
STR	64	96	5
SXL	64	96	5	96	192	0
HLD	64	192	2	144
TAP	65	48	7
STR	65	96	7
SLL	65	96	7	96	48	3
SLR	65	96	7	96	48	3
XTP	65	288	1
XTP	65	288	5
TAP	66	0	4
STR	66	72	3
SCL	66	72	3	96	120	5
TAP	66	72	6
HLD	66	144	4	144
XTP	66	336	3
XTP	66	336	4
STR	67	0	2
SI_	67	0	2	96	48	4
STR	67	0	6
SI_	67	0	6	96	48	0
XTP	67	96	2
XTP	67	96	6
XTP	67	192	3
XTP	67	192	7
XTP	67	264	2
XTP	67	264	6
XTP	67	336	1
XTP	67	336	5
TAP	68	48	3
STR	68	96	3
SI_	68	96	3	96	48	7
STR	68	192	5
SLL	68	192	5	96	96	0
TAP	69	48	2
HLD	69	96	2	96
TAP	69	192	4
TAP	69	240	5
TAP	69	288	3
STR	69	288	6
SCL	69	288	6	96	48	3
TAP	69	336	2
STR	70	0	1
SUR	70	0	1	96	48	5
TAP	70	96	7
TAP	70	144	7
TAP	70	192	3
TAP	70	192	6
BST	70	288	0
SI_	70	288	0	96	48	4
XTP	71	0	0
STR	71	96	6
SI_	71	96	6	96	48	4
STR	71	96	7
SI_	71	96	7	96	48	3
XTP	71	192	6
XTP	71	192	7
XST	71	288	0
SLL	71	288	0	96	96	3
XST	71	288	7
SLR	71	288	7	96	96	4
TAP	72	192	1
TAP	72	192	6
TAP	72	240	1
TAP	72	240	6
TAP	72	336	2
HLD	72	336	5	96
TAP	73	48	4
STR	73	96	4
SCL	73	96	4	96	96	0
STR	73	192	0
SCL	73	192	0	96	96	4
STR	73	288	4
SCL	73	288	4	96	96	0
TAP	74	0	0
TAP	74	96	4
BRK	74	192	2
BRK	74	192	6
TAP	74	288	3
TAP	74	288	7
TAP	74	336	3
TAP	74	336	7
STR	75	0	2
SI_	75	0	2	96	48	4
STR	75	0	6
SI_	75	0	6	96	48	0
XTP	75	96	2
XTP	75	96	6
XTP	75	192	3
XTP	75	192	7
XTP	75	264	2
XTP	75	264	6
XTP	75	336	1
XTP	75	336	5
TAP	76	48	2
TAP	76	96	2
TAP	76	96	4
TAP	76	192	1
TAP	76	192	5
TAP	76	264	3
TAP	76	264	6
TAP	76	336	0
TAP	76	336	4
TAP	77	48	6
HLD	77	96	6	96
TAP	77	144	0
HLD	77	192	1	96
TAP	77	240	7
HLD	77	288	6	96
TAP	77	336	0
TAP	78	0	1
TAP	78	48	1
TAP	78	96	0
TAP	78	96	7
TAP	78	144	0
TAP	78	144	7
BRK	78	192	1
BRK	78	192	6
TAP	78	288	3
TAP	78	288	4
TTP	79	0	6	E	0	M1
TTP	79	48	5	E	0	M1
TTP	79	96	0	E	0	M1
TTP	79	144	3	E	0	M1
TTP	79	192	2	E	0	M1

T_REC_TAP	239
T_REC_BRK	8
T_REC_XTP	91
T_REC_HLD	41
T_REC_XHO	8
T_REC_STR	68
T_REC_BST	2
T_REC_XST	4
T_REC_TTP	24
T_REC_THO	0
T_REC_SLD	77
T_REC_ALL	562
T_NUM_TAP	426
T_NUM_BRK	10
T_NUM_HLD	49
T_NUM_SLD	77
T_NUM_ALL	562
T_JUDGE_TAP	436
T_JUDGE_HLD	159
T_JUDGE_SLD	77
T_JUDGE_ALL	672
TTM_EACHPAIRS	96
TTM_SCR_TAP	213000
TTM_SCR_BRK	26000
TTM_SCR_HLD	49000
TTM_SCR_SLD	115500
TTM_SCR_ALL	403500
TTM_SCR_S	390450
TTM_SCR_SS	402500
TTM_RAT_ACV	10024

