VERSION	0.00.00	1.03.00
FES_MODE	0
BPM_DEF	182.000	182.000	182.000	182.000
MET_DEF	4	4
RESOLUTION	384
CLK_DEF	384
COMPATIBLE_CODE	MA2

BPM	0	0	182.000
MET	0	0	4	4

BRK	1	288	2
HLD	2	0	4	288
TAP	2	96	3
TAP	2	144	3
TAP	2	288	2
HLD	3	0	5	288
TAP	3	96	4
TAP	3	144	4
TAP	3	288	3
HLD	4	0	6	288
TAP	4	96	5
TAP	4	144	5
TAP	4	288	4
TAP	5	0	5
TAP	5	96	4
TAP	5	192	3
TAP	5	192	6
HLD	6	0	3	288
TAP	6	96	4
TAP	6	144	4
TAP	6	288	5
HLD	7	0	2	288
TAP	7	96	3
TAP	7	144	3
TAP	7	288	4
HLD	8	0	1	288
TAP	8	96	2
TAP	8	144	2
TAP	8	288	3
TAP	9	0	2
TAP	9	96	3
TAP	9	192	1
TAP	9	192	4
STR	10	0	6
SI_	10	0	6	96	48	3
STR	10	192	1
SI_	10	192	1	96	48	4
TAP	11	0	5
TAP	11	48	5
HLD	11	144	4	144
HLD	11	144	6	144
TAP	12	0	3
TAP	12	96	2
TAP	12	192	1
TAP	13	0	0
TAP	13	0	7
STR	13	48	0
SI_	13	48	0	96	48	3
STR	13	48	7
SI_	13	48	7	96	48	4
STR	14	0	1
SI_	14	0	1	96	48	4
STR	14	192	6
SI_	14	192	6	96	48	3
TAP	15	0	2
TAP	15	48	2
HLD	15	144	1	144
HLD	15	144	3	144
TAP	16	0	4
TAP	16	96	5
TAP	16	192	6
TAP	17	0	0
TAP	17	0	7
STR	17	48	0
SI_	17	48	0	96	48	3
STR	17	48	7
SI_	17	48	7	96	48	4
STR	18	0	6
SI_	18	0	6	96	48	2
STR	18	192	1
SI_	18	192	1	96	48	5
TAP	19	0	6
TAP	19	48	6
HLD	19	144	5	144
HLD	19	144	7	144
TAP	20	0	4
TAP	20	96	3
TAP	20	192	2
TAP	20	288	1
TAP	21	0	0
TAP	21	0	7
STR	21	48	0
SI_	21	48	0	96	48	3
STR	21	48	7
SI_	21	48	7	96	48	4
STR	22	0	1
SI_	22	0	1	96	48	5
STR	22	192	6
SI_	22	192	6	96	48	2
TAP	23	0	1
TAP	23	48	1
HLD	23	144	0	144
HLD	23	144	2	144
TAP	24	0	3
TAP	24	96	4
TAP	24	192	5
TAP	24	288	6
TAP	25	0	0
TAP	25	0	7
STR	25	48	0
SI_	25	48	0	96	48	3
STR	25	48	7
SI_	25	48	7	96	48	4
TTP	26	0	4	B	0	M1
TTP	26	96	5	B	0	M1
TTP	26	192	6	B	0	M1
TTP	26	288	7	B	0	M1
TTP	27	0	0	B	0	M1
TTP	27	96	1	B	0	M1
TTP	27	192	2	B	0	M1
TTP	28	0	5	B	0	M1
TTP	28	96	4	B	0	M1
TTP	28	192	3	B	0	M1
TTP	28	288	2	B	0	M1
THO	29	0	0	144	C	1	M1
XTP	30	0	6
XTP	30	0	7
TAP	30	96	4
TAP	30	96	5
XHO	30	192	3	72
XHO	30	264	2	72
XTP	30	336	1
TAP	31	48	0
TAP	31	48	1
TAP	31	96	0
TAP	31	96	1
XHO	31	192	1	72
XHO	31	264	2	72
XTP	31	336	3
TAP	32	48	3
TAP	32	48	4
TAP	32	96	3
TAP	32	96	4
TAP	32	192	4
TAP	32	192	5
TAP	32	288	3
TAP	32	288	4
HLD	33	0	1	288
STR	33	0	3
SUR	33	0	3	96	144	0
TAP	34	0	0
TAP	34	0	1
TAP	34	96	3
TAP	34	96	4
XHO	34	192	4	72
XHO	34	264	5	72
XTP	34	336	6
TAP	35	48	6
TAP	35	48	7
TAP	35	96	6
TAP	35	96	7
XHO	35	192	6	72
XHO	35	264	5	72
XTP	35	336	4
TAP	36	48	3
TAP	36	48	4
TAP	36	96	3
TAP	36	96	4
TAP	36	192	2
TAP	36	192	3
TAP	36	288	3
TAP	36	288	4
HLD	37	0	4	96
HLD	37	0	6	96
TTP	37	192	0	C	1	M1
TTP	37	192	2	E	0	M1
TTP	37	192	6	E	0	M1
STR	38	0	0
SI_	38	0	0	96	48	4
STR	38	0	1
SI_	38	0	1	96	48	4
STR	38	192	6
SI_	38	192	6	96	48	3
STR	38	192	7
SI_	38	192	7	96	48	3
TAP	39	0	2
TAP	39	96	2
TAP	39	96	4
TAP	39	192	5
TAP	39	288	4
TAP	39	288	5
STR	40	0	6
SI_	40	0	6	96	48	3
STR	40	0	7
SI_	40	0	7	96	48	3
STR	40	192	0
SI_	40	192	0	96	48	4
STR	40	192	1
SI_	40	192	1	96	48	4
TAP	41	0	5
TAP	41	96	3
TAP	41	96	5
TAP	41	192	2
TAP	41	192	6
TAP	42	0	6
TAP	42	0	7
TAP	42	96	4
TAP	42	96	5
XHO	42	192	3	72
XHO	42	264	2	72
XTP	42	336	1
TAP	43	48	0
TAP	43	48	1
TAP	43	96	0
TAP	43	96	1
XHO	43	192	1	72
XHO	43	264	2	72
XTP	43	336	3
TAP	44	48	3
TAP	44	48	4
TAP	44	96	3
TAP	44	96	4
TAP	44	192	4
TAP	44	192	6
TAP	44	288	3
TAP	44	288	4
BRK	45	0	1
BRK	45	0	3
BRK	45	96	4
BRK	45	96	6
BRK	45	192	1
BRK	45	192	6
TAP	46	0	1
TAP	46	48	1
TAP	46	96	3
TAP	46	144	3
TAP	46	192	2
TAP	46	288	2
TAP	46	288	4
TAP	47	0	6
TAP	47	48	6
TAP	47	96	4
TAP	47	144	4
TAP	47	192	5
TAP	47	288	3
TAP	47	288	5
HLD	48	0	1	96
TAP	48	96	0
HLD	48	192	6	96
TAP	48	288	7
TAP	49	0	0
TAP	49	0	1
TAP	49	96	2
TAP	49	96	3
TAP	49	192	1
TAP	49	192	4
TAP	50	0	6
TAP	50	48	6
TAP	50	96	4
TAP	50	144	4
TAP	50	192	5
TAP	50	288	3
TAP	50	288	5
TAP	51	0	1
TAP	51	48	1
TAP	51	96	3
TAP	51	144	3
TAP	51	192	2
TAP	51	288	2
TAP	51	288	4
HLD	52	0	6	96
TAP	52	96	7
HLD	52	192	1	96
TAP	52	288	0
XTP	53	0	2
XTP	53	0	6
XTP	53	96	0
XTP	53	96	4
XHO	53	144	0	144
XHO	53	144	4	144
STR	54	0	1
SCR	54	0	1	96	480	4
STR	56	0	6
SCL	56	0	6	96	480	3
HLD	58	0	4	288
TAP	58	96	3
TAP	58	192	3
TAP	58	288	3
HLD	59	0	3	288
TAP	59	96	4
TAP	59	192	4
TAP	59	288	4
TAP	60	0	5
TAP	60	96	4
TAP	60	192	3
TAP	60	288	2
STR	61	0	1
SI_	61	0	1	96	288	6
STR	61	0	5
SI_	61	0	5	96	288	2
XHO	63	0	2	96
XHO	63	0	5	96
XTP	63	192	0
XTP	63	192	7
XTP	63	264	0
XTP	63	264	7
XTP	63	336	0
XTP	63	336	7
TAP	64	48	0
TAP	64	48	1
TAP	64	96	0
TAP	64	96	1
XHO	64	192	1	72
XHO	64	264	2	72
XTP	64	336	3
TAP	65	48	3
TAP	65	48	4
TAP	65	96	3
TAP	65	96	4
TAP	65	192	5
TAP	65	192	7
TAP	65	288	3
TAP	65	288	4
STR	66	0	3
SXR	66	0	3	96	192	4
STR	66	0	4
SXL	66	0	4	96	192	3
TAP	67	0	0
TAP	67	0	1
TAP	67	96	2
TAP	67	96	3
XHO	67	192	4	72
XHO	67	264	5	72
XTP	67	336	6
TAP	68	48	6
TAP	68	48	7
TAP	68	96	6
TAP	68	96	7
XHO	68	192	6	72
XHO	68	264	5	72
XTP	68	336	4
TAP	69	48	3
TAP	69	48	4
TAP	69	96	3
TAP	69	96	4
TAP	69	192	1
TAP	69	192	3
TAP	69	288	3
TAP	69	288	4
STR	70	0	3
SXR	70	0	3	96	192	4
STR	70	0	4
SXL	70	0	4	96	192	3
STR	71	0	0
SI_	71	0	0	96	48	4
STR	71	0	1
SI_	71	0	1	96	48	4
STR	71	192	6
SI_	71	192	6	96	48	3
STR	71	192	7
SI_	71	192	7	96	48	3
TAP	72	0	2
TAP	72	96	2
TAP	72	96	4
TAP	72	192	5
TAP	72	288	4
TAP	72	288	5
STR	73	0	6
SI_	73	0	6	96	48	3
STR	73	0	7
SI_	73	0	7	96	48	3
STR	73	192	0
SI_	73	192	0	96	48	4
STR	73	192	1
SI_	73	192	1	96	48	4
TAP	74	0	5
TAP	74	96	3
TAP	74	96	5
TAP	74	192	2
TAP	74	192	6
TAP	75	0	6
TAP	75	0	7
TAP	75	96	4
TAP	75	96	5
XHO	75	192	3	72
XHO	75	264	2	72
XTP	75	336	1
TAP	76	48	0
TAP	76	48	1
TAP	76	96	0
TAP	76	96	1
XHO	76	192	1	72
XHO	76	264	2	72
XTP	76	336	3
TAP	77	48	3
TAP	77	48	4
TAP	77	96	3
TAP	77	96	4
TAP	77	192	4
TAP	77	192	6
TAP	77	288	3
TAP	77	288	4
BRK	78	0	1
BRK	78	0	3
BRK	78	96	4
BRK	78	96	6
BRK	78	192	1
BRK	78	192	6
BRK	79	0	0
BRK	79	0	2
BRK	79	96	5
BRK	79	96	7
BRK	79	192	1
BRK	79	192	6

T_REC_TAP	216
T_REC_BRK	19
T_REC_XTP	23
T_REC_HLD	23
T_REC_XHO	26
T_REC_STR	41
T_REC_BST	0
T_REC_XST	0
T_REC_TTP	14
T_REC_THO	1
T_REC_SLD	41
T_REC_ALL	404
T_NUM_TAP	294
T_NUM_BRK	19
T_NUM_HLD	50
T_NUM_SLD	41
T_NUM_ALL	404
T_JUDGE_TAP	313
T_JUDGE_HLD	147
T_JUDGE_SLD	41
T_JUDGE_ALL	501
TTM_EACHPAIRS	104
TTM_SCR_TAP	147000
TTM_SCR_BRK	49400
TTM_SCR_HLD	50000
TTM_SCR_SLD	61500
TTM_SCR_ALL	307900
TTM_SCR_S	296850
TTM_SCR_SS	306000
TTM_RAT_ACV	10062

