VERSION	0.00.00	1.03.00
FES_MODE	0
BPM_DEF	182.000	182.000	182.000	182.000
MET_DEF	4	4
RESOLUTION	384
CLK_DEF	384
COMPATIBLE_CODE	MA2

BPM	0	0	182.000
MET	0	0	4	4

TAP	2	0	2
TAP	2	96	2
TAP	2	192	2
TAP	2	192	3
TAP	3	0	5
TAP	3	96	5
TAP	3	192	4
TAP	3	192	5
TAP	4	0	2
TAP	4	96	2
TAP	4	192	2
TAP	4	192	3
TAP	5	0	4
TAP	5	96	4
TAP	5	192	3
TAP	5	192	5
TAP	6	0	6
TAP	6	96	6
TAP	6	192	6
TAP	6	192	7
TAP	7	0	1
TAP	7	96	1
TAP	7	192	0
TAP	7	192	1
TAP	8	0	6
TAP	8	96	6
TAP	8	192	6
TAP	8	192	7
TAP	9	0	0
TAP	9	96	7
BRK	9	192	1
BRK	9	192	6
HLD	10	0	5	192
TAP	10	192	4
HLD	11	0	2	192
TAP	11	192	3
HLD	12	0	5	192
TAP	12	192	4
HLD	13	0	2	96
HLD	13	0	3	96
TAP	13	192	2
TAP	13	192	3
HLD	14	0	1	192
TAP	14	192	0
HLD	15	0	6	192
TAP	15	192	7
HLD	16	0	1	192
TAP	16	192	0
TAP	17	0	0
TAP	17	0	7
TAP	17	96	0
TAP	17	96	7
TAP	17	192	1
TAP	17	192	6
TAP	18	0	2
TAP	18	96	2
TAP	18	192	3
TAP	18	288	3
TAP	19	0	4
TAP	19	96	4
TAP	19	192	3
TAP	19	192	5
TAP	20	0	6
TAP	20	96	6
TAP	20	192	7
TAP	20	288	7
TAP	21	0	0
TAP	21	96	0
TAP	21	192	0
TAP	21	192	7
TAP	22	0	6
TAP	22	96	6
TAP	22	192	5
TAP	22	288	5
TAP	23	0	4
TAP	23	96	4
TAP	23	192	3
TAP	23	192	5
TAP	24	0	2
TAP	24	96	2
TAP	24	192	1
TAP	24	288	1
TAP	25	0	0
TAP	25	96	0
TAP	25	192	1
TAP	25	192	7
TTP	26	0	2	B	0	L1
TTP	26	0	3	E	0	L1
TTP	26	192	4	E	0	L1
TTP	27	0	5	B	0	L1
TTP	27	0	5	E	0	L1
TTP	28	0	1	E	0	L1
TTP	28	0	7	E	0	L1
TTP	28	192	2	E	0	L1
TTP	28	192	6	E	0	L1
TTP	29	0	3	E	0	L1
TTP	29	0	5	E	0	L1
TAP	30	0	6
TAP	30	96	6
TAP	30	192	6
TAP	30	192	7
TAP	30	288	6
TAP	30	288	7
TAP	31	0	1
TAP	31	96	1
TAP	31	192	0
TAP	31	192	1
TAP	31	288	0
TAP	31	288	1
TAP	32	0	2
TAP	32	96	2
TAP	32	192	3
TAP	32	288	3
TAP	33	0	4
TAP	33	96	4
TAP	33	192	3
TAP	33	192	5
TAP	34	0	2
BRK	34	96	2
TAP	34	192	2
TAP	34	192	3
TAP	34	288	2
TAP	34	288	3
TAP	35	0	5
TAP	35	96	5
TAP	35	192	4
TAP	35	192	5
TAP	35	288	4
TAP	35	288	5
TAP	36	0	6
TAP	36	96	6
TAP	36	192	7
TAP	36	288	7
TAP	37	0	0
TAP	37	96	0
TAP	37	192	1
TAP	37	192	7
HLD	38	0	2	96
TAP	38	96	3
TAP	38	192	2
TAP	38	192	3
HLD	39	0	5	96
TAP	39	96	4
TAP	39	192	4
TAP	39	192	5
TAP	40	0	6
TAP	40	96	6
TAP	40	192	7
TAP	40	288	7
TAP	41	0	0
TAP	41	96	0
TAP	41	192	1
TAP	41	192	7
TAP	42	0	6
TAP	42	96	6
TAP	42	192	6
TAP	42	192	7
TAP	42	288	6
TAP	42	288	7
TAP	43	0	1
TAP	43	96	1
TAP	43	192	0
TAP	43	192	1
TAP	43	288	0
TAP	43	288	1
TAP	44	0	2
TAP	44	96	2
TAP	44	192	3
TAP	44	288	3
TAP	45	0	3
TAP	45	0	4
TAP	45	96	3
TAP	45	96	4
BRK	45	192	2
BRK	45	192	5
STR	46	0	6
SI_	46	0	6	96	192	3
STR	47	0	2
SI_	47	0	2	96	192	7
STR	48	0	6
SI_	48	0	6	96	192	2
STR	49	0	1
SI_	49	0	1	96	192	5
TAP	50	0	6
TAP	50	96	6
TAP	50	192	7
TAP	51	0	1
TAP	51	96	1
TAP	51	192	0
TAP	52	0	7
TAP	52	96	7
TAP	52	192	0
TAP	52	288	0
BRK	53	0	1
BRK	53	0	6
HLD	54	0	5	384
HLD	55	0	4	384
HLD	56	0	3	384
TAP	57	0	2
HLD	58	0	1	384
HLD	59	0	0	384
HLD	60	0	7	384
TAP	61	0	6
TTP	62	0	0	C	0	L1
XTP	63	0	6
XTP	63	0	7
XTP	63	192	0
XTP	63	192	1
TAP	64	0	0
TAP	64	0	7
TAP	64	96	0
TAP	64	96	7
BRK	64	192	1
BRK	64	192	6
TAP	65	0	2
TAP	65	96	2
TAP	65	192	3
TAP	65	288	3
TAP	66	0	2
TAP	66	0	3
TAP	66	96	2
TAP	66	96	3
TAP	66	192	1
TAP	66	192	4
TAP	67	0	5
BRK	67	96	4
BRK	67	96	5
TAP	67	192	5
TAP	67	288	4
TAP	67	288	5
TAP	68	0	2
TAP	68	96	2
TAP	68	96	3
TAP	68	192	2
TAP	68	288	2
TAP	68	288	3
TAP	69	0	1
TAP	69	96	1
TAP	69	192	0
TAP	69	288	0
TAP	70	0	7
TAP	70	96	7
TAP	70	192	0
TAP	70	192	6
HLD	71	0	5	96
TAP	71	96	4
TAP	71	192	4
TAP	71	192	5
HLD	72	0	2	96
TAP	72	96	3
TAP	72	192	2
TAP	72	192	3
TAP	73	0	1
TAP	73	96	1
TAP	73	192	0
TAP	74	0	6
TAP	74	96	6
TAP	74	192	7
TAP	75	0	1
TAP	75	96	0
TAP	75	96	1
TAP	75	192	1
TAP	75	288	0
TAP	75	288	1
TAP	76	0	6
TAP	76	96	6
TAP	76	96	7
TAP	76	192	6
TAP	76	288	6
TAP	76	288	7
TAP	77	0	5
TAP	77	96	5
TAP	77	192	4
TAP	77	288	4
TAP	78	0	3
TAP	78	0	4
TAP	78	96	3
TAP	78	96	4
BRK	78	192	2
BRK	78	192	5
TAP	79	0	0
TAP	79	0	7
TAP	79	96	0
TAP	79	96	7
BRK	79	192	1
BRK	79	192	6

T_REC_TAP	229
T_REC_BRK	15
T_REC_XTP	4
T_REC_HLD	18
T_REC_XHO	0
T_REC_STR	4
T_REC_BST	0
T_REC_XST	0
T_REC_TTP	12
T_REC_THO	0
T_REC_SLD	4
T_REC_ALL	286
T_NUM_TAP	249
T_NUM_BRK	15
T_NUM_HLD	18
T_NUM_SLD	4
T_NUM_ALL	286
T_JUDGE_TAP	264
T_JUDGE_HLD	84
T_JUDGE_SLD	4
T_JUDGE_ALL	352
TTM_EACHPAIRS	63
TTM_SCR_TAP	124500
TTM_SCR_BRK	39000
TTM_SCR_HLD	18000
TTM_SCR_SLD	6000
TTM_SCR_ALL	187500
TTM_SCR_S	180450
TTM_SCR_SS	186000
TTM_RAT_ACV	10080

