VERSION	0.00.00	1.03.00
FES_MODE	0
BPM_DEF	180.000	190.000	190.000	180.000
MET_DEF	4	4
RESOLUTION	384
CLK_DEF	384
COMPATIBLE_CODE	MA2

BPM	0	0	180.000
BPM	8	288	190.000
MET	0	0	4	4
MET	7	0	4	3
MET	7	288	4	4

TAP	1	0	2
TAP	1	0	3
TAP	1	96	3
TAP	1	96	4
TAP	1	192	4
TAP	1	192	5
STR	1	288	3
SCL	1	288	3	96	240	0
STR	1	288	4
SCR	1	288	4	96	240	7
TAP	3	0	5
TAP	3	96	0
TAP	3	96	7
TAP	3	192	1
TAP	3	288	0
TAP	3	288	2
TAP	4	0	1
TAP	4	96	0
TAP	4	96	6
TAP	4	192	7
TAP	4	288	0
TAP	4	288	1
TAP	5	0	2
TAP	5	96	0
TAP	5	96	7
TAP	5	192	6
TAP	5	288	5
TAP	5	288	7
TAP	6	0	6
TAP	6	96	1
TAP	6	96	7
TAP	6	192	0
TAP	6	288	6
TAP	6	288	7
TAP	7	0	5
STR	7	96	0
SI_	7	96	0	96	24	4
STR	7	96	7
SI_	7	96	7	96	24	3
XTP	7	192	0
XTP	7	192	7
TTP	7	204	0	C	1	M1
TTP	7	204	1	B	0	M1
TTP	7	204	2	B	0	M1
TTP	7	204	3	B	0	M1
TTP	7	204	4	B	0	M1
TTP	7	204	5	B	0	M1
TTP	7	204	6	B	0	M1
THO	8	288	0	576	C	0	M1
TTP	8	288	2	B	0	M1
TTP	8	288	3	B	0	M1
TTP	8	288	4	B	0	M1
TTP	8	288	5	B	0	M1
TTP	10	240	5	B	0	M1
TTP	10	240	6	E	0	M1
TTP	10	312	1	B	0	M1
TTP	10	312	2	E	0	M1
TTP	11	0	6	B	0	M1
TTP	11	0	7	B	0	M1
TTP	11	72	0	B	0	M1
TTP	11	72	0	E	0	M1
XTP	11	216	3
XTP	11	216	4
XTP	12	24	0
XTP	12	24	7
TTP	12	144	0	C	1	M1
TTP	12	144	1	B	0	M1
TTP	12	144	1	E	0	M1
TTP	12	144	2	B	0	M1
TTP	12	144	3	E	0	M1
TTP	12	144	5	B	0	M1
TTP	12	144	5	E	0	M1
TTP	12	144	6	B	0	M1
TTP	12	144	7	E	0	M1
THO	13	0	0	384	C	0	M1
TTP	13	0	2	B	0	M1
TTP	13	0	3	B	0	M1
TTP	13	0	4	B	0	M1
TTP	13	0	5	B	0	M1
TTP	14	144	2	B	0	M1
TTP	14	144	2	E	0	M1
TTP	14	216	6	B	0	M1
TTP	14	216	6	E	0	M1
TTP	14	288	0	B	0	M1
TTP	14	288	1	B	0	M1
TTP	14	360	0	E	0	M1
TTP	14	360	7	B	0	M1
TTP	15	48	3	E	0	M1
TTP	15	48	5	E	0	M1
TTP	15	216	0	C	1	M1
TTP	16	48	0	B	0	M1
TTP	16	48	3	B	0	M1
TTP	16	48	4	B	0	M1
TTP	16	48	5	B	0	M1
TTP	16	48	6	B	0	M1
TTP	16	48	7	B	0	M1
XHO	16	288	0	384
XHO	16	288	7	1056
XTP	18	288	0
XTP	19	0	0
XTP	19	96	0
XTP	19	192	0
XTP	19	288	6
XTP	20	0	6
XTP	20	96	1
XTP	20	192	1
TAP	20	288	0
TAP	20	336	0
TAP	21	0	7
TAP	21	48	7
TAP	21	96	1
TAP	21	144	1
TAP	21	192	6
TAP	21	240	6
TAP	21	288	0
TAP	21	312	7
TAP	21	336	0
TAP	21	360	7
TAP	22	0	0
TAP	22	24	7
TAP	22	48	0
TAP	22	72	7
TAP	22	96	0
TAP	22	120	7
TAP	22	144	0
TAP	22	168	7
STR	22	192	0
SI_	22	192	0	96	48	4
TAP	22	216	7
TAP	22	240	0
TAP	22	264	7
BRK	22	288	0
TTP	23	288	0	B	0	M1
TTP	23	288	0	C	1	M1
TTP	23	288	3	B	0	M1
TTP	23	288	4	B	0	M1
TTP	23	288	7	B	0	M1
TTP	24	48	0	C	1	M1
TTP	24	48	1	B	0	M1
TTP	24	48	2	B	0	M1
TTP	24	48	5	B	0	M1
TTP	24	48	6	B	0	M1
BRK	24	192	0
BRK	24	192	7
TAP	24	288	1
TAP	24	312	3
TAP	24	336	1
TAP	25	0	6
TAP	25	24	4
TAP	25	48	6
TAP	25	96	1
TAP	25	120	3
TAP	25	144	1
TAP	25	192	6
TAP	25	216	4
TAP	25	240	5
TAP	25	264	4
TAP	25	288	6
TAP	25	312	4
TAP	25	336	6
TAP	26	0	1
TAP	26	24	3
TAP	26	48	1
TAP	26	96	2
TAP	26	96	4
TAP	26	144	3
TAP	26	144	5
TAP	26	192	3
TAP	26	192	5
TAP	26	288	6
TAP	26	312	4
TAP	26	336	6
TAP	27	0	1
TAP	27	24	3
TAP	27	48	1
TAP	27	96	6
TAP	27	120	4
TAP	27	144	6
TAP	27	192	1
TAP	27	216	3
TAP	27	240	1
TAP	27	288	0
TAP	27	288	4
TAP	27	360	2
TAP	27	360	6
TAP	28	48	1
TAP	28	48	5
TAP	28	96	1
TAP	28	96	5
TAP	28	144	2
TAP	28	144	4
TAP	28	192	2
TAP	28	192	4
TAP	28	288	6
TAP	28	312	4
TAP	28	336	6
TAP	29	0	1
TAP	29	24	3
TAP	29	48	1
TAP	29	96	6
TAP	29	120	4
TAP	29	144	6
TAP	29	192	1
TAP	29	216	3
TAP	29	240	2
TAP	29	264	3
TAP	29	288	1
TAP	29	312	3
TAP	29	336	1
TAP	30	0	6
TAP	30	24	4
TAP	30	48	6
TAP	30	96	3
TAP	30	96	5
TAP	30	144	2
TAP	30	144	4
TAP	30	192	2
TAP	30	192	4
TAP	30	288	1
TAP	30	312	3
TAP	30	336	1
TAP	31	0	5
TAP	31	24	4
TAP	31	48	5
TAP	31	72	4
TAP	31	96	6
TAP	31	120	3
TAP	31	144	6
TAP	31	168	3
STR	31	192	7
SI_	31	192	7	96	48	3
STR	31	288	2
SI_	31	288	2	96	48	5
TAP	31	336	2
STR	32	0	6
SI_	32	0	6	96	48	1
TAP	32	48	6
HLD	32	96	3	96
BRK	32	192	7
TAP	32	288	1
TAP	32	312	3
XTP	32	336	1
TAP	32	360	3
TAP	33	0	1
TAP	33	24	3
XTP	33	48	1
TAP	33	72	3
TAP	33	96	2
TAP	33	120	3
XTP	33	144	2
XTP	33	192	0
XTP	33	192	7
XTP	33	240	0
XTP	33	240	7
TAP	33	288	6
TAP	33	312	4
XTP	33	336	6
TAP	33	360	4
STR	34	0	5
SCR	34	0	5	96	48	0
TAP	34	24	4
XTP	34	48	5
TAP	34	72	4
TAP	34	96	5
TAP	34	192	2
TAP	34	240	2
TAP	34	288	1
TAP	34	312	3
XTP	34	336	1
TAP	34	360	3
TAP	35	0	1
TAP	35	24	3
XTP	35	48	1
TAP	35	72	3
TAP	35	96	2
TAP	35	120	3
XTP	35	144	2
TAP	35	168	3
TAP	35	192	2
TAP	35	216	3
XTP	35	240	2
TAP	35	264	3
TAP	35	288	2
TAP	35	360	3
TAP	35	360	4
TAP	36	48	4
TAP	36	48	6
TAP	36	96	0
TAP	36	96	7
TAP	36	144	0
TAP	36	144	7
TAP	36	192	2
TAP	36	192	5
TAP	36	288	6
TAP	36	312	4
XTP	36	336	6
TAP	36	360	4
TAP	37	0	6
TAP	37	24	4
XTP	37	48	6
TAP	37	72	4
STR	37	96	5
SCR	37	96	5	96	48	7
TAP	37	120	4
XTP	37	144	5
TAP	37	168	4
TAP	37	192	5
TAP	37	288	1
TAP	37	312	3
XTP	37	336	1
TAP	37	360	3
TAP	38	0	1
TAP	38	24	3
XTP	38	48	1
TAP	38	72	3
STR	38	96	2
SI_	38	96	2	96	48	4
TAP	38	120	3
XTP	38	144	2
TAP	38	168	3
TAP	38	192	2
STR	38	288	7
SI_	38	288	7	96	48	3
STR	38	336	0
SI_	38	336	0	96	48	4
STR	39	0	7
SI_	39	0	7	96	48	5
STR	39	48	0
SI_	39	48	0	96	48	2
STR	39	96	7
SI_	39	96	7	96	48	3
TAP	39	144	0
TAP	39	192	7
TAP	39	288	1
TAP	39	336	0
STR	40	0	7
SUL	40	0	7	96	96	0
TAP	40	48	6
TAP	40	96	5
TTP	40	192	0	C	1	M1
XTP	40	288	0
XTP	40	288	7
TAP	41	0	2
TAP	41	0	6
TAP	41	48	2
TAP	41	48	6
TTP	41	96	0	E	0	M1
TTP	41	120	1	E	0	M1
TTP	41	144	2	E	0	M1
TTP	41	168	3	E	0	M1
TTP	41	192	4	E	0	M1
TAP	41	288	0
TAP	41	312	1
TAP	41	336	2
TAP	41	360	3
STR	42	0	4
SI_	42	0	4	96	48	7
STR	42	96	2
SI_	42	96	2	96	48	5
TAP	42	288	6
TAP	42	336	6
TAP	43	0	4
TAP	43	48	4
STR	43	96	3
SXR	43	96	3	96	96	3
TAP	43	96	5
TTP	43	288	4	E	0	M1
TTP	43	312	5	E	0	M1
TTP	43	336	6	E	0	M1
TTP	43	360	7	E	0	M1
TAP	44	0	3
TAP	44	24	4
TAP	44	48	5
TAP	44	72	6
STR	44	96	7
SF_	44	96	7	96	48	3
XTP	44	288	0
XTP	44	288	7
TAP	45	0	1
TAP	45	0	5
TAP	45	48	1
TAP	45	48	5
TTP	45	96	0	E	0	M1
TTP	45	120	7	E	0	M1
TTP	45	144	6	E	0	M1
TTP	45	168	5	E	0	M1
TTP	45	192	4	E	0	M1
TAP	45	288	7
TAP	45	312	6
TAP	45	336	5
TAP	45	360	4
STR	46	0	3
SI_	46	0	3	96	48	0
STR	46	96	5
SI_	46	96	5	96	48	2
TAP	46	288	1
TAP	46	336	1
TAP	47	0	3
TAP	47	48	3
TAP	47	96	2
STR	47	96	4
SXL	47	96	4	96	96	4
TTP	47	288	4	E	0	M1
TTP	47	312	3	E	0	M1
TTP	47	336	2	E	0	M1
TTP	47	360	1	E	0	M1
TAP	48	0	4
TAP	48	24	3
TAP	48	48	2
TAP	48	72	1
STR	48	96	0
SI_	48	96	0	96	48	4
TAP	48	120	7
TAP	48	144	6
TAP	48	168	5
XTP	48	192	4
XTP	48	288	0
XTP	48	288	7
TAP	48	336	0
TAP	48	336	7
TAP	49	0	2
TAP	49	0	6
TAP	49	48	2
TAP	49	48	6
TTP	49	96	0	E	0	M1
TTP	49	120	1	E	0	M1
TTP	49	144	2	E	0	M1
TTP	49	168	3	E	0	M1
TTP	49	192	4	E	0	M1
TAP	49	288	0
TAP	49	312	1
TAP	49	336	2
TAP	49	360	3
STR	50	0	4
SI_	50	0	4	96	48	7
STR	50	96	2
SI_	50	96	2	96	48	5
TAP	50	192	6
TAP	50	288	7
TAP	50	336	7
TAP	51	0	4
TAP	51	48	4
STR	51	96	3
SXR	51	96	3	96	96	3
TAP	51	96	5
TTP	51	288	4	E	0	M1
TTP	51	312	5	E	0	M1
TTP	51	336	6	E	0	M1
TTP	51	360	7	E	0	M1
TAP	52	0	3
TAP	52	24	4
TAP	52	48	5
TAP	52	72	6
STR	52	96	7
SF_	52	96	7	96	48	3
XTP	52	288	0
XTP	52	288	7
TAP	52	336	0
TAP	52	336	7
TAP	53	0	1
TAP	53	0	5
TAP	53	48	1
TAP	53	48	5
TTP	53	96	0	E	0	M1
TTP	53	120	7	E	0	M1
TTP	53	144	6	E	0	M1
TTP	53	168	5	E	0	M1
TTP	53	192	4	E	0	M1
TAP	53	288	7
TAP	53	312	6
TAP	53	336	5
TAP	53	360	4
STR	54	0	3
SI_	54	0	3	96	48	0
STR	54	96	5
SI_	54	96	5	96	48	2
TAP	54	192	1
TAP	54	288	0
TAP	54	336	0
TAP	55	0	3
TAP	55	48	4
TAP	55	96	2
TAP	55	96	5
TAP	55	144	1
TAP	55	144	6
STR	55	192	0
SI_	55	192	0	96	48	4
TAP	55	192	7
TAP	55	288	0
STR	55	288	6
SI_	55	288	6	96	48	1
STR	56	0	2
SI_	56	0	2	96	48	5
TAP	56	0	6
TAP	56	96	2
STR	56	96	3
SCR	56	96	3	96	48	0
TAP	56	192	1
TAP	56	192	3
TTP	56	288	0	C	1	M1
STR	64	192	3
SI_	64	192	3	96	48	0
STR	64	192	4
SI_	64	192	4	96	48	7
TAP	66	192	3
TAP	66	192	5
HLD	66	288	3	96
HLD	66	288	5	96
HLD	67	48	2	96
HLD	67	48	6	96
HLD	67	192	2	96
TAP	67	192	6
TAP	67	288	4
HLD	67	336	1	96
HLD	67	336	5	96
TAP	68	96	0
TAP	68	96	6
TAP	68	192	0
TAP	68	192	6
HLD	68	288	3	96
HLD	68	288	5	96
HLD	69	48	2	96
HLD	69	48	6	96
HLD	69	192	2	96
TAP	69	192	6
TAP	69	288	4
HLD	69	336	1	96
HLD	69	336	5	96
TAP	70	96	0
TAP	70	96	6
TAP	70	192	0
TAP	70	192	6
HLD	70	288	3	96
HLD	70	288	5	96
HLD	71	48	2	96
HLD	71	48	6	96
HLD	71	192	2	96
TAP	71	192	6
TAP	71	288	4
XTP	72	0	0
XTP	72	0	7
XTP	72	96	0
XTP	72	96	7
TTP	72	288	0	E	0	M1
TTP	73	0	2	E	0	M1
TTP	73	96	4	E	0	M1
TTP	73	192	6	E	0	M1
TTP	73	288	7	B	0	M1
TTP	73	352	0	B	0	M1
TTP	74	32	1	B	0	M1
TTP	74	96	2	B	0	M1
TTP	74	160	3	B	0	M1
TTP	74	224	4	B	0	M1
TTP	74	288	5	B	0	M1
TTP	74	352	6	B	0	M1
TTP	75	32	7	B	0	M1
TTP	75	96	0	E	0	M1
TTP	75	120	1	E	0	M1
TTP	75	144	2	E	0	M1
TTP	75	168	3	E	0	M1
TTP	75	192	4	E	0	M1
TTP	75	216	5	E	0	M1
TTP	75	240	6	E	0	M1
TTP	75	264	7	E	0	M1
TTP	75	288	0	E	0	M1
TTP	75	312	1	E	0	M1
TTP	75	336	2	E	0	M1
TTP	75	360	3	E	0	M1
TTP	76	0	4	E	0	M1
TTP	76	24	5	E	0	M1
TTP	76	48	6	E	0	M1
TTP	76	72	7	E	0	M1
TTP	76	96	0	E	0	M1
TTP	76	120	1	E	0	M1
TTP	76	144	2	E	0	M1
TTP	76	168	3	E	0	M1
TTP	76	192	4	E	0	M1
TTP	76	216	5	E	0	M1
TTP	76	240	6	E	0	M1
TTP	76	264	7	E	0	M1
XTP	76	288	0
XTP	76	336	0
XTP	77	0	0
XTP	77	48	0
XTP	77	96	7
XTP	77	144	7
XTP	77	192	7
XTP	77	240	7
XTP	77	288	1
XTP	77	336	1
XTP	78	0	6
XTP	78	48	6
XTP	78	96	0
XTP	78	144	0
XTP	78	192	7
XTP	78	240	7
TAP	78	288	7
TAP	78	312	6
TAP	78	336	5
TAP	78	360	4
TAP	79	0	3
TAP	79	24	2
TAP	79	48	1
TAP	79	72	0
TAP	79	96	7
TAP	79	120	6
TAP	79	144	5
TAP	79	168	4
TAP	79	192	3
TAP	79	216	2
TAP	79	240	1
TAP	79	264	0
TAP	79	288	7
BRK	80	0	1
BRK	80	0	6
BRK	80	96	1
BRK	80	96	6
TTP	80	192	0	E	0	M1
TAP	80	288	3
TAP	80	312	4
TAP	80	336	3
TAP	80	360	4
TAP	81	0	3
TAP	81	24	4
XTP	81	48	3
TAP	81	72	4
TAP	81	96	3
TAP	81	120	4
XTP	81	144	3
TAP	81	168	4
TAP	81	192	3
TAP	81	216	4
TAP	81	240	3
TAP	81	264	4
TAP	81	288	3
TAP	81	312	4
XTP	81	336	3
TAP	81	360	4
TAP	82	0	3
TAP	82	24	4
XTP	82	48	3
TAP	82	72	4
TAP	82	96	3
TAP	82	120	4
XTP	82	144	3
TAP	82	168	4
BRK	82	192	3
TAP	82	216	4
TAP	82	240	3
TAP	82	264	4
TAP	82	288	3
TAP	82	312	4
TAP	82	336	3
TAP	82	360	4
TAP	83	0	3
TAP	83	24	4
TAP	83	48	3
TAP	83	72	4
TAP	83	96	3
TAP	83	120	4
TAP	83	144	3
TAP	83	168	4
TAP	83	192	3
TAP	83	216	4
TAP	83	240	3
TAP	83	264	4
TAP	83	288	3
TAP	83	312	4
TAP	83	336	3
TAP	83	360	4
TAP	84	0	3
TAP	84	24	4
TAP	84	48	3
TAP	84	72	4
TAP	84	96	3
TAP	84	120	4
TAP	84	144	3
TAP	84	168	4
XTP	84	192	3
TAP	84	216	4
TAP	84	240	3
TAP	84	264	4
TAP	84	288	3
TAP	84	312	4
TAP	84	336	3
TAP	84	360	4
TAP	85	0	3
TAP	85	24	4
XTP	85	48	3
TAP	85	72	4
TAP	85	96	3
TAP	85	120	4
XTP	85	144	3
TAP	85	168	4
TAP	85	192	3
TAP	85	216	4
TAP	85	240	3
TAP	85	264	4
TAP	85	288	3
TAP	85	312	4
XTP	85	336	3
TAP	85	360	4
TAP	86	0	3
TAP	86	24	4
XTP	86	48	3
TAP	86	72	4
TAP	86	96	3
TAP	86	120	4
XTP	86	144	3
TAP	86	168	4
BRK	86	192	3
TAP	86	216	4
TAP	86	240	3
TAP	86	264	4
HLD	86	288	3	24
HLD	86	312	4	24
HLD	86	336	3	24
HLD	86	360	4	24
HLD	87	0	3	24
HLD	87	24	4	24
HLD	87	48	3	24
HLD	87	72	4	24
HLD	87	96	3	24
HLD	87	120	4	24
HLD	87	144	3	24
HLD	87	168	4	24
HLD	87	192	3	24
HLD	87	216	4	24
HLD	87	240	3	24
HLD	87	264	4	24
BRK	87	288	3
STR	88	96	3
SI_	88	96	3	96	48	0
STR	88	96	4
SI_	88	96	4	96	48	7
BRK	88	192	3
BRK	88	192	4
XTP	88	288	0
XTP	88	288	7
XTP	88	336	0
XTP	88	336	7
TAP	89	0	2
TAP	89	0	4
TAP	89	48	5
TAP	89	96	1
TAP	89	96	7
TAP	89	144	1
TAP	89	144	7
TAP	89	192	2
TAP	89	192	3
TAP	89	240	5
TAP	89	288	0
TAP	89	288	6
TAP	89	336	0
TAP	89	336	6
TAP	90	0	1
TAP	90	0	3
TAP	90	48	5
TAP	90	96	0
TAP	90	96	7
TAP	90	144	0
TAP	90	144	7
TAP	90	192	4
TAP	90	192	5
TAP	90	240	2
TAP	90	288	0
TAP	90	288	7
TAP	90	336	1
TAP	90	336	3
TAP	91	0	5
TAP	91	0	6
TAP	91	48	2
TAP	91	96	1
TAP	91	96	7
TAP	91	144	2
TAP	91	144	3
TAP	91	192	4
TAP	91	192	6
TAP	91	240	2
BRK	91	288	0
BRK	91	312	7
BRK	91	336	0
BRK	91	360	7
BRK	92	0	0
TAP	92	48	4
TAP	92	48	6
TAP	92	96	1
TAP	92	96	3
TAP	92	144	0
TAP	92	144	7
TAP	92	192	5
TAP	92	192	6
TAP	92	240	2
TAP	92	240	4
TAP	92	288	0
TAP	92	288	1
TAP	92	336	2
TAP	92	336	3
TAP	93	0	4
TAP	93	0	6
TAP	93	48	0
TAP	93	48	7
TAP	93	96	1
TAP	93	96	2
TAP	93	144	3
TAP	93	144	5
TAP	93	192	6
TAP	93	192	7
TAP	93	240	4
TAP	93	240	5
TAP	93	288	1
TAP	93	288	3
TAP	93	336	0
TAP	93	336	7
TAP	94	0	5
TAP	94	0	6
TAP	94	48	2
TAP	94	48	4
TAP	94	96	0
TAP	94	96	1
TAP	94	144	2
TAP	94	144	3
BRK	94	192	6
BRK	94	192	7
BRK	94	240	4
BRK	94	240	5
BRK	94	288	2
BRK	94	288	3
BRK	94	336	0
BRK	94	336	1
BRK	95	0	6
BRK	95	0	7
BRK	95	48	4
BRK	95	48	5
BRK	95	96	2
BRK	95	96	3
BRK	95	144	0
BRK	95	144	1
TTP	95	192	0	E	0	M1
TTP	95	204	1	E	0	M1
TTP	95	216	2	E	0	M1
TTP	95	228	3	E	0	M1
TTP	95	240	4	E	0	M1
TTP	95	252	5	E	0	M1
TTP	95	264	6	E	0	M1
TTP	95	276	7	E	0	M1
TTP	95	288	0	C	1	M1
TTP	95	288	0	E	0	M1
STR	96	96	0
SI_	96	96	0	96	48	4
BRK	96	192	0
STR	96	288	5
SI_	96	288	5	96	48	2
TAP	96	336	5
STR	97	0	1
SI_	97	0	1	96	48	4
TAP	97	48	1
STR	97	96	7
SI_	97	96	7	96	48	3
TAP	97	144	7
STR	97	192	0
SI_	97	192	0	96	48	4
TAP	97	240	0
STR	97	288	7
SCL	97	288	7	96	48	4
TAP	97	336	7
STR	98	0	0
SCR	98	0	0	96	48	3
TAP	98	48	0
TAP	98	96	4
TAP	98	144	4
TAP	98	192	3
TAP	98	192	5
STR	98	288	2
SI_	98	288	2	96	48	5
TAP	98	336	2
STR	99	0	1
SI_	99	0	1	96	48	6
TAP	99	48	1
STR	99	96	2
SI_	99	96	2	96	48	5
TAP	99	144	2
STR	99	192	1
SI_	99	192	1	96	48	6
TAP	99	240	1
STR	99	288	2
SI_	99	288	2	96	48	5
TAP	99	336	2
STR	100	0	1
SI_	100	0	1	96	48	6
TAP	100	48	1
TAP	100	96	4
TAP	100	144	4
STR	100	192	5
SCR	100	192	5	96	48	0
TAP	100	240	5
TAP	100	288	4
TAP	100	336	3
STR	101	0	2
SCL	101	0	2	96	48	7
TAP	101	48	2
TAP	101	96	3
TAP	101	144	4
STR	101	192	5
SCR	101	192	5	96	48	0
TAP	101	240	5
TAP	101	288	4
TAP	101	336	3
STR	102	0	2
SI_	102	0	2	96	48	5
TAP	102	48	2
TAP	102	96	5
TAP	102	144	6
STR	102	192	7
SCL	102	192	7	96	96	3
STR	102	288	3
SCL	102	288	3	96	96	7
STR	103	0	7
SCL	103	0	7	96	96	3
TAP	103	96	3
TAP	103	192	7
TAP	103	288	0
TAP	103	288	7
STR	104	0	3
SI_	104	0	3	96	48	7
STR	104	0	4
SI_	104	0	4	96	48	0
XTP	104	96	3
XTP	104	96	4
BRK	104	192	1
BRK	104	192	6
STR	104	288	0
SCR	104	288	0	96	48	2
TAP	104	336	3
STR	105	0	0
SCL	105	0	0	96	48	6
TAP	105	48	3
STR	105	96	0
SI_	105	96	0	96	48	2
TAP	105	144	4
STR	105	192	0
SI_	105	192	0	96	48	6
TAP	105	240	4
STR	105	288	0
SCR	105	288	0	96	48	2
TAP	105	336	3
STR	106	0	0
SCL	106	0	0	96	48	6
TAP	106	48	3
STR	106	96	0
SI_	106	96	0	96	48	2
TAP	106	144	4
TAP	106	192	0
STR	106	288	7
SCL	106	288	7	96	48	5
TAP	106	336	4
STR	107	0	7
SCR	107	0	7	96	48	1
TAP	107	48	4
STR	107	96	7
SI_	107	96	7	96	48	5
TAP	107	144	3
STR	107	192	7
SI_	107	192	7	96	48	1
TAP	107	240	3
STR	107	288	7
SCL	107	288	7	96	48	5
TAP	107	336	4
STR	108	0	7
SCR	108	0	7	96	48	1
TAP	108	48	4
TAP	108	96	7
XST	108	192	0
SCL	108	192	0	96	48	5
XST	108	192	1
SCR	108	192	1	96	48	4
XTP	108	288	0
XTP	108	288	1
XTP	109	0	4
XTP	109	0	5
XTP	109	48	4
XTP	109	48	5
XTP	109	96	3
XTP	109	96	6
XST	109	192	6
SCL	109	192	6	96	48	3
XST	109	192	7
SCR	109	192	7	96	48	2
XTP	109	288	6
XTP	109	288	7
XTP	110	0	2
XTP	110	0	3
XTP	110	48	2
XTP	110	48	3
TAP	110	96	1
TAP	110	96	4
TAP	110	192	3
TAP	110	192	6
TAP	110	288	6
TAP	110	288	7
TAP	110	336	6
TAP	110	336	7
TAP	111	0	0
TAP	111	0	5
TAP	111	48	0
TAP	111	48	5
TAP	111	96	1
TAP	111	96	7
TAP	111	144	1
TAP	111	144	7
TAP	111	192	2
TAP	111	192	6
TAP	111	240	2
TAP	111	240	6
TAP	111	288	3
TAP	111	312	4
TAP	111	336	3
TAP	111	360	4
TAP	112	0	3
TAP	112	48	2
TAP	112	48	5
STR	112	96	3
SI_	112	96	3	96	24	7
STR	112	96	4
SI_	112	96	4	96	24	0
BST	112	192	3
SCL	112	192	3	96	480	4
BST	112	192	4
SCR	112	192	4	96	480	3
TTP	112	204	0	C	1	M1
STR	114	192	3
SCL	114	192	3	96	480	4
STR	114	192	4
SCR	114	192	4	96	480	3
XTP	116	192	7
TTP	116	288	0	C	1	M1
TTP	116	288	4	B	0	M1
TTP	116	288	4	E	0	M1
TTP	116	320	0	C	1	M1
TTP	116	320	3	B	0	M1
TTP	116	320	3	E	0	M1
TTP	116	352	0	C	1	M1
TTP	116	352	2	B	0	M1
TTP	116	352	2	E	0	M1
TTP	117	0	0	C	1	M1
TTP	117	0	1	B	0	M1
TTP	117	0	1	E	0	M1
TTP	117	32	0	B	0	M1
TTP	117	32	0	C	1	M1
TTP	117	32	0	E	0	M1
TTP	117	64	0	C	1	M1
TTP	117	64	7	B	0	M1
TTP	117	64	7	E	0	M1
TTP	117	96	0	C	1	M1
TTP	117	96	6	B	0	M1
TTP	117	96	6	E	0	M1
TTP	117	128	0	C	1	M1
TTP	117	128	5	B	0	M1
TTP	117	128	5	E	0	M1
TTP	117	160	0	C	1	M1
TTP	117	160	4	B	0	M1
TTP	117	160	4	E	0	M1
TTP	117	192	0	C	1	M1
TTP	117	192	3	B	0	M1
TTP	117	192	3	E	0	M1
TTP	117	224	0	C	1	M1
TTP	117	224	2	B	0	M1
TTP	117	224	2	E	0	M1
TTP	117	256	0	C	1	M1
TTP	117	256	1	B	0	M1
TTP	117	256	1	E	0	M1
TTP	117	288	0	B	0	M1
TTP	117	288	0	C	1	M1
TTP	117	288	0	E	0	M1
XTP	118	192	0
HLD	118	288	1	48
HLD	118	288	6	48
HLD	119	0	2	48
HLD	119	0	7	48
HLD	119	96	1	48
HLD	119	96	6	48
HLD	119	192	0	48
HLD	119	192	5	48
HLD	119	288	1	48
HLD	119	288	6	48
HLD	120	0	3	48
HLD	120	0	4	48
STR	120	96	0
SI_	120	96	0	96	24	3
STR	120	96	7
SI_	120	96	7	96	24	4
XTP	120	192	0
XTP	120	192	7
TTP	120	204	0	C	1	M1
TTP	120	204	1	B	0	M1
TTP	120	204	6	B	0	M1

T_REC_TAP	554
T_REC_BRK	37
T_REC_XTP	97
T_REC_HLD	48
T_REC_XHO	2
T_REC_STR	80
T_REC_BST	2
T_REC_XST	4
T_REC_TTP	184
T_REC_THO	2
T_REC_SLD	86
T_REC_ALL	1096
T_NUM_TAP	919
T_NUM_BRK	39
T_NUM_HLD	52
T_NUM_SLD	86
T_NUM_ALL	1096
T_JUDGE_TAP	958
T_JUDGE_HLD	118
T_JUDGE_SLD	86
T_JUDGE_ALL	1162
TTM_EACHPAIRS	165
TTM_SCR_TAP	459500
TTM_SCR_BRK	101400
TTM_SCR_HLD	52000
TTM_SCR_SLD	129000
TTM_SCR_ALL	741900
TTM_SCR_S	715900
TTM_SCR_SS	738000
TTM_RAT_ACV	10052

