VERSION	0.00.00	1.03.00
FES_MODE	0
BPM_DEF	180.000	190.000	190.000	180.000
MET_DEF	4	4
RESOLUTION	384
CLK_DEF	384
COMPATIBLE_CODE	MA2

BPM	0	0	180.000
BPM	8	288	190.000
MET	0	0	4	4
MET	7	0	4	3
MET	7	288	4	4

TAP	1	0	3
TAP	1	96	3
TAP	1	144	4
TAP	1	240	4
TAP	1	288	3
TAP	2	0	3
TAP	2	96	3
TAP	2	144	4
TAP	2	240	4
TAP	2	288	3
HLD	3	0	2	96
TAP	3	96	3
HLD	3	192	3	96
TAP	3	288	4
HLD	4	0	4	96
STR	4	96	5
SCL	4	96	5	96	96	2
HLD	5	0	5	96
TAP	5	96	4
HLD	5	192	4	96
TAP	5	288	3
HLD	6	0	3	96
STR	6	96	2
SCR	6	96	2	96	96	5
HLD	7	0	4	96
TAP	7	96	3
XTP	7	192	2
XTP	7	192	5
BST	7	288	1
SSR	7	288	1	96	192	5
BST	7	288	6
SSL	7	288	6	96	192	2
TTP	8	288	0	C	1	M1
TTP	8	288	2	B	0	M1
TTP	8	288	3	B	0	M1
TTP	8	288	4	B	0	M1
TTP	8	288	5	B	0	M1
TTP	11	240	0	B	0	M1
TTP	11	240	0	C	1	M1
TTP	11	240	1	B	0	M1
TTP	11	240	1	E	0	M1
TTP	11	240	2	B	0	M1
TTP	11	240	2	E	0	M1
TTP	11	240	3	B	0	M1
TTP	11	240	3	E	0	M1
TTP	15	240	0	C	1	M1
TTP	15	240	4	B	0	M1
TTP	15	240	5	B	0	M1
TTP	15	240	5	E	0	M1
TTP	15	240	6	B	0	M1
TTP	15	240	6	E	0	M1
TTP	15	240	7	B	0	M1
TTP	15	240	7	E	0	M1
BRK	16	288	0
TAP	17	0	0
TAP	17	96	0
TAP	17	192	0
TAP	17	288	0
STR	17	288	4
SCR	17	288	4	96	96	7
TAP	18	0	0
TAP	18	96	0
TAP	18	192	0
TAP	18	288	7
TAP	19	0	7
TAP	19	96	7
TAP	19	192	7
STR	19	288	3
SCL	19	288	3	96	96	0
TAP	19	288	7
TAP	20	0	7
TAP	20	96	7
TAP	20	192	7
HLD	20	288	0	48
HLD	21	0	0	48
HLD	21	96	0	48
HLD	21	192	0	48
TAP	21	288	0
STR	21	288	4
SCR	21	288	4	96	96	7
TAP	21	336	0
TAP	22	0	0
TAP	22	48	0
TAP	22	96	0
TAP	22	144	0
TAP	22	192	0
TAP	22	240	0
XHO	22	288	7	384
BRK	23	288	3
BST	24	0	1
SI_	24	0	1	96	48	4
BST	24	0	5
SI_	24	0	5	96	48	0
BRK	24	48	1
BRK	24	48	5
BRK	24	192	2
BRK	24	192	6
XHO	24	288	0	48
HLD	24	288	1	48
XHO	25	0	3	48
XHO	25	0	4	48
HLD	25	96	6	48
XHO	25	96	7	48
TAP	25	192	1
TAP	25	192	5
TAP	25	240	1
TAP	25	240	5
XHO	25	288	1	48
XHO	25	288	5	48
TAP	26	0	2
TAP	26	0	6
TAP	26	48	2
TAP	26	48	6
XHO	26	96	2	48
XHO	26	96	6	48
BRK	26	192	4
BRK	26	192	5
HLD	26	288	6	48
XHO	26	288	7	48
XHO	27	0	2	48
HLD	27	0	4	48
XHO	27	96	0	48
HLD	27	96	1	48
HLD	27	192	3	48
XHO	27	192	5	48
XHO	27	288	0	72
HLD	27	360	6	72
TAP	28	48	4
XST	28	96	4
SI_	28	96	4	96	48	0
BRK	28	192	7
HLD	28	288	6	48
XHO	28	288	7	48
XHO	29	0	3	48
XHO	29	0	4	48
XHO	29	96	0	48
HLD	29	96	1	48
TAP	29	192	2
TAP	29	192	6
TAP	29	240	2
TAP	29	240	6
XHO	29	288	2	48
XHO	29	288	6	48
TAP	30	0	1
TAP	30	0	5
TAP	30	48	1
TAP	30	48	5
XHO	30	96	1	48
XHO	30	96	5	48
BRK	30	192	2
BRK	30	192	3
XHO	30	288	0	48
HLD	30	288	1	48
HLD	31	0	3	48
XHO	31	0	5	48
XHO	31	96	2	48
HLD	31	96	4	48
HLD	31	192	6	48
XHO	31	192	7	48
XTP	31	288	0
TAP	31	336	0
XTP	32	0	0
TAP	32	48	0
XTP	32	96	1
XST	32	96	7
SI_	32	96	7	96	48	3
XTP	32	144	1
XTP	32	144	7
BRK	32	192	0
HLD	32	288	1	48
XTP	32	336	4
HLD	33	0	3	48
XTP	33	48	0
HLD	33	96	1	48
XTP	33	144	4
HLD	33	192	3	48
XTP	33	240	0
HLD	33	288	1	48
XTP	33	336	4
HLD	34	0	3	48
XTP	34	48	0
HLD	34	96	1	48
XTP	34	144	4
BRK	34	192	3
BRK	34	192	5
HLD	34	288	6	48
XTP	34	336	3
HLD	35	0	4	48
XTP	35	48	7
HLD	35	96	6	48
XTP	35	144	3
HLD	35	192	4	48
XTP	35	240	7
HLD	35	288	6	48
XTP	35	336	3
HLD	36	0	4	48
XTP	36	48	7
HLD	36	96	6	48
XTP	36	144	3
BRK	36	192	2
BRK	36	192	4
HLD	36	288	1	48
XTP	36	336	4
HLD	37	0	3	48
XTP	37	48	0
STR	37	96	1
SCR	37	96	1	96	48	4
XTP	37	144	1
HLD	37	288	6	48
XTP	37	336	3
HLD	38	0	4	48
XTP	38	48	7
STR	38	96	6
SV_	38	96	6	96	48	3
XTP	38	144	6
TAP	38	288	0
TAP	38	336	0
TAP	39	0	1
TAP	39	0	7
TAP	39	48	1
TAP	39	48	7
TAP	39	96	2
TAP	39	96	6
TAP	39	144	2
TAP	39	144	6
TAP	39	192	3
TAP	39	192	5
TAP	39	240	3
TAP	39	240	5
THO	39	288	0	192	C	0	M1
XTP	40	288	2
STR	40	288	3
SCR	40	288	3	96	48	5
STR	41	96	0
SCR	41	96	0	96	48	2
TAP	41	96	7
TAP	41	288	4
STR	41	288	5
SCR	41	288	5	96	48	7
TTP	42	96	1	E	0	M1
TTP	42	112	1	B	0	M1
TTP	42	128	2	B	0	M1
TTP	42	144	3	E	0	M1
XTP	42	192	7
STR	42	288	4
SCL	42	288	4	96	48	2
XTP	42	288	5
TAP	43	96	0
STR	43	96	7
SCL	43	96	7	96	48	5
STR	43	288	2
SCL	43	288	2	96	48	0
TAP	43	288	3
TTP	44	96	7	E	0	M1
TTP	44	112	6	B	0	M1
TTP	44	128	5	B	0	M1
TTP	44	144	5	E	0	M1
XST	44	192	0
SI_	44	192	0	96	48	3
TAP	45	0	4
TAP	45	48	4
TAP	45	96	3
STR	45	96	4
SCR	45	96	4	96	48	6
TAP	45	288	0
STR	45	288	1
SCR	45	288	1	96	48	3
TTP	46	96	7	E	0	M1
TTP	46	112	7	B	0	M1
TTP	46	128	0	B	0	M1
TTP	46	144	1	E	0	M1
XTP	46	192	3
STR	46	288	3
SCL	46	288	3	96	48	1
TAP	46	288	4
STR	47	96	6
SCL	47	96	6	96	48	4
TAP	47	96	7
STR	47	288	2
SCL	47	288	2	96	48	0
TAP	47	288	3
TAP	48	96	7
TAP	48	144	7
BRK	48	192	0
BRK	48	192	6
XHO	48	288	2	48
XHO	48	288	4	48
TAP	49	0	2
TAP	49	0	4
TAP	49	48	3
HLD	49	96	2	48
HLD	49	96	4	48
TAP	49	192	2
TAP	49	192	4
TAP	49	240	3
HLD	49	288	2	48
HLD	49	288	4	48
TAP	50	0	2
TAP	50	0	4
TAP	50	48	3
STR	50	96	2
SI_	50	96	2	96	48	5
TAP	50	96	4
XHO	50	288	4	48
XHO	50	288	6	48
TAP	51	0	4
TAP	51	0	6
TAP	51	48	5
HLD	51	96	4	48
HLD	51	96	6	48
TAP	51	192	4
TAP	51	192	6
TAP	51	240	5
HLD	51	288	4	48
HLD	51	288	6	48
TAP	52	0	4
TAP	52	0	6
TAP	52	48	5
TAP	52	96	4
STR	52	96	6
SI_	52	96	6	96	48	2
XHO	52	288	1	48
XHO	52	288	3	48
TAP	53	0	1
TAP	53	0	3
TAP	53	48	2
HLD	53	96	1	48
HLD	53	96	3	48
TAP	53	192	1
TAP	53	192	3
TAP	53	240	2
HLD	53	288	1	48
HLD	53	288	3	48
TAP	54	0	1
TAP	54	0	3
TAP	54	48	2
TAP	54	96	1
STR	54	96	3
SI_	54	96	3	96	48	7
XTP	54	288	0
XTP	54	288	6
TAP	54	336	0
TAP	54	336	6
TAP	55	0	1
TAP	55	0	5
TAP	55	48	1
TAP	55	48	5
TAP	55	96	2
TAP	55	96	4
TAP	55	144	2
TAP	55	144	4
TAP	55	192	3
TAP	55	240	3
BST	55	288	4
SI_	55	288	4	96	48	7
BST	56	0	3
SI_	56	0	3	96	48	0
BRK	56	96	6
BST	56	192	1
SCL	56	192	1	96	1344	2
TTP	56	288	0	C	1	M1
HLD	60	288	6	384
HLD	61	288	4	384
HLD	62	288	3	384
HLD	63	288	1	192
TAP	64	96	6
STR	64	192	3
SI_	64	192	3	96	48	0
STR	64	192	4
SI_	64	192	4	96	48	7
TAP	66	96	1
TAP	66	96	6
TAP	66	192	1
TAP	66	192	6
HLD	66	288	7	96
HLD	67	48	7	96
HLD	67	192	7	96
HLD	67	336	7	96
TAP	68	96	7
TAP	68	192	0
TAP	68	192	6
HLD	68	288	0	96
HLD	69	48	0	96
HLD	69	192	0	96
HLD	69	336	0	96
TAP	70	96	0
TAP	70	192	1
TAP	70	192	7
HLD	70	288	7	96
HLD	71	48	7	96
HLD	71	192	7	96
HLD	71	336	7	96
STR	72	96	7
SI_	72	96	7	96	48	3
BRK	72	192	0
HLD	72	288	0	48
HLD	73	0	0	48
HLD	73	96	0	48
HLD	73	192	0	48
HLD	73	288	0	32
HLD	74	0	0	32
HLD	74	96	0	32
HLD	74	192	0	32
HLD	74	288	0	24
HLD	75	0	0	24
HLD	75	96	0	24
HLD	75	192	0	24
HLD	75	288	0	16
HLD	76	0	0	16
HLD	76	96	0	16
HLD	76	192	0	16
TAP	76	288	0
TAP	76	336	0
TAP	77	0	0
TAP	77	48	0
TAP	77	96	0
TAP	77	144	0
TAP	77	192	0
TAP	77	240	0
TAP	77	288	7
TAP	77	336	7
TAP	78	0	7
TAP	78	48	7
TAP	78	96	7
TAP	78	144	7
TAP	78	192	7
TAP	78	240	7
XTP	78	288	1
XTP	78	312	6
XTP	78	336	1
XTP	78	360	6
XTP	79	0	1
XTP	79	24	6
XTP	79	48	1
XTP	79	72	6
XTP	79	96	1
XTP	79	120	6
XTP	79	144	1
XTP	79	168	6
XTP	79	192	1
XTP	79	216	6
XTP	79	240	1
XTP	79	264	6
XTP	79	288	1
XST	80	0	0
SI_	80	0	0	96	48	3
XST	80	96	7
SI_	80	96	7	96	48	4
BRK	80	192	0
XHO	80	288	3	2976
XHO	80	288	4	2976
BRK	88	288	1
BRK	88	288	6
XTP	88	336	1
XTP	88	336	6
XTP	89	0	1
XTP	89	0	6
XTP	89	48	1
XTP	89	48	6
XTP	89	96	1
XTP	89	96	6
XTP	89	144	1
XTP	89	144	6
XTP	89	192	1
XTP	89	192	6
XTP	89	240	1
XTP	89	240	6
XTP	89	288	1
XTP	89	288	6
XTP	89	336	5
XTP	90	0	3
XTP	90	0	4
XTP	90	48	2
XTP	90	96	1
XTP	90	96	6
XTP	90	144	1
XTP	90	144	6
XTP	90	192	0
XTP	90	216	7
XTP	90	240	0
XTP	90	264	7
XTP	90	288	0
XTP	90	336	1
XTP	90	336	6
XTP	91	0	1
XTP	91	0	6
XTP	91	48	1
XTP	91	48	6
XTP	91	96	1
XTP	91	96	6
XTP	91	144	1
XTP	91	144	6
XTP	91	192	1
XTP	91	192	6
XTP	91	240	1
XTP	91	240	6
XTP	91	288	2
XTP	91	336	2
XTP	92	0	1
XTP	92	0	3
XTP	92	48	5
XTP	92	96	5
XTP	92	144	4
XTP	92	144	6
XTP	92	192	7
XTP	92	240	0
XTP	92	288	1
XTP	92	288	6
XTP	92	336	1
XTP	92	336	6
XTP	93	0	1
XTP	93	0	6
XTP	93	48	1
XTP	93	48	6
XTP	93	96	2
XTP	93	144	1
XTP	93	144	3
XTP	93	192	2
XTP	93	192	4
XTP	93	240	5
XTP	93	288	1
XTP	93	288	6
XTP	93	336	1
XTP	93	336	6
XTP	94	0	1
XTP	94	0	6
XTP	94	48	1
XTP	94	48	6
XTP	94	96	5
XTP	94	144	4
XTP	94	144	6
XTP	94	192	3
XTP	94	192	5
XTP	94	240	2
XTP	94	288	0
XTP	94	288	1
XTP	94	336	2
XTP	95	0	3
XTP	95	0	4
XTP	95	48	5
XTP	95	96	6
XTP	95	96	7
XTP	95	144	5
XTP	95	192	3
XTP	95	192	4
XTP	95	240	3
XTP	95	240	4
TTP	95	288	0	C	1	M1
TTP	95	288	1	B	0	M1
TTP	95	288	2	B	0	M1
TTP	95	288	5	B	0	M1
TTP	95	288	6	B	0	M1
BRK	96	288	0
BRK	96	288	7
TAP	97	0	1
TAP	97	48	0
TAP	97	96	2
TAP	97	96	7
TAP	97	192	6
TAP	97	240	7
TAP	97	288	0
TAP	97	288	5
TAP	98	0	1
TAP	98	48	0
TAP	98	96	2
STR	98	96	7
SI_	98	96	7	96	48	4
XTP	98	192	3
TAP	98	288	1
TAP	98	288	3
TAP	99	0	3
TAP	99	0	5
TAP	99	48	6
TAP	99	96	0
TAP	99	96	7
TAP	99	192	2
TAP	99	192	4
TAP	99	240	1
STR	99	288	0
SI_	99	288	0	96	48	3
TAP	99	288	7
XTP	100	0	4
TAP	100	96	4
TAP	100	96	6
TAP	100	144	5
TAP	100	192	5
TAP	100	240	5
TAP	100	288	4
STR	100	288	6
SI_	100	288	6	96	48	2
XTP	101	0	0
TAP	101	96	1
TAP	101	96	3
TAP	101	144	2
TAP	101	192	2
TAP	101	240	2
STR	101	288	1
SI_	101	288	1	96	48	5
TAP	101	288	3
XTP	102	0	7
STR	102	96	6
SCL	102	96	6	96	48	3
XTP	102	192	2
TAP	102	288	1
TAP	102	336	0
TAP	103	0	2
TAP	103	0	7
TAP	103	96	6
TAP	103	144	7
TAP	103	192	0
TAP	103	192	5
BST	103	288	2
SI_	103	288	2	96	48	0
BST	103	288	3
SI_	103	288	3	96	48	7
BST	104	96	4
SI_	104	96	4	96	48	0
BST	104	96	5
SI_	104	96	5	96	48	7
BRK	104	288	3
BRK	104	288	4
TAP	105	0	6
TAP	105	48	7
TAP	105	96	0
TAP	105	96	5
TAP	105	192	1
TAP	105	240	0
TAP	105	288	2
TAP	105	288	7
TAP	106	0	6
TAP	106	48	7
STR	106	96	0
SI_	106	96	0	96	48	3
TAP	106	96	5
XTP	106	192	4
TAP	106	288	4
TAP	106	288	6
TAP	107	0	2
TAP	107	0	4
TAP	107	48	1
TAP	107	96	0
TAP	107	96	7
TAP	107	192	3
TAP	107	192	5
TAP	107	240	6
TAP	107	288	0
STR	107	288	7
SI_	107	288	7	96	48	4
XTP	108	0	3
TAP	108	96	1
TAP	108	96	3
TAP	108	144	0
TAP	108	192	0
TAP	108	240	0
STR	108	288	1
SI_	108	288	1	96	48	5
TAP	108	288	7
BRK	109	0	7
TAP	109	96	4
TAP	109	96	6
TAP	109	144	7
TAP	109	192	7
TAP	109	240	7
TAP	109	288	0
STR	109	288	6
SI_	109	288	6	96	48	2
BRK	110	0	0
STR	110	96	1
SCR	110	96	1	96	48	4
BRK	110	192	7
TAP	110	288	7
TAP	110	336	7
TAP	111	0	0
TAP	111	48	0
TAP	111	96	6
TAP	111	144	6
TAP	111	192	1
TAP	111	240	1
TAP	111	288	5
TAP	111	336	5
TAP	112	0	2
TAP	112	48	2
TTP	112	96	0	C	1	M1
TTP	112	96	3	B	0	M1
TTP	112	96	4	B	0	M1
TTP	112	96	4	E	0	M1
STR	112	288	3
SI_	112	288	3	96	192	0
STR	112	288	4
SI_	112	288	4	96	192	7
STR	113	288	3
SI_	113	288	3	96	192	0
STR	113	288	4
SI_	113	288	4	96	192	7
STR	114	288	3
SI_	114	288	3	96	192	0
STR	114	288	4
SI_	114	288	4	96	192	7
STR	115	288	3
SI_	115	288	3	96	192	0
STR	115	288	4
SI_	115	288	4	96	192	7
TTP	116	288	0	C	1	M1
TTP	116	336	0	C	1	M1
TTP	117	0	0	C	1	M1
TTP	117	48	0	C	1	M1
TTP	117	96	0	C	1	M1
TTP	117	144	0	C	1	M1
TTP	117	192	0	C	1	M1
TTP	117	240	0	C	1	M1
THO	117	288	0	288	C	0	M1
TAP	118	288	0
TAP	118	288	7
TAP	119	0	1
TAP	119	0	6
TAP	119	96	2
TAP	119	96	5
TAP	119	192	3
TAP	119	192	4
TAP	119	288	2
TAP	119	288	5
TAP	120	0	1
TAP	120	0	6
STR	120	96	0
SI_	120	96	0	96	48	3
STR	120	96	7
SI_	120	96	7	96	48	4
XTP	120	192	0
XTP	120	192	7

T_REC_TAP	253
T_REC_BRK	30
T_REC_XTP	153
T_REC_HLD	86
T_REC_XHO	34
T_REC_STR	44
T_REC_BST	11
T_REC_XST	5
T_REC_TTP	51
T_REC_THO	2
T_REC_SLD	60
T_REC_ALL	729
T_NUM_TAP	506
T_NUM_BRK	41
T_NUM_HLD	122
T_NUM_SLD	60
T_NUM_ALL	729
T_JUDGE_TAP	547
T_JUDGE_HLD	304
T_JUDGE_SLD	60
T_JUDGE_ALL	911
TTM_EACHPAIRS	171
TTM_SCR_TAP	253000
TTM_SCR_BRK	106600
TTM_SCR_HLD	122000
TTM_SCR_SLD	90000
TTM_SCR_ALL	571600
TTM_SCR_S	550500
TTM_SCR_SS	567500
TTM_RAT_ACV	10072

