VERSION	0.00.00	1.03.00
FES_MODE	0
BPM_DEF	180.000	190.000	190.000	180.000
MET_DEF	4	4
RESOLUTION	384
CLK_DEF	384
COMPATIBLE_CODE	MA2

BPM	0	0	180.000
BPM	8	288	190.000
MET	0	0	4	4
MET	7	0	4	3
MET	7	288	4	4

STR	2	0	3
SI_	2	0	3	96	192	0
STR	2	0	4
SI_	2	0	4	96	192	7
HLD	3	0	6	384
HLD	4	0	7	384
HLD	5	0	0	384
TAP	6	0	1
XST	7	0	0
SSL	7	0	0	96	288	4
XST	7	0	7
SSR	7	0	7	96	288	3
THO	8	288	0	768	C	1	L1
STR	11	288	7
SI_	11	288	7	96	192	4
STR	12	288	3
SXR	12	288	3	96	480	0
STR	14	288	7
SXR	14	288	7	96	480	4
HLD	16	288	2	192
TAP	17	96	3
TAP	17	288	1
TAP	17	288	4
HLD	18	288	5	192
TAP	19	96	4
TAP	19	288	3
TAP	19	288	6
TAP	20	288	2
TAP	21	0	2
TAP	21	96	3
TAP	21	192	3
TAP	21	288	4
TAP	22	0	4
TAP	22	96	5
TAP	22	192	5
HLD	22	288	3	192
HLD	22	288	4	192
TTP	23	288	0	C	1	L1
TTP	23	288	2	B	0	L1
TTP	23	288	5	B	0	L1
BRK	24	288	6
TAP	25	0	6
TAP	25	96	7
TAP	25	192	7
TAP	25	288	0
TAP	26	0	0
TAP	26	96	1
TAP	26	96	7
TAP	26	288	2
TAP	27	0	2
TAP	27	96	3
TAP	27	192	3
TAP	27	288	4
TAP	28	0	4
TAP	28	96	3
TAP	28	96	4
TAP	28	288	5
TAP	29	0	5
TAP	29	96	4
TAP	29	192	4
TAP	29	288	3
TAP	30	0	3
TAP	30	96	2
TAP	30	96	4
TAP	30	288	1
TAP	31	0	1
TAP	31	96	0
TAP	31	192	0
TAP	31	288	7
TAP	32	0	0
TAP	32	0	7
XTP	32	96	1
XTP	32	96	6
BRK	32	288	5
TAP	33	0	5
TAP	33	96	4
TAP	33	96	5
TAP	33	192	4
TAP	33	192	5
TAP	33	288	6
TAP	34	0	7
TAP	34	96	0
TAP	34	192	1
TAP	34	288	2
TAP	35	0	2
TAP	35	96	2
TAP	35	96	3
TAP	35	192	2
TAP	35	192	3
TAP	35	288	1
TAP	36	0	0
TAP	36	96	1
TAP	36	96	7
TAP	36	288	6
TAP	37	0	6
HLD	37	96	6	96
HLD	37	96	7	96
TAP	37	288	1
TAP	38	0	1
TAP	38	96	0
TAP	38	96	1
TAP	38	288	0
TAP	38	288	1
TAP	39	0	2
TAP	39	0	3
TAP	39	96	4
TAP	39	96	5
STR	39	192	6
SI_	39	192	6	96	192	3
STR	39	192	7
SI_	39	192	7	96	192	2
TTP	40	288	2	E	0	L1
TTP	41	96	3	E	0	L1
TTP	41	288	4	E	0	L1
TTP	42	96	5	E	0	L1
TTP	42	288	6	E	0	L1
TTP	43	96	7	E	0	L1
TTP	43	288	0	E	0	L1
TTP	44	96	1	E	0	L1
TTP	44	288	2	E	0	L1
TTP	45	96	1	E	0	L1
TTP	45	288	0	E	0	L1
TTP	46	96	7	E	0	L1
TTP	46	288	6	E	0	L1
TTP	47	96	5	E	0	L1
XHO	47	288	3	96
XHO	47	288	4	96
TAP	48	96	2
TAP	48	96	5
BRK	48	288	6
TAP	49	0	6
TAP	49	96	6
TAP	49	96	7
TAP	49	288	1
TAP	50	0	1
TAP	50	96	0
TAP	50	96	1
TAP	50	288	6
TAP	51	0	6
TAP	51	96	6
TAP	51	96	7
TAP	51	288	0
TAP	52	0	0
TAP	52	96	1
TAP	52	96	7
TAP	52	288	2
TAP	53	0	2
TAP	53	96	2
TAP	53	96	3
TAP	53	288	5
TAP	54	0	5
TAP	54	96	4
TAP	54	96	5
TAP	54	288	2
TAP	55	0	3
TAP	55	96	4
STR	55	192	5
SCL	55	192	5	96	192	2
THO	56	288	0	2688	C	0	L1
XHO	64	288	6	384
HLD	65	288	7	384
HLD	66	288	0	384
TAP	67	288	1
HLD	68	288	2	384
HLD	69	288	3	384
HLD	70	288	4	384
TAP	71	288	5
TTP	72	288	6	E	0	L1
TTP	73	0	5	B	0	L1
TTP	73	96	4	B	0	L1
TTP	73	288	2	E	0	L1
TTP	74	0	2	B	0	L1
TTP	74	96	3	B	0	L1
TTP	74	288	6	E	0	L1
TTP	75	0	5	B	0	L1
TTP	75	96	4	B	0	L1
TTP	75	288	2	E	0	L1
TTP	76	0	2	B	0	L1
TTP	76	96	3	B	0	L1
XTP	76	288	5
XTP	77	0	4
TAP	77	96	3
TAP	77	192	2
TAP	77	288	1
TAP	78	0	0
TAP	78	96	7
TAP	78	192	6
TAP	78	288	5
TAP	78	336	5
TAP	79	0	5
TAP	79	96	4
TAP	79	144	4
TAP	79	192	4
TAP	79	288	3
TAP	79	288	4
XTP	80	0	2
XTP	80	0	5
XTP	80	96	2
XTP	80	96	5
HLD	80	288	3	1344
TAP	80	288	4
TAP	81	0	4
TAP	81	96	4
TAP	81	192	4
TAP	81	288	4
TAP	82	0	4
TAP	82	96	4
TAP	82	192	4
TAP	82	288	4
TAP	83	0	4
TAP	83	96	4
TAP	83	192	4
TAP	83	288	4
TAP	84	0	4
TAP	84	96	4
TAP	84	288	3
HLD	84	288	4	1248
TAP	85	0	3
TAP	85	96	3
TAP	85	192	3
TAP	85	288	3
TAP	86	0	3
TAP	86	96	3
TAP	86	192	3
TAP	86	288	3
TAP	87	0	3
TAP	87	96	3
TAP	87	192	3
TAP	87	288	3
TAP	88	0	3
XTP	88	96	2
XTP	88	96	5
TAP	88	288	6
TAP	88	336	6
TAP	89	0	6
TAP	89	96	6
TAP	89	96	7
TAP	89	192	6
TAP	89	192	7
TAP	89	288	5
TAP	89	336	5
TAP	90	0	5
TAP	90	96	4
TAP	90	96	5
TAP	90	192	4
TAP	90	192	5
TAP	90	288	2
TAP	90	336	2
TAP	91	0	2
TAP	91	96	2
TAP	91	96	3
TAP	91	192	2
TAP	91	192	3
TAP	91	288	1
TAP	91	336	1
TAP	92	0	1
TAP	92	96	0
TAP	92	96	7
TAP	92	288	6
TAP	92	336	6
TAP	93	0	6
TAP	93	96	6
TAP	93	96	7
TAP	93	192	4
TAP	93	192	5
TAP	93	288	2
TAP	93	336	2
TAP	94	0	2
TAP	94	96	2
TAP	94	96	3
TAP	94	192	0
TAP	94	192	1
TAP	94	288	7
TAP	94	336	7
TAP	95	0	7
TAP	95	96	0
TAP	95	144	0
TAP	95	192	0
BRK	95	288	1
BRK	95	288	6
TAP	96	288	5
TAP	97	0	4
TAP	97	0	5
TAP	97	96	5
TAP	97	192	4
TAP	97	192	5
TAP	97	288	6
TAP	98	0	7
TAP	98	96	0
TAP	98	192	1
TAP	98	288	2
TAP	99	0	2
TAP	99	0	3
TAP	99	96	2
TAP	99	192	2
TAP	99	192	3
TAP	99	288	1
TAP	100	0	0
TAP	100	0	7
TAP	100	96	1
TAP	100	96	6
HLD	100	288	5	96
TAP	101	0	4
TAP	101	96	3
TAP	101	96	6
HLD	101	288	2	96
TAP	102	0	3
TAP	102	96	1
TAP	102	96	4
TAP	102	288	5
TAP	103	0	4
TAP	103	0	5
TAP	103	96	2
TAP	103	192	2
TAP	103	192	3
BST	103	288	4
SI_	103	288	4	96	192	1
SI_	103	288	4	96	192	7
TAP	104	288	6
TAP	105	0	6
TAP	105	0	7
TAP	105	96	6
TAP	105	192	6
TAP	105	192	7
TAP	105	288	5
TAP	106	0	4
TAP	106	96	3
TAP	106	192	2
TAP	106	288	1
TAP	107	0	0
TAP	107	0	1
TAP	107	96	1
TAP	107	192	0
TAP	107	192	1
TAP	107	288	2
TAP	108	0	3
TAP	108	0	4
TAP	108	96	2
TAP	108	96	5
HLD	108	288	6	96
TAP	109	0	7
TAP	109	96	0
TAP	109	96	5
HLD	109	288	1	96
TAP	110	0	0
TAP	110	96	2
TAP	110	96	7
TAP	110	288	3
TAP	110	336	3
TAP	111	0	3
TAP	111	96	4
TAP	111	144	4
TAP	111	192	4
TAP	111	288	3
TAP	111	288	4
TAP	111	336	3
TAP	111	336	4
TAP	112	0	3
TAP	112	0	4
BRK	112	96	2
BRK	112	96	5
STR	112	288	4
SXL	112	288	4	96	480	7
STR	114	288	0
SXL	114	288	0	96	480	3
TTP	116	288	0	C	1	L1
TTP	117	288	4	E	0	L1
XTP	118	288	3
XTP	118	288	4
TAP	119	96	3
TAP	119	96	4
TAP	119	288	5
TAP	120	0	4
TAP	120	96	3
BRK	120	192	2

T_REC_TAP	272
T_REC_BRK	8
T_REC_XTP	12
T_REC_HLD	20
T_REC_XHO	3
T_REC_STR	10
T_REC_BST	1
T_REC_XST	2
T_REC_TTP	31
T_REC_THO	2
T_REC_SLD	14
T_REC_ALL	375
T_NUM_TAP	327
T_NUM_BRK	9
T_NUM_HLD	25
T_NUM_SLD	14
T_NUM_ALL	375
T_JUDGE_TAP	336
T_JUDGE_HLD	230
T_JUDGE_SLD	14
T_JUDGE_ALL	580
TTM_EACHPAIRS	71
TTM_SCR_TAP	163500
TTM_SCR_BRK	23400
TTM_SCR_HLD	25000
TTM_SCR_SLD	21000
TTM_SCR_ALL	232900
TTM_SCR_S	225050
TTM_SCR_SS	232000
TTM_RAT_ACV	10038

