VERSION	0.00.00	1.03.00
FES_MODE	0
BPM_DEF	180.000	190.000	190.000	180.000
MET_DEF	4	4
RESOLUTION	384
CLK_DEF	384
COMPATIBLE_CODE	MA2

BPM	0	0	180.000
BPM	8	288	190.000
MET	0	0	4	4
MET	7	0	4	3
MET	7	288	4	4

TTP	3	0	0	B	0	L1
TTP	3	0	7	B	0	L1
TTP	4	0	1	B	0	L1
TTP	4	0	6	B	0	L1
TTP	5	0	2	B	0	L1
TTP	5	0	5	B	0	L1
THO	6	0	0	672	C	1	L1
TTP	12	48	0	C	0	L1
TTP	12	48	1	B	0	L1
TTP	12	48	6	B	0	L1
THO	16	24	0	264	C	1	L1
TTP	16	24	1	B	0	L1
TTP	16	24	2	B	0	L1
TTP	16	24	5	B	0	L1
TTP	16	24	6	B	0	L1
HLD	18	288	0	384
HLD	18	288	7	384
HLD	20	288	0	384
HLD	20	288	7	384
HLD	22	288	0	384
HLD	22	288	7	384
BRK	24	288	0
TAP	25	96	0
TAP	25	288	0
TAP	26	288	1
TAP	27	96	1
TAP	27	288	1
TAP	28	288	2
TAP	29	96	2
TAP	29	288	2
TAP	30	288	3
TAP	30	288	4
TAP	31	96	3
TAP	31	96	4
TAP	31	288	3
TAP	31	288	4
TAP	32	288	4
TAP	33	96	4
TAP	33	288	4
TAP	34	288	5
TAP	35	96	5
TAP	35	288	5
TAP	36	288	6
TAP	37	96	6
TAP	37	288	6
TAP	38	288	0
TAP	38	288	7
TAP	39	96	0
TAP	39	96	7
BRK	39	288	0
BRK	39	288	7
HLD	40	288	6	384
HLD	42	288	4	384
HLD	42	288	5	384
HLD	44	288	2	384
HLD	44	288	3	384
HLD	46	288	1	384
TAP	48	288	0
TAP	49	96	0
TAP	49	288	1
TAP	50	96	1
TAP	50	288	2
TAP	51	96	2
TAP	51	288	2
TAP	51	288	3
TAP	52	288	4
TAP	53	96	4
TAP	53	288	5
TAP	54	96	5
TAP	54	288	6
TAP	55	96	6
BRK	55	288	6
BRK	55	288	7
STR	56	288	0
SI_	56	288	0	96	288	3
STR	58	288	4
SI_	58	288	4	96	288	7
STR	60	288	0
SI_	60	288	0	96	288	4
STR	62	288	5
SI_	62	288	5	96	288	0
TAP	64	288	7
TAP	65	96	7
TAP	65	288	0
TAP	65	288	7
TAP	66	288	6
TAP	67	96	6
TAP	67	288	6
TAP	67	288	7
TAP	68	288	5
TAP	69	96	5
TAP	69	288	4
TAP	69	288	5
TAP	70	288	2
TAP	71	96	2
TAP	71	288	2
TAP	71	288	3
TTP	72	288	2	B	0	L1
TTP	72	288	3	B	0	L1
TTP	73	288	0	B	0	L1
TTP	73	288	1	B	0	L1
TTP	74	288	6	B	0	L1
TTP	74	288	7	B	0	L1
TTP	75	288	4	B	0	L1
TTP	75	288	5	B	0	L1
TAP	76	288	3
TAP	77	0	3
TAP	77	96	3
TAP	77	288	2
TAP	77	288	3
TAP	78	288	4
TAP	79	0	4
TAP	79	96	4
TAP	79	288	4
TAP	79	288	5
HLD	80	288	3	2688
HLD	80	288	4	2688
TAP	88	288	3
TAP	89	0	3
TAP	89	96	3
TAP	89	192	3
TAP	89	288	2
TAP	90	0	2
BRK	90	96	2
BRK	90	96	3
TAP	90	288	1
TAP	91	0	1
TAP	91	96	1
TAP	91	192	1
TAP	91	288	0
TAP	92	0	0
BRK	92	96	0
BRK	92	96	7
TAP	92	288	6
TAP	93	0	6
TAP	93	96	6
TAP	93	192	6
TAP	93	288	5
TAP	94	0	5
BRK	94	96	4
BRK	94	96	5
TAP	94	288	3
TAP	95	0	3
TAP	95	96	3
TAP	95	192	3
BRK	95	288	3
BRK	95	288	4
TAP	96	288	5
TAP	97	0	5
TAP	97	96	4
TAP	97	96	5
TAP	97	288	6
TAP	98	0	6
TAP	98	96	6
TAP	98	96	7
TAP	98	288	0
TAP	99	0	0
TAP	99	96	7
TAP	99	192	7
TAP	99	288	0
TAP	99	288	7
TAP	100	96	1
TAP	100	96	6
TAP	100	288	2
TAP	101	0	2
TAP	101	96	2
TAP	101	96	3
TAP	101	288	1
TAP	102	0	1
TAP	102	96	0
TAP	102	96	1
TAP	102	288	7
TAP	103	0	7
TAP	103	96	0
TAP	103	192	0
TAP	103	288	0
TAP	103	288	7
TAP	104	96	1
TAP	104	96	6
TAP	104	288	5
TAP	105	0	5
TAP	105	96	4
TAP	105	192	4
TAP	105	288	3
TAP	106	0	3
TAP	106	96	2
TAP	106	96	3
TAP	106	288	2
TAP	107	0	2
TAP	107	96	3
TAP	107	192	3
TAP	107	288	4
TAP	108	0	4
TAP	108	96	4
TAP	108	96	5
TAP	108	288	6
TAP	109	0	6
TAP	109	96	7
TAP	109	192	7
TAP	109	288	0
TAP	110	0	0
TAP	110	96	1
TAP	110	192	1
TAP	110	288	0
TAP	110	288	7
TAP	111	0	0
TAP	111	0	7
TAP	111	96	0
TAP	111	96	7
TAP	111	192	0
TAP	111	192	7
TAP	111	288	0
TAP	111	288	7
XTP	112	96	1
XTP	112	96	6
HLD	112	288	2	384
HLD	112	288	5	384
HLD	114	288	3	384
HLD	114	288	4	384
TTP	116	288	0	C	1	L1
BRK	117	288	0
BRK	117	288	7
XTP	118	288	0
XTP	118	288	7
XTP	119	96	1
XTP	119	96	6
TAP	119	288	2
TAP	119	288	5
TAP	120	0	2
TAP	120	0	5
HLD	120	96	2	96
HLD	120	96	5	96

T_REC_TAP	159
T_REC_BRK	15
T_REC_XTP	6
T_REC_HLD	20
T_REC_XHO	0
T_REC_STR	4
T_REC_BST	0
T_REC_XST	0
T_REC_TTP	22
T_REC_THO	2
T_REC_SLD	4
T_REC_ALL	232
T_NUM_TAP	191
T_NUM_BRK	15
T_NUM_HLD	22
T_NUM_SLD	4
T_NUM_ALL	232
T_JUDGE_TAP	206
T_JUDGE_HLD	264
T_JUDGE_SLD	4
T_JUDGE_ALL	474
TTM_EACHPAIRS	48
TTM_SCR_TAP	95500
TTM_SCR_BRK	39000
TTM_SCR_HLD	22000
TTM_SCR_SLD	6000
TTM_SCR_ALL	162500
TTM_SCR_S	156200
TTM_SCR_SS	161000
TTM_RAT_ACV	10093

