VERSION	0.00.00	1.03.00
FES_MODE	0
BPM_DEF	252.000	252.000	252.000	189.000
MET_DEF	4	4
RESOLUTION	384
CLK_DEF	384
COMPATIBLE_CODE	MA2

BPM	0	0	252.000
BPM	79	0	189.000
BPM	115	288	252.000
MET	0	0	4	4
MET	79	0	4	3
MET	115	288	4	12
MET	118	288	4	4
MET	144	288	8	5
MET	146	0	8	9
MET	147	48	8	5
MET	148	144	8	9
MET	149	192	4	2
MET	150	0	4	4

STR	2	0	3
SCL	2	0	3	96	5280	4
TAP	5	0	0
TAP	6	0	7
TAP	7	0	0
TAP	8	0	7
TAP	11	0	0
TAP	12	0	7
TAP	13	0	0
TAP	14	0	7
STR	16	0	0
SF_	16	0	0	96	144	4
HLD	17	0	3	96
HLD	17	144	3	96
TAP	17	288	3
HLD	18	0	4	96
HLD	18	144	4	96
TAP	18	288	4
HLD	19	0	3	96
HLD	19	0	5	96
HLD	19	144	3	96
HLD	19	144	5	96
TAP	19	288	3
TAP	19	288	5
HLD	20	0	3	96
HLD	20	0	4	96
HLD	20	144	3	96
HLD	20	144	4	96
TTP	20	288	3	E	0	M1
TTP	20	312	3	B	0	M1
TTP	20	336	4	B	0	M1
TTP	20	360	5	E	0	M1
THO	21	0	0	384	C	0	M1
TAP	22	288	0
HLD	22	336	7	624
HLD	23	0	1	288
TAP	24	0	1
TAP	24	96	5
TTP	24	192	6	E	0	M1
TTP	24	208	5	B	0	M1
TTP	24	224	4	B	0	M1
TTP	24	240	3	B	0	M1
TTP	24	256	2	B	0	M1
TTP	24	272	2	E	0	M1
TAP	25	0	7
TAP	25	32	6
TAP	25	64	5
TAP	25	96	1
TAP	25	128	2
TAP	25	160	3
TAP	25	192	6
TAP	25	224	5
TAP	25	256	4
TAP	25	288	0
BST	26	0	1
SI_	26	0	1	96	48	4
TAP	26	48	7
TAP	26	96	7
TAP	26	192	3
TAP	26	192	5
TAP	26	288	2
TAP	26	288	3
TAP	26	336	1
STR	27	0	0
SI_	27	0	0	96	48	3
TAP	27	0	4
STR	27	96	0
SCL	27	96	0	96	48	5
STR	27	192	0
SCR	27	192	0	96	48	3
STR	27	288	0
SI_	27	288	0	96	48	5
BST	28	0	0
SI_	28	0	0	96	48	3
STR	28	96	0
SI_	28	96	0	96	48	4
TAP	28	192	0
TAP	28	288	2
TAP	28	288	6
TAP	29	0	0
TAP	29	32	1
TAP	29	64	2
TAP	29	96	6
TAP	29	128	5
TAP	29	160	4
TAP	29	192	1
TAP	29	224	2
TAP	29	256	3
TAP	29	288	7
BST	30	0	6
SI_	30	0	6	96	48	3
TAP	30	48	0
TAP	30	96	0
TAP	30	192	1
TAP	30	192	4
TAP	30	288	4
TAP	30	288	5
TAP	30	336	6
TAP	31	0	2
STR	31	0	7
SI_	31	0	7	96	48	4
STR	31	96	7
SI_	31	96	7	96	48	2
STR	31	192	7
SCL	31	192	7	96	48	4
STR	31	288	7
SCR	31	288	7	96	48	2
BRK	32	0	7
TAP	32	96	4
TAP	32	96	5
TAP	32	192	3
TAP	32	192	6
TAP	32	240	3
TAP	32	240	6
TAP	32	288	3
TAP	32	288	6
TAP	33	0	0
TAP	33	32	1
TAP	33	64	2
TAP	33	96	6
TAP	33	128	5
TAP	33	160	4
TAP	33	192	1
TAP	33	224	2
TAP	33	256	3
TAP	33	288	7
BST	34	0	6
SI_	34	0	6	96	48	2
TAP	34	48	0
TAP	34	96	0
TAP	34	192	1
TAP	34	192	3
TAP	34	288	4
TAP	34	288	5
TAP	34	336	6
TAP	35	0	2
STR	35	0	7
SCL	35	0	7	96	48	4
STR	35	96	7
SCR	35	96	7	96	48	2
STR	35	192	7
SI_	35	192	7	96	48	4
STR	35	288	7
SI_	35	288	7	96	48	2
BST	36	0	7
SI_	36	0	7	96	48	3
STR	36	96	7
SCR	36	96	7	96	48	2
TAP	36	192	7
TAP	36	288	4
TAP	36	288	5
TAP	37	0	3
TAP	37	32	2
TAP	37	64	1
TAP	37	96	5
TAP	37	128	6
TAP	37	160	7
TAP	37	192	2
TAP	37	224	1
TAP	37	256	0
TAP	37	288	4
BST	38	0	6
SI_	38	0	6	96	48	3
TAP	38	48	7
TAP	38	96	7
TAP	38	192	1
TAP	38	288	4
TAP	38	288	5
TAP	38	336	6
TAP	39	0	2
STR	39	0	7
SCL	39	0	7	96	96	4
STR	39	96	4
SI_	39	96	4	96	96	0
STR	39	192	0
SCR	39	192	0	96	96	3
STR	39	288	3
SI_	39	288	3	96	96	7
BRK	40	0	7
TAP	40	96	0
XTP	40	192	1
XTP	40	192	5
XTP	40	240	1
XTP	40	240	5
XTP	40	288	1
XTP	40	288	5
HLD	41	0	4	96
HLD	41	96	3	96
TAP	41	192	4
TAP	41	288	5
TAP	41	336	5
TAP	42	0	2
TAP	42	48	3
XHO	42	96	1	96
HLD	42	240	1	96
XTP	42	240	4
TAP	43	0	2
TAP	43	0	3
TAP	43	144	6
HLD	43	192	6	96
TAP	43	288	4
TAP	43	336	5
XTP	44	0	3
TAP	44	48	3
TAP	44	96	4
XHO	44	144	4	144
XTP	44	288	1
HLD	44	336	1	96
XTP	45	48	3
HLD	45	96	3	96
XTP	45	192	4
HLD	45	240	4	96
XTP	45	336	5
HLD	46	0	5	192
TAP	46	192	3
TAP	46	240	3
TAP	46	288	4
TAP	46	336	4
TAP	47	0	2
TAP	47	48	3
HLD	47	96	1	96
TAP	47	192	4
TAP	47	240	4
TAP	47	288	3
TAP	47	336	3
XTP	48	0	5
XHO	48	48	6	144
XTP	48	192	3
XHO	48	240	2	144
XTP	49	0	4
TAP	49	48	4
TAP	49	96	0
XTP	49	144	7
TAP	49	192	7
TAP	49	240	4
XTP	49	288	5
TAP	49	336	5
TAP	50	0	1
XTP	50	48	3
TAP	50	96	3
TAP	50	144	7
XTP	50	192	4
TAP	50	240	4
TAP	50	288	2
XST	50	336	7
SCL	50	336	7	96	432	1
BRK	51	48	1
TAP	52	96	0
TAP	52	144	0
TAP	52	192	0
TAP	52	240	7
TAP	52	288	7
TAP	52	336	7
TAP	53	0	1
XTP	53	0	6
XTP	53	48	1
TAP	53	48	6
TAP	53	96	1
XTP	53	96	6
XTP	53	144	1
TAP	53	144	6
TAP	53	192	2
XTP	53	192	5
XTP	53	240	2
TAP	53	240	5
TAP	53	288	2
XTP	53	288	5
XTP	53	336	2
TAP	53	336	5
BST	54	0	3
SSR	54	0	3	96	192	7
BST	54	0	4
SSL	54	0	4	96	192	0
XTP	55	0	1
XTP	55	0	6
TAP	55	96	2
TAP	55	144	2
STR	55	192	3
SCR	55	192	3	96	96	6
TAP	55	288	7
TAP	56	0	1
TAP	56	32	2
TAP	56	64	3
TAP	56	96	6
TAP	56	128	5
TAP	56	160	4
TAP	56	192	0
TAP	56	224	1
TAP	56	256	2
TAP	56	288	7
TAP	56	320	6
TAP	56	352	5
TAP	57	0	1
TAP	57	32	3
TAP	57	64	1
TAP	57	96	3
TAP	57	128	1
TAP	57	160	3
TAP	57	192	2
TAP	57	224	4
TAP	57	256	2
TAP	57	288	4
TAP	57	320	2
TAP	57	352	4
TAP	58	0	3
TAP	58	32	5
TAP	58	64	3
TAP	58	96	5
TAP	58	128	3
TAP	58	160	5
TAP	58	192	4
TAP	58	288	3
TAP	58	288	6
TAP	59	0	3
TAP	59	0	6
TAP	59	96	5
TAP	59	144	5
STR	59	192	4
SCL	59	192	4	96	96	1
TAP	59	288	0
TAP	60	0	6
TAP	60	32	5
TAP	60	64	4
TAP	60	96	1
TAP	60	128	2
TAP	60	160	3
TAP	60	192	7
TAP	60	224	6
TAP	60	256	5
TAP	60	288	0
TAP	60	320	1
TAP	60	352	2
TAP	61	0	6
TAP	61	32	4
TAP	61	64	6
TAP	61	96	4
TAP	61	128	6
TAP	61	160	4
TAP	61	192	5
TAP	61	224	3
TAP	61	256	5
TAP	61	288	3
TAP	61	320	5
TAP	61	352	3
TAP	62	0	4
TAP	62	32	2
TAP	62	64	4
TAP	62	96	2
TAP	62	128	4
TAP	62	160	2
TAP	62	192	3
TAP	62	288	1
TAP	62	288	4
TAP	63	0	2
TAP	63	0	3
TAP	63	96	5
TAP	63	144	5
STR	63	192	4
SCL	63	192	4	96	96	1
TAP	63	288	0
TAP	64	0	6
TAP	64	32	5
TAP	64	64	4
TAP	64	96	0
TAP	64	128	1
TAP	64	160	2
TAP	64	192	7
TAP	64	224	6
TAP	64	256	5
TAP	64	288	1
TAP	64	320	2
TAP	64	352	3
TAP	65	0	6
TAP	65	32	7
TAP	65	64	6
TAP	65	96	7
TAP	65	128	6
TAP	65	160	7
TAP	65	192	5
TAP	65	224	4
TAP	65	256	5
TAP	65	288	4
TAP	65	320	5
TAP	65	352	4
HLD	66	0	6	96
TAP	66	96	3
TAP	66	144	3
TAP	66	192	5
TAP	66	240	2
TAP	66	288	2
TAP	66	336	4
HLD	67	0	1	96
TAP	67	96	3
TAP	67	144	3
HLD	67	192	0	96
TAP	67	288	7
HLD	68	0	6	96
TAP	68	96	4
TAP	68	144	4
HLD	68	192	7	96
STR	68	288	0
SCR	68	288	0	96	96	3
TAP	69	0	3
STR	69	96	7
SCL	69	96	7	96	96	4
TAP	69	192	4
STR	69	288	0
SF_	69	288	0	96	192	4
TTP	71	0	0	C	1	M1
TTP	71	0	4	B	0	M1
HLD	71	0	6	288
TTP	72	0	0	C	1	M1
HLD	72	0	1	288
TTP	72	0	3	B	0	M1
TTP	73	0	0	C	1	M1
TTP	73	0	5	B	0	M1
HLD	73	0	7	288
HLD	74	0	0	72
HLD	74	120	1	72
HLD	74	120	7	72
HLD	74	240	2	72
HLD	74	240	6	72
TAP	75	0	3
TAP	75	32	5
TAP	75	64	3
TAP	75	96	5
TAP	75	128	3
TAP	75	160	4
TAP	75	192	3
TAP	75	224	4
TAP	75	256	2
TAP	75	288	4
TAP	75	320	2
TAP	75	352	4
TAP	76	0	2
TAP	76	32	5
TAP	76	64	2
TAP	76	96	5
TAP	76	128	1
TAP	76	160	6
TAP	76	192	1
TAP	76	224	6
TAP	76	256	1
TAP	76	288	7
TAP	76	320	1
TAP	76	352	7
TAP	77	0	1
TAP	77	32	2
TAP	77	64	3
TAP	77	96	4
TAP	77	128	0
TAP	77	160	1
TAP	77	192	2
TAP	77	224	3
TAP	77	256	7
TAP	77	288	0
TAP	77	320	1
TAP	77	352	2
TAP	78	0	6
TAP	78	32	7
TAP	78	64	0
TAP	78	96	1
TAP	78	128	5
TAP	78	160	6
TAP	78	192	7
TAP	78	224	0
TAP	78	256	4
TAP	78	288	5
TAP	78	320	6
TAP	78	352	7
THO	79	0	0	1632	C	0	M1
TTP	81	96	0	E	0	M1
TTP	81	192	7	E	0	M1
TTP	81	288	6	E	0	M1
TTP	82	0	5	E	0	M1
TTP	82	96	6	E	0	M1
TTP	82	192	7	E	0	M1
HLD	82	288	7	1152
TTP	84	0	0	E	0	M1
TTP	84	96	0	C	0	M1
TTP	84	192	4	E	0	M1
TTP	84	288	5	E	0	M1
TTP	85	0	6	E	0	M1
TTP	85	96	7	E	0	M1
TTP	85	192	0	E	0	M1
TTP	85	288	0	C	0	M1
TTP	86	0	4	E	0	M1
TTP	86	96	3	E	0	M1
TTP	86	96	5	E	0	M1
THO	86	192	0	960	C	0	M1
TTP	86	192	2	E	0	M1
TTP	86	192	6	E	0	M1
TTP	87	288	0	B	0	M1
TTP	87	288	7	B	0	M1
TTP	88	0	1	B	0	M1
TTP	88	0	6	B	0	M1
TTP	88	96	2	B	0	M1
TTP	88	96	5	B	0	M1
TTP	88	192	3	B	0	M1
TTP	88	192	4	B	0	M1
TTP	88	288	2	B	0	M1
TTP	88	288	5	B	0	M1
TTP	89	0	1	B	0	M1
TTP	89	0	6	B	0	M1
TTP	89	96	0	E	0	M1
TTP	89	192	0	C	0	M1
TTP	89	288	4	E	0	M1
THO	90	0	0	576	C	0	M1
STR	91	288	7
SLL	91	288	7	96	288	3
TAP	92	96	2
STR	92	192	3
SLR	92	192	3	96	288	0
TAP	93	0	1
STR	93	96	0
SCL	93	96	0	96	288	3
TAP	94	96	2
TAP	94	192	1
TAP	94	192	3
STR	94	288	0
SLR	94	288	0	96	288	4
TAP	95	96	5
STR	95	192	4
SLL	95	192	4	96	288	7
TAP	96	0	6
STR	96	96	7
SCR	96	96	7	96	288	4
TAP	97	96	5
TAP	97	192	4
TAP	97	192	6
STR	97	288	7
SUL	97	288	7	96	288	2
TAP	98	96	3
STR	98	192	2
SCR	98	192	2	96	288	5
TAP	99	0	1
STR	99	96	0
SUR	99	96	0	96	288	5
TAP	99	288	6
TAP	100	0	6
TAP	100	96	6
HLD	100	192	7	96
HLD	100	288	6	96
HLD	101	0	5	96
HLD	101	96	4	288
TTP	101	192	0	C	0	M1
HLD	102	0	0	96
HLD	102	96	1	96
HLD	102	192	2	96
HLD	102	288	3	96
TTP	103	0	0	C	0	M1
TAP	103	192	1
TAP	103	192	6
TAP	103	288	2
STR	103	288	5
SI_	103	288	5	96	192	0
TAP	104	0	3
TAP	104	48	3
TAP	104	144	4
STR	104	192	4
SCL	104	192	4	96	192	1
TAP	104	288	7
TAP	105	0	6
STR	105	96	6
SI_	105	96	6	96	192	3
TAP	105	192	0
TAP	105	240	0
TAP	105	336	1
TAP	106	0	1
TAP	106	96	2
TAP	106	192	3
TAP	106	192	4
STR	106	288	2
SI_	106	288	2	96	192	7
TAP	106	288	5
TAP	107	0	4
TAP	107	48	4
TAP	107	144	3
STR	107	192	3
SCR	107	192	3	96	192	6
TAP	107	288	0
TAP	108	0	1
STR	108	96	1
SI_	108	96	1	96	192	5
TAP	108	192	7
TAP	108	240	7
TAP	108	336	6
BRK	109	0	6
TAP	109	96	4
TAP	109	96	5
TAP	109	192	3
TAP	109	192	4
HLD	109	288	2	288
TAP	110	0	3
TAP	110	48	3
TAP	110	144	1
STR	110	192	1
SCL	110	192	1	96	192	6
TAP	110	288	2
TAP	111	0	3
HLD	111	96	4	288
TAP	111	192	5
TAP	111	240	5
TAP	111	336	3
STR	112	0	3
SUR	112	0	3	96	192	0
TAP	112	96	2
TAP	112	192	1
BRK	112	288	1
TAP	113	0	2
TAP	113	48	2
TAP	113	96	3
XTP	113	192	2
TAP	113	192	4
TAP	113	288	5
TAP	113	336	5
XTP	114	0	4
XTP	114	96	3
XTP	114	96	5
XTP	114	192	2
XTP	114	192	4
XTP	114	288	1
XTP	114	288	6
TAP	115	0	0
TAP	115	0	7
TAP	115	48	0
TAP	115	48	7
TAP	115	96	0
TAP	115	96	7
TAP	115	144	0
TAP	115	144	7
BRK	115	192	1
BRK	115	192	6
HLD	115	288	3	240
HLD	115	288	4	528
TTP	116	152	3	E	0	M1
TTP	116	160	2	B	0	M1
TTP	116	168	1	B	0	M1
TTP	116	176	1	E	0	M1
XHO	116	184	0	536
TTP	117	56	5	E	0	M1
TTP	117	64	5	B	0	M1
TTP	117	72	6	B	0	M1
TTP	117	80	7	E	0	M1
XHO	117	88	7	248
BRK	118	288	2
BRK	118	288	5
TAP	119	0	1
TAP	119	0	3
TAP	119	48	2
STR	119	96	3
SI_	119	96	3	96	48	6
TAP	119	96	5
TAP	119	144	4
STR	119	192	2
SI_	119	192	2	96	48	7
XTP	119	288	5
TAP	120	0	0
TAP	120	0	6
TAP	120	96	5
TAP	120	144	4
TAP	120	192	3
TAP	120	240	2
TAP	120	288	1
TAP	120	288	7
TAP	121	0	4
TAP	121	0	6
TAP	121	48	5
TAP	121	96	2
STR	121	96	4
SCL	121	96	4	96	48	1
TAP	121	144	3
STR	121	192	7
SI_	121	192	7	96	48	3
XTP	121	288	0
BRK	121	288	7
XTP	122	0	1
XTP	122	0	4
TAP	122	96	2
TAP	122	144	2
STR	122	192	6
SI_	122	192	6	96	48	1
TAP	122	240	4
TAP	122	288	6
XTP	123	0	2
TAP	123	96	3
TAP	123	144	3
STR	123	192	6
SI_	123	192	6	96	48	2
TAP	123	240	4
TAP	123	288	6
XTP	124	0	3
TAP	124	96	2
TAP	124	144	2
STR	124	192	6
SI_	124	192	6	96	48	3
TAP	124	240	0
BRK	124	288	6
STR	124	336	1
SI_	124	336	1	96	48	4
TAP	125	0	0
BRK	125	48	1
STR	125	96	7
SI_	125	96	7	96	48	3
TAP	125	144	0
BRK	125	192	7
STR	125	240	1
SI_	125	240	1	96	48	5
TAP	125	288	0
BRK	125	336	1
TAP	126	0	7
XTP	126	96	0
XTP	126	96	6
STR	126	192	1
SI_	126	192	1	96	48	4
STR	126	192	7
SI_	126	192	7	96	48	4
BRK	127	0	2
BRK	127	0	6
TAP	127	96	3
TAP	127	96	4
TAP	127	144	3
TAP	127	144	4
STR	127	192	3
SI_	127	192	3	96	48	0
STR	127	192	4
SI_	127	192	4	96	48	7
TAP	127	288	3
TAP	127	288	4
XTP	128	0	1
XTP	128	0	6
TAP	128	96	2
TAP	128	144	3
TAP	128	192	4
TAP	128	240	5
TAP	128	288	6
TAP	128	288	7
TAP	129	0	1
TAP	129	0	3
TAP	129	48	2
STR	129	96	3
SCR	129	96	3	96	48	6
TAP	129	96	5
TAP	129	144	4
STR	129	192	0
SI_	129	192	0	96	48	4
BRK	129	288	0
XTP	129	288	7
XTP	130	0	3
XTP	130	0	6
TAP	130	96	5
TAP	130	144	5
STR	130	192	1
SI_	130	192	1	96	48	6
TAP	130	240	3
TAP	130	288	1
XTP	131	0	5
TAP	131	96	4
TAP	131	144	4
STR	131	192	1
SI_	131	192	1	96	48	5
TAP	131	240	3
TAP	131	288	1
XTP	132	0	6
TAP	132	96	5
TAP	132	144	4
TAP	132	192	3
TAP	132	240	2
XTP	132	288	1
XTP	132	288	4
TAP	133	0	2
TAP	133	0	6
XTP	133	48	2
XTP	133	48	6
TAP	133	144	1
TAP	133	144	3
XTP	133	192	1
XTP	133	192	3
TAP	133	288	4
TAP	133	288	6
XTP	133	336	4
XTP	133	336	6
TAP	134	48	7
TAP	134	96	0
TAP	134	144	1
TAP	134	192	2
TAP	134	192	6
XTP	134	240	2
XST	134	240	6
SI_	134	240	6	96	48	2
TAP	134	336	0
XST	135	0	0
SI_	135	0	0	96	48	5
TAP	135	96	4
XST	135	144	4
SCR	135	144	4	96	144	2
TAP	135	240	3
BRK	135	288	3
TAP	136	288	0
TAP	136	320	1
TAP	136	352	2
TAP	137	0	7
TAP	137	32	6
TAP	137	64	5
TAP	137	96	1
TAP	137	128	2
TAP	137	160	3
TAP	137	192	6
TAP	137	224	5
TAP	137	256	4
TAP	137	288	0
TAP	137	288	3
TAP	137	320	1
TAP	137	352	2
TAP	138	0	3
TAP	138	32	4
TAP	138	64	5
TAP	138	96	1
TAP	138	96	6
TAP	138	128	2
TAP	138	160	3
TAP	138	192	4
TAP	138	224	5
TAP	138	256	6
TAP	138	288	3
TAP	138	288	7
TAP	138	320	2
TAP	138	352	1
TAP	139	0	4
TAP	139	32	5
TAP	139	64	6
TAP	139	96	2
TAP	139	128	1
TAP	139	160	0
TAP	139	192	5
TAP	139	224	6
TAP	139	256	7
TAP	139	288	0
TAP	139	288	3
TAP	139	320	2
TAP	139	352	1
TAP	140	0	0
TAP	140	32	7
TAP	140	64	6
TAP	140	96	2
TAP	140	96	5
TAP	140	128	1
TAP	140	160	0
TAP	140	192	7
TAP	140	224	6
TAP	140	256	5
TAP	140	288	0
TAP	140	288	4
TAP	140	320	1
TAP	140	352	2
TAP	141	0	6
TAP	141	32	5
TAP	141	64	4
TAP	141	96	1
TAP	141	128	2
TAP	141	160	3
TAP	141	192	0
TAP	141	224	7
TAP	141	256	6
TAP	141	288	3
TAP	141	320	2
TAP	141	352	1
TAP	142	0	5
TAP	142	32	6
TAP	142	64	7
TAP	142	96	2
TAP	142	128	1
TAP	142	160	0
TAP	142	192	3
TAP	142	224	4
TAP	142	256	5
TAP	142	288	0
TAP	142	320	1
TAP	142	352	2
TAP	143	0	0
TAP	143	0	3
TAP	143	32	7
TAP	143	64	6
TAP	143	96	0
TAP	143	96	5
TAP	143	128	1
TAP	143	160	2
TAP	143	192	0
TAP	143	192	3
TAP	143	224	7
TAP	143	256	6
XHO	143	288	0	192
TAP	143	288	5
TAP	144	96	6
TAP	144	128	4
TAP	144	160	5
TAP	144	192	1
TAP	144	224	3
TAP	144	256	2
TAP	144	288	4
STR	144	336	4
SI_	144	336	4	96	48	0
TAP	145	0	3
XTP	145	48	4
TAP	145	144	1
STR	145	192	1
SI_	145	192	1	96	48	5
TAP	145	240	0
XTP	145	288	1
TAP	146	0	6
TAP	146	48	6
XTP	146	96	7
TAP	146	144	5
TAP	146	192	1
XST	146	240	1
SI_	146	240	1	96	48	4
TAP	146	288	4
XTP	146	336	1
XTP	147	48	7
STR	147	96	7
SI_	147	96	7	96	48	2
TAP	147	144	3
XTP	147	192	7
XTP	147	288	1
STR	147	336	1
SI_	147	336	1	96	48	4
TAP	148	0	3
XTP	148	48	1
XST	148	144	7
SCL	148	144	7	96	48	5
TAP	148	192	0
TAP	148	240	1
XST	148	288	2
SCL	148	288	2	96	48	0
TAP	148	336	3
TAP	149	0	4
XST	149	48	5
SCL	149	48	5	96	48	3
TAP	149	96	6
TAP	149	144	7
XTP	149	192	0
TAP	149	240	0
XST	149	288	7
SCR	149	288	7	96	48	2
TAP	149	336	6
XTP	150	0	5
STR	150	48	4
SCR	150	48	4	96	48	7
TAP	150	96	3
XTP	150	144	2
STR	150	192	1
SCR	150	192	1	96	48	4
TAP	150	240	0
TAP	150	288	7
TAP	150	336	6
TAP	151	0	5
TAP	151	48	4
TAP	151	96	3
TAP	151	144	2
XTP	151	192	1
XTP	151	192	5
XTP	151	240	1
XTP	151	240	5
XTP	151	288	1
XTP	151	288	5
TAP	152	0	2
TAP	152	48	2
TAP	152	96	2
TAP	152	144	4
TAP	152	192	4
TAP	152	240	4
TAP	152	288	3
TAP	152	336	3
TAP	153	0	3
TAP	153	48	5
TAP	153	96	5
TAP	153	144	5
TAP	153	192	3
TAP	153	240	3
TAP	153	288	3
HLD	153	336	4	144
BRK	154	96	1
TAP	154	144	2
TAP	154	144	5
TAP	154	192	3
BRK	154	192	6
TAP	154	240	2
TAP	154	240	5
BRK	154	288	1
TAP	154	288	4
TAP	154	336	2
HLD	154	336	5	144
TAP	155	96	3
TAP	155	144	7
TAP	155	192	7
TAP	155	240	0
TAP	155	240	6
TAP	155	252	1
TAP	155	252	5
TAP	155	264	2
TAP	155	264	4
TAP	155	276	3
TTP	156	0	0	C	1	M1
XST	156	0	7
SCL	156	0	7	96	1344	0
BST	160	0	0
SSL	160	0	0	96	192	4
BST	160	0	7
SSR	160	0	7	96	192	3
BRK	160	48	0
BRK	160	48	7

T_REC_TAP	613
T_REC_BRK	23
T_REC_XTP	78
T_REC_HLD	51
T_REC_XHO	7
T_REC_STR	67
T_REC_BST	10
T_REC_XST	10
T_REC_TTP	61
T_REC_THO	4
T_REC_SLD	87
T_REC_ALL	1011
T_NUM_TAP	829
T_NUM_BRK	33
T_NUM_HLD	62
T_NUM_SLD	87
T_NUM_ALL	1011
T_JUDGE_TAP	862
T_JUDGE_HLD	208
T_JUDGE_SLD	87
T_JUDGE_ALL	1157
TTM_EACHPAIRS	115
TTM_SCR_TAP	414500
TTM_SCR_BRK	85800
TTM_SCR_HLD	62000
TTM_SCR_SLD	130500
TTM_SCR_ALL	692800
TTM_SCR_S	668850
TTM_SCR_SS	689500
TTM_RAT_ACV	10047

