VERSION	0.00.00	1.03.00
FES_MODE	0
BPM_DEF	252.000	252.000	252.000	189.000
MET_DEF	4	4
RESOLUTION	384
CLK_DEF	384
COMPATIBLE_CODE	MA2

BPM	0	0	252.000
BPM	79	0	189.000
BPM	115	288	252.000
MET	0	0	4	4
MET	79	0	4	3
MET	115	288	4	12
MET	118	288	4	4
MET	144	288	8	5
MET	146	0	8	9
MET	147	48	8	5
MET	148	144	8	9
MET	149	192	4	2
MET	150	0	4	4

TTP	5	0	2	B	0	M1
TTP	6	0	1	E	0	M1
TTP	7	0	5	B	0	M1
TTP	8	0	7	E	0	M1
TTP	11	0	5	E	0	M1
TTP	12	0	6	B	0	M1
TTP	13	0	3	E	0	M1
TTP	14	0	1	B	0	M1
HLD	15	0	7	768
TAP	17	0	0
TAP	17	96	1
TAP	17	192	2
TAP	17	288	3
TAP	18	0	4
TAP	18	96	5
TAP	18	192	6
TAP	18	288	7
TAP	19	0	7
TAP	19	96	6
TAP	19	192	5
TAP	19	288	4
TAP	20	0	3
TAP	20	96	2
TAP	20	192	1
XTP	20	288	0
XTP	21	0	0
TAP	21	96	1
TAP	21	192	2
TAP	21	288	3
TAP	22	0	4
TAP	22	96	5
TAP	22	192	6
XTP	22	288	7
XTP	23	0	7
TAP	23	96	6
TAP	23	192	5
TAP	23	288	4
TAP	24	0	3
BRK	24	96	2
BRK	24	192	1
BRK	24	288	0
BRK	24	288	6
TAP	25	0	5
TAP	25	48	5
TAP	25	96	4
TAP	25	192	6
TAP	25	192	7
TAP	25	288	0
TAP	25	288	1
STR	26	0	2
SCL	26	0	2	96	96	7
STR	26	0	3
SCR	26	0	3	96	96	6
TAP	27	0	0
TAP	27	48	0
TAP	27	96	6
TAP	27	144	6
TAP	27	192	1
TAP	27	240	1
TAP	27	288	7
TAP	27	336	7
TAP	28	0	0
TAP	28	96	1
TAP	28	96	2
TAP	28	192	3
TAP	28	192	4
TAP	28	288	5
TAP	28	288	6
TAP	29	0	0
TAP	29	0	7
TAP	29	96	1
TAP	29	96	2
TAP	29	192	3
TAP	29	192	4
TAP	29	288	5
TAP	29	288	6
STR	30	0	0
SUL	30	0	0	96	96	3
STR	30	0	7
SCL	30	0	7	96	96	4
TAP	30	288	2
TAP	31	0	0
TAP	31	96	7
TAP	31	192	5
HLD	31	288	5	96
HLD	32	0	7	96
HLD	32	96	0	96
HLD	32	192	2	96
TAP	32	288	4
TAP	33	0	5
TAP	33	48	5
TAP	33	96	3
TAP	33	144	3
TAP	33	192	4
TAP	33	240	4
TAP	33	288	2
TAP	33	336	2
STR	34	0	6
SI_	34	0	6	96	96	2
TAP	34	288	1
TAP	35	0	3
TAP	35	96	4
TAP	35	192	6
HLD	35	288	6	96
HLD	36	0	4	96
HLD	36	96	3	96
HLD	36	192	1	96
TAP	36	288	7
TAP	37	0	6
TAP	37	48	6
TAP	37	96	0
TAP	37	144	0
TAP	37	192	7
TAP	37	240	7
TAP	37	288	1
TAP	37	336	1
STR	38	0	5
SI_	38	0	5	96	96	1
TAP	38	288	0
TAP	38	336	0
TAP	39	0	6
TAP	39	48	6
TAP	39	96	2
TAP	39	144	2
TAP	39	192	4
TAP	39	240	4
TAP	39	288	3
TAP	40	0	5
TAP	40	0	6
TAP	40	96	0
TAP	40	96	7
TAP	40	192	1
TAP	40	192	2
TAP	40	288	3
TAP	40	288	4
TAP	41	0	5
TAP	41	96	2
TAP	41	96	6
XTP	41	192	7
TAP	41	288	5
TAP	42	0	4
HLD	42	96	3	144
XTP	42	192	7
HLD	43	0	4	144
XTP	43	192	7
TAP	43	288	3
TAP	44	0	2
TAP	44	96	1
TAP	44	144	1
XTP	44	192	7
TAP	44	288	3
TAP	44	288	5
TAP	44	336	3
TAP	44	336	5
TAP	45	48	4
TAP	45	48	6
TAP	45	96	4
TAP	45	96	6
TAP	45	192	0
XTP	45	192	7
TAP	45	240	0
TAP	45	240	7
TAP	45	336	2
HLD	46	0	2	96
TAP	46	96	4
XTP	46	192	7
TAP	46	288	5
TAP	47	0	4
TAP	47	96	3
TAP	47	192	2
XTP	47	192	7
TAP	47	288	1
HLD	48	0	1	96
HLD	48	192	2	96
XTP	48	192	7
TAP	49	0	3
TAP	49	96	3
TAP	49	192	4
XTP	49	192	7
TAP	49	288	4
TAP	50	0	3
TAP	50	96	2
TAP	50	192	1
XTP	50	192	7
TAP	50	288	0
STR	50	336	0
SCR	50	336	0	96	528	7
TTP	51	48	0	C	1	M1
TAP	53	0	0
TAP	53	0	7
TAP	53	96	1
TAP	53	96	6
TAP	53	192	2
TAP	53	192	5
TAP	53	288	3
TAP	53	288	4
XST	54	0	3
SV_	54	0	3	96	96	6
XST	54	0	4
SV_	54	0	4	96	96	1
HLD	55	0	6	384
TAP	55	96	4
TAP	55	192	3
TAP	55	288	2
HLD	56	0	2	384
TAP	56	96	3
TAP	56	192	4
TAP	56	288	5
HLD	57	0	5	384
TAP	57	96	4
TAP	57	192	3
TAP	57	288	2
HLD	58	0	1	384
TAP	58	96	3
TAP	58	192	4
TAP	58	288	5
HLD	59	0	5	384
TAP	59	96	7
TAP	59	192	0
TAP	59	288	1
HLD	60	0	1	384
TAP	60	96	0
TAP	60	192	7
TAP	60	288	6
HLD	61	0	6	384
TAP	61	96	7
TAP	61	192	0
TAP	61	288	1
HLD	62	0	2	384
TAP	62	96	0
TAP	62	192	7
TAP	62	288	6
HLD	63	0	6	384
TAP	63	96	4
TAP	63	192	3
TAP	63	288	2
HLD	64	0	2	384
TAP	64	96	3
TAP	64	192	4
TAP	64	288	5
HLD	65	0	6	384
TAP	65	96	7
TAP	65	192	0
TAP	65	288	1
HLD	66	0	2	384
TAP	66	96	0
TAP	66	192	7
TAP	66	288	6
HLD	67	0	6	384
TAP	67	96	4
TAP	67	192	3
TAP	67	288	2
HLD	68	0	2	384
TAP	68	96	3
TAP	68	192	4
TAP	68	288	5
HLD	69	0	6	384
TAP	69	96	7
TAP	69	192	0
TAP	69	288	1
HLD	70	0	2	288
TAP	70	96	0
TAP	70	192	7
TAP	70	288	6
TAP	71	0	3
TAP	71	0	5
TAP	71	96	2
TAP	71	144	2
TAP	71	192	4
TAP	71	240	4
TAP	71	288	1
TAP	72	0	0
TAP	72	0	3
TAP	72	96	5
TAP	72	144	5
TAP	72	192	3
TAP	72	240	3
TAP	72	288	6
TAP	73	0	4
TAP	73	0	7
TAP	73	96	2
TAP	73	144	2
TAP	73	192	5
TAP	73	240	5
TAP	73	288	1
XHO	74	0	1	96
XHO	74	0	5	96
XHO	74	128	2	96
XHO	74	128	6	96
XTP	74	256	1
XTP	74	256	5
XTP	75	0	2
TAP	75	48	3
TAP	75	96	4
TAP	75	144	5
TAP	75	192	2
TAP	75	240	3
TAP	75	288	4
TAP	75	336	5
TAP	76	0	2
TAP	76	48	3
TAP	76	96	4
TAP	76	144	5
TAP	76	192	2
TAP	76	240	3
TAP	76	288	4
TAP	76	336	5
TAP	77	0	2
TAP	77	48	3
TAP	77	96	4
TAP	77	144	5
TAP	77	192	2
TAP	77	240	3
TAP	77	288	4
TAP	77	336	5
TAP	78	0	2
TAP	78	48	3
TAP	78	96	4
TAP	78	144	5
TAP	78	192	2
TAP	78	240	3
TAP	78	288	4
TAP	78	336	5
TTP	79	0	0	C	1	M1
STR	81	96	0
SCR	81	96	0	96	288	3
STR	82	288	4
SCR	82	288	4	96	288	7
STR	84	96	7
SCL	84	96	7	96	288	4
STR	85	288	3
SCL	85	288	3	96	288	0
STR	87	96	0
SCR	87	96	0	96	288	3
STR	88	288	4
SCR	88	288	4	96	288	7
STR	90	96	0
SCR	90	96	0	96	288	3
TAP	91	288	4
TAP	92	0	5
TAP	92	32	3
TAP	92	64	5
TAP	92	96	3
TAP	92	192	2
TAP	92	192	6
TAP	93	96	3
TAP	93	192	2
TAP	93	224	4
TAP	93	256	2
TAP	93	288	4
TAP	94	0	1
TAP	94	0	5
TAP	94	288	4
TAP	95	0	5
TAP	95	32	3
TAP	95	64	5
TAP	95	96	3
TAP	95	192	2
TAP	95	192	6
TAP	96	96	3
TAP	96	192	2
TAP	96	224	4
TAP	96	256	2
TAP	96	288	4
TAP	97	0	1
TAP	97	0	5
TAP	97	192	2
TAP	97	288	3
TAP	97	288	5
TAP	98	0	6
TAP	98	32	4
TAP	98	64	6
TAP	98	96	4
TAP	98	192	3
TAP	98	192	7
TAP	99	0	5
TAP	99	96	2
TAP	99	96	4
TAP	99	192	1
TAP	99	224	3
TAP	99	256	1
TAP	99	288	3
TAP	100	0	0
TAP	100	0	4
TAP	100	192	2
TAP	100	288	3
TAP	100	288	5
TAP	101	0	6
TAP	101	32	4
TAP	101	64	6
TAP	101	96	4
TAP	101	192	3
TAP	101	192	7
TAP	102	0	5
TAP	102	96	2
TAP	102	96	4
TAP	102	192	1
TAP	102	224	3
TAP	102	256	1
TAP	102	288	3
TAP	103	0	0
TAP	103	0	4
TAP	103	192	2
TAP	103	192	5
XTP	103	288	6
TAP	103	336	5
TAP	104	0	4
XTP	104	48	3
TAP	104	96	2
TAP	104	144	1
XTP	104	192	6
TAP	104	240	5
TAP	104	288	4
TAP	104	336	3
TAP	105	0	2
TAP	105	48	1
TAP	105	96	6
TAP	105	144	5
TAP	105	192	4
TAP	105	240	3
TAP	105	288	2
TAP	105	336	1
TTP	106	0	7	E	0	M1
TTP	106	48	6	E	0	M1
TTP	106	96	5	E	0	M1
TTP	106	144	3	E	0	M1
TTP	106	192	2	E	0	M1
TTP	106	240	1	E	0	M1
XTP	106	288	6
TAP	106	336	5
TAP	107	0	4
XTP	107	48	3
TAP	107	96	2
TAP	107	144	1
XTP	107	192	6
TAP	107	240	5
TAP	107	288	4
XTP	107	336	3
TAP	108	0	2
TAP	108	48	1
XTP	108	96	6
TAP	108	144	5
TAP	108	192	4
TAP	108	240	3
TAP	108	288	2
TAP	108	336	1
TTP	109	0	7	E	0	M1
TTP	109	48	6	E	0	M1
TTP	109	96	5	E	0	M1
TTP	109	144	3	E	0	M1
TTP	109	192	2	E	0	M1
TTP	109	240	1	E	0	M1
XTP	109	288	5
TAP	109	336	6
TAP	110	0	7
XTP	110	48	0
TAP	110	96	1
TAP	110	144	2
XTP	110	192	5
TAP	110	240	6
TAP	110	288	7
TAP	110	336	0
TAP	111	0	1
TAP	111	48	2
TAP	111	96	5
TAP	111	144	6
TAP	111	192	7
TAP	111	240	0
TAP	111	288	1
TAP	111	336	2
TTP	112	0	5	E	0	M1
TTP	112	48	6	E	0	M1
TTP	112	96	7	E	0	M1
TTP	112	144	1	E	0	M1
TTP	112	192	2	E	0	M1
TTP	112	240	3	E	0	M1
XTP	112	288	5
TAP	112	336	6
TAP	113	0	7
XTP	113	48	0
TAP	113	96	1
TAP	113	144	2
XTP	113	192	5
TAP	113	240	6
TAP	113	288	7
TAP	113	336	0
XTP	114	0	1
TAP	114	48	2
XTP	114	96	5
TAP	114	144	6
XTP	114	192	7
TAP	114	240	0
XTP	114	288	1
TAP	114	336	2
TTP	115	0	5	E	0	M1
TTP	115	48	6	E	0	M1
TTP	115	96	7	E	0	M1
TTP	115	144	1	E	0	M1
TTP	115	192	2	E	0	M1
TTP	115	240	3	E	0	M1
TTP	115	288	0	C	1	M1
STR	116	144	7
SCL	116	144	7	96	240	4
STR	117	48	0
SCR	117	48	0	96	240	3
HLD	117	336	7	336
BRK	118	288	0
TAP	119	0	1
TAP	119	48	1
TAP	119	96	3
TAP	119	144	3
TAP	119	192	2
TAP	119	288	1
TAP	119	288	7
TAP	120	0	4
TAP	120	0	6
TAP	120	96	2
TAP	120	144	2
TAP	120	192	5
TAP	120	240	5
TAP	120	288	3
TAP	121	0	6
TAP	121	48	6
TAP	121	96	4
TAP	121	144	4
TAP	121	192	5
TAP	121	288	0
TAP	121	288	6
TAP	122	0	1
TAP	122	0	3
TAP	122	96	5
TAP	122	144	4
TAP	122	192	3
TAP	122	240	2
HLD	122	288	2	96
TAP	123	0	4
TAP	123	96	5
TAP	123	144	4
TAP	123	192	3
TAP	123	240	2
HLD	123	288	2	96
TAP	124	0	4
TAP	124	96	5
TAP	124	144	4
TAP	124	192	3
TAP	124	240	2
HLD	124	288	2	96
TAP	125	0	3
HLD	125	48	4	96
TAP	125	144	2
HLD	125	192	1	96
TAP	125	288	6
HLD	125	336	7	96
TAP	126	48	0
STR	126	96	0
SI_	126	96	0	96	96	4
XTP	126	192	5
BRK	127	0	2
BRK	127	0	6
TAP	127	96	7
TAP	127	144	7
TAP	127	192	0
TAP	127	288	3
TAP	127	288	4
TAP	128	0	2
TAP	128	0	5
TAP	128	96	6
TAP	128	144	6
TAP	128	192	1
TAP	128	240	1
TAP	128	288	7
TAP	129	0	2
TAP	129	48	2
TAP	129	96	0
TAP	129	144	0
TAP	129	192	1
TAP	129	288	2
TAP	129	288	4
TAP	130	0	0
TAP	130	0	6
TAP	130	96	1
TAP	130	144	0
TAP	130	192	7
TAP	130	240	6
HLD	130	288	6	96
TAP	131	0	0
TAP	131	96	1
TAP	131	144	0
TAP	131	192	7
TAP	131	240	6
HLD	131	288	6	96
TAP	132	0	0
TAP	132	96	1
TAP	132	144	0
TAP	132	192	7
TAP	132	240	6
HLD	132	288	6	96
TAP	133	0	7
HLD	133	48	0	96
TAP	133	144	6
HLD	133	192	5	96
TAP	133	288	2
HLD	133	336	3	96
TAP	134	48	4
STR	134	96	4
SCR	134	96	4	96	480	3
TTP	134	192	0	C	1	M1
HLD	135	288	0	768
TTP	136	288	6	E	0	M1
TTP	136	320	5	B	0	M1
TTP	136	352	4	B	0	M1
TTP	137	0	3	B	0	M1
TTP	137	32	2	B	0	M1
TTP	137	64	2	E	0	M1
TAP	137	288	6
TAP	138	0	7
HLD	138	96	7	576
TTP	138	288	2	E	0	M1
TTP	138	320	2	B	0	M1
TTP	138	352	3	B	0	M1
TTP	139	0	4	B	0	M1
TTP	139	32	5	B	0	M1
TTP	139	64	6	E	0	M1
TAP	139	288	1
TAP	140	0	0
HLD	140	96	0	576
TTP	140	288	6	E	0	M1
TTP	140	320	5	B	0	M1
TTP	140	352	4	B	0	M1
TTP	141	0	3	B	0	M1
TTP	141	32	2	B	0	M1
TTP	141	64	2	E	0	M1
TTP	141	288	6	E	0	M1
TTP	141	320	5	B	0	M1
TTP	141	352	4	B	0	M1
TTP	142	0	3	B	0	M1
TTP	142	32	2	B	0	M1
TTP	142	64	2	E	0	M1
TTP	142	288	6	E	0	M1
TTP	142	320	5	B	0	M1
TTP	142	352	4	B	0	M1
TTP	143	0	3	B	0	M1
TTP	143	32	2	B	0	M1
TTP	143	64	2	E	0	M1
TTP	143	288	6	E	0	M1
TTP	143	320	5	B	0	M1
TTP	143	352	4	B	0	M1
TTP	144	0	3	B	0	M1
TTP	144	32	2	B	0	M1
TTP	144	64	2	E	0	M1
STR	144	288	7
SI_	144	288	7	96	96	3
TAP	145	0	2
TAP	145	48	2
TAP	145	144	1
STR	145	192	1
SI_	145	192	1	96	96	5
TAP	145	288	6
TAP	146	0	7
TAP	146	48	7
TAP	146	96	0
TAP	146	144	0
TAP	146	192	5
TAP	146	240	5
TAP	146	288	3
TAP	146	336	3
TAP	146	336	4
TAP	147	48	1
TAP	147	96	1
TAP	147	144	2
TAP	147	192	3
TAP	147	192	4
TAP	147	288	6
TAP	147	336	6
TAP	148	0	5
TAP	148	48	3
TAP	148	48	4
TAP	148	144	2
TAP	148	192	3
TAP	148	240	1
TAP	148	288	5
TAP	148	336	4
TAP	149	0	6
TAP	149	48	1
TAP	149	96	3
TAP	149	144	0
TAP	149	192	6
TAP	149	240	4
TAP	149	288	7
TAP	149	336	7
TAP	150	0	2
TAP	150	48	2
TAP	150	96	3
TAP	150	144	3
TAP	150	192	4
TAP	150	240	4
TAP	150	288	5
TAP	150	336	5
TAP	151	0	4
TAP	151	48	3
TAP	151	96	2
TAP	151	144	5
XTP	151	192	1
XTP	151	192	6
XTP	151	240	1
XTP	151	240	6
XTP	151	288	1
XTP	151	288	6
TTP	152	0	3	E	0	M1
TTP	152	48	5	E	0	M1
TTP	152	96	2	E	0	M1
TTP	152	144	6	E	0	M1
TTP	152	192	1	E	0	M1
TTP	152	240	7	E	0	M1
TTP	152	288	3	B	0	M1
TTP	152	336	4	B	0	M1
TTP	153	0	2	B	0	M1
TTP	153	48	5	B	0	M1
TTP	153	96	1	B	0	M1
TTP	153	144	6	B	0	M1
TTP	153	192	3	E	0	M1
TTP	153	240	5	E	0	M1
TTP	153	288	1	E	0	M1
TTP	153	336	7	E	0	M1
TAP	154	96	2
TAP	154	96	3
TAP	154	144	2
TAP	154	144	3
TAP	154	192	3
TAP	154	192	4
TAP	154	240	3
TAP	154	240	4
TAP	154	288	4
TAP	154	288	5
TAP	154	336	4
TAP	154	336	5
TAP	155	96	5
TAP	155	144	4
TAP	155	192	3
TAP	155	240	2
STR	155	288	2
SCL	155	288	2	96	1344	3
TTP	156	0	0	C	1	M1
BRK	160	0	0
BRK	160	0	7
BRK	160	48	0
BRK	160	48	7

T_REC_TAP	509
T_REC_BRK	11
T_REC_XTP	42
T_REC_HLD	46
T_REC_XHO	4
T_REC_STR	21
T_REC_BST	0
T_REC_XST	2
T_REC_TTP	89
T_REC_THO	0
T_REC_SLD	23
T_REC_ALL	747
T_NUM_TAP	663
T_NUM_BRK	11
T_NUM_HLD	50
T_NUM_SLD	23
T_NUM_ALL	747
T_JUDGE_TAP	674
T_JUDGE_HLD	126
T_JUDGE_SLD	23
T_JUDGE_ALL	823
TTM_EACHPAIRS	74
TTM_SCR_TAP	331500
TTM_SCR_BRK	28600
TTM_SCR_HLD	50000
TTM_SCR_SLD	34500
TTM_SCR_ALL	444600
TTM_SCR_S	430200
TTM_SCR_SS	443500
TTM_RAT_ACV	10024

