VERSION	0.00.00	1.03.00
FES_MODE	0
BPM_DEF	252.000	252.000	252.000	189.000
MET_DEF	4	4
RESOLUTION	384
CLK_DEF	384
COMPATIBLE_CODE	MA2

BPM	0	0	252.000
BPM	79	0	189.000
BPM	115	288	252.000
MET	0	0	4	4
MET	79	0	4	3
MET	115	288	4	12
MET	118	288	4	4
MET	144	288	8	5
MET	146	0	8	9
MET	147	48	8	5
MET	148	144	8	9
MET	149	192	4	2
MET	150	0	4	4

TAP	5	0	2
TAP	6	0	3
TAP	7	0	4
STR	8	0	5
SCR	8	0	5	96	864	3
TAP	11	0	5
TAP	12	0	4
TAP	13	0	3
STR	14	0	2
SCL	14	0	2	96	864	4
HLD	17	0	5	384
HLD	18	0	4	384
HLD	19	0	3	384
TAP	20	0	2
HLD	21	0	1	384
HLD	22	0	0	384
HLD	23	0	7	384
TAP	24	0	6
BRK	24	192	4
BRK	24	192	5
TAP	25	0	2
TAP	25	96	2
TAP	25	192	2
TAP	25	192	3
TAP	26	0	5
TAP	26	96	5
TAP	26	192	4
TAP	26	192	5
TAP	27	0	2
TAP	27	96	2
TAP	27	192	2
TAP	27	192	3
TAP	28	0	4
TAP	28	96	4
TAP	28	192	3
TAP	28	192	5
TAP	29	0	6
TAP	29	96	6
TAP	29	192	6
TAP	29	192	7
TAP	30	0	1
TAP	30	96	1
TAP	30	192	0
TAP	30	192	1
TAP	31	0	6
TAP	31	96	6
TAP	31	192	6
TAP	31	192	7
TAP	32	0	0
TAP	32	96	0
TAP	32	192	0
TAP	32	192	7
TAP	33	0	1
TAP	33	96	1
TAP	33	192	0
TAP	33	288	0
TAP	34	0	7
TAP	34	96	7
TAP	34	192	0
TAP	34	192	6
TAP	35	0	5
TAP	35	96	5
TAP	35	192	4
TAP	35	288	4
TAP	36	0	3
TAP	36	96	3
TAP	36	192	2
TAP	36	192	4
TAP	37	0	2
TAP	37	96	2
TAP	37	192	3
TAP	37	288	3
TAP	38	0	4
TAP	38	96	4
TAP	38	192	3
TAP	38	192	5
TAP	39	0	6
TAP	39	96	6
TAP	39	192	7
TAP	39	288	7
TAP	40	0	0
TAP	40	96	0
TAP	40	192	0
TAP	40	192	7
HLD	41	0	1	192
TAP	41	192	0
HLD	42	0	6	192
TAP	42	192	7
HLD	43	0	1	192
TAP	43	192	0
HLD	44	0	6	96
HLD	44	0	7	96
TAP	44	192	6
TAP	44	192	7
HLD	45	0	5	192
TAP	45	192	4
HLD	46	0	2	192
TAP	46	192	3
HLD	47	0	5	192
TAP	47	192	4
HLD	48	0	2	192
HLD	48	192	3	192
HLD	49	0	4	192
TAP	49	192	5
TAP	50	0	4
TAP	50	0	5
TAP	50	96	4
TAP	50	96	5
TAP	50	192	6
STR	50	288	6
SCR	50	288	6	96	576	4
XTP	53	0	3
XTP	53	0	4
TAP	53	96	3
TAP	53	96	4
TAP	53	192	2
TAP	53	192	5
TAP	53	288	2
TAP	53	288	5
BRK	54	0	1
BRK	54	0	6
XST	55	0	5
SI_	55	0	5	96	192	0
STR	56	0	1
SI_	56	0	1	96	192	5
STR	57	0	6
SI_	57	0	6	96	192	2
TAP	58	0	1
TAP	58	96	1
TAP	58	192	0
TAP	58	192	1
STR	59	0	7
SI_	59	0	7	96	192	3
STR	60	0	2
SI_	60	0	2	96	192	7
STR	61	0	6
SI_	61	0	6	96	192	3
TAP	62	0	2
TAP	62	96	2
TAP	62	192	3
TAP	62	192	4
STR	63	0	5
SCR	63	0	5	96	192	0
STR	64	0	1
SCR	64	0	1	96	192	4
TAP	65	0	5
TAP	65	192	4
TAP	65	192	5
TAP	66	0	2
TAP	66	192	2
TAP	66	192	3
STR	67	0	4
SCR	67	0	4	96	192	7
STR	68	0	0
SCR	68	0	0	96	192	3
TAP	69	0	4
TAP	69	192	3
TAP	69	192	4
TAP	70	0	3
TAP	70	192	3
TAP	70	192	4
XHO	71	0	5	384
HLD	72	0	4	384
HLD	73	0	3	384
TAP	74	0	2
XTP	74	192	1
XTP	74	192	4
THO	75	0	0	1536	C	1	L1
TTP	81	96	4	E	0	L1
TTP	82	0	5	E	0	L1
TTP	82	288	6	E	0	L1
TTP	83	192	7	E	0	L1
TTP	84	96	0	E	0	L1
TTP	85	0	1	E	0	L1
XST	85	288	2
SUL	85	288	2	96	384	4
TTP	88	0	5	E	0	L1
TTP	88	288	6	E	0	L1
TTP	89	192	7	E	0	L1
XST	90	96	7
SUR	90	96	7	96	384	4
HLD	91	288	5	192
TAP	92	96	4
TAP	92	192	4
TAP	92	192	5
TAP	93	0	6
TAP	93	0	7
STR	93	96	6
SUL	93	96	6	96	384	3
TAP	93	96	7
HLD	94	288	2	192
TAP	95	96	3
TAP	95	192	2
TAP	95	192	3
TAP	96	0	0
TAP	96	0	1
TAP	96	96	0
STR	96	96	1
SUR	96	96	1	96	384	4
HLD	97	288	5	192
TAP	98	96	4
TAP	98	192	4
TAP	98	192	5
TAP	99	0	3
TAP	99	0	4
TAP	99	96	3
TAP	99	96	4
TAP	99	288	2
TAP	99	288	3
HLD	100	0	2	288
TAP	100	0	3
HLD	100	288	3	288
HLD	101	192	4	288
HLD	102	96	5	192
TAP	102	288	4
TAP	103	0	4
TAP	103	0	5
STR	103	288	6
SXR	103	288	6	96	288	3
STR	105	96	2
SXR	105	96	2	96	288	7
STR	106	288	6
SUL	106	288	6	96	288	3
TAP	108	96	2
XTP	109	0	3
XTP	109	0	4
STR	109	288	5
SXL	109	288	5	96	288	0
STR	111	96	1
SXL	111	96	1	96	288	4
XTP	112	288	4
XTP	112	288	5
XTP	113	192	2
XTP	113	192	3
XTP	114	0	3
XTP	114	0	4
XTP	114	96	3
XTP	114	96	4
TAP	114	192	2
TAP	114	192	5
TAP	114	288	1
TAP	114	288	6
TAP	115	0	0
TAP	115	48	0
TAP	115	96	7
TAP	115	144	7
XTP	115	192	0
XTP	115	192	7
BST	115	288	1
SXL	115	288	1	96	576	0
BST	115	288	6
SXR	115	288	6	96	576	7
TAP	118	288	6
TAP	119	0	6
TAP	119	96	6
TAP	119	96	7
TAP	119	192	6
TAP	119	192	7
TAP	119	288	5
TAP	120	0	4
TAP	120	96	3
TAP	120	96	5
TAP	120	288	2
TAP	121	0	2
TAP	121	96	2
TAP	121	96	3
TAP	121	192	2
TAP	121	192	3
TAP	121	288	1
TAP	122	0	0
TAP	122	96	0
TAP	122	96	7
TAP	122	288	1
TAP	123	0	1
TAP	123	96	0
TAP	123	96	1
TAP	123	288	6
TAP	124	0	6
TAP	124	96	6
TAP	124	96	7
TAP	124	288	5
XTP	125	0	4
XTP	125	0	5
TAP	125	96	2
XTP	125	192	2
XTP	125	192	3
TAP	125	288	4
XTP	126	0	3
XTP	126	0	4
TAP	126	96	2
TAP	126	96	5
TAP	126	288	1
BRK	127	0	1
TAP	127	96	0
TAP	127	96	1
TAP	127	192	0
TAP	127	192	1
TAP	127	288	2
TAP	128	0	3
TAP	128	96	2
TAP	128	96	4
TAP	128	288	5
TAP	129	0	5
TAP	129	96	4
TAP	129	96	5
TAP	129	192	4
TAP	129	192	5
TAP	129	288	6
TAP	130	0	7
TAP	130	96	0
TAP	130	96	7
TAP	130	288	6
TAP	131	0	6
TAP	131	96	6
TAP	131	96	7
TAP	131	288	1
TAP	132	0	1
TAP	132	96	0
TAP	132	96	1
TAP	132	288	2
XTP	133	0	2
XTP	133	0	3
TAP	133	96	5
XTP	133	192	4
XTP	133	192	5
TAP	133	288	3
XTP	134	0	2
XTP	134	0	5
STR	134	96	1
SLR	134	96	1	96	480	7
STR	134	96	6
SLL	134	96	6	96	480	0
STR	136	288	0
SXL	136	288	0	96	480	3
STR	138	288	4
SXL	138	288	4	96	480	7
STR	140	288	0
SCR	140	288	0	96	192	3
STR	141	288	4
SCR	141	288	4	96	192	7
STR	142	288	0
SCR	142	288	0	96	192	3
TAP	143	288	4
TTP	144	288	4	E	0	L1
TTP	145	96	3	E	0	L1
TTP	145	288	2	E	0	L1
TTP	146	96	1	E	0	L1
TTP	146	288	0	E	0	L1
TTP	147	96	7	E	0	L1
TTP	147	288	6	E	0	L1
TTP	148	96	5	E	0	L1
XTP	148	288	5
XTP	149	0	5
TAP	149	96	6
TAP	149	192	6
TAP	149	288	7
TAP	150	0	7
TAP	150	96	0
TAP	150	192	0
TAP	150	288	1
TAP	151	0	1
TAP	151	96	2
TAP	151	192	2
XST	151	288	3
SCL	151	288	3	96	672	4
TAP	154	96	3
TAP	154	96	4
TAP	154	192	2
TAP	154	192	5
STR	154	288	1
SI_	154	288	1	96	144	3
STR	154	288	6
SI_	154	288	6	96	144	4
THO	156	0	0	1056	C	0	L1
XTP	160	0	0
XTP	160	0	7
XTP	160	48	0
XTP	160	48	7

T_REC_TAP	225
T_REC_BRK	5
T_REC_XTP	34
T_REC_HLD	26
T_REC_XHO	1
T_REC_STR	28
T_REC_BST	2
T_REC_XST	4
T_REC_TTP	17
T_REC_THO	2
T_REC_SLD	34
T_REC_ALL	378
T_NUM_TAP	308
T_NUM_BRK	7
T_NUM_HLD	29
T_NUM_SLD	34
T_NUM_ALL	378
T_JUDGE_TAP	315
T_JUDGE_HLD	117
T_JUDGE_SLD	34
T_JUDGE_ALL	466
TTM_EACHPAIRS	79
TTM_SCR_TAP	154000
TTM_SCR_BRK	18200
TTM_SCR_HLD	29000
TTM_SCR_SLD	51000
TTM_SCR_ALL	252200
TTM_SCR_S	244000
TTM_SCR_SS	251500
TTM_RAT_ACV	10027

