VERSION	0.00.00	1.03.00
FES_MODE	0
BPM_DEF	252.000	252.000	252.000	189.000
MET_DEF	4	4
RESOLUTION	384
CLK_DEF	384
COMPATIBLE_CODE	MA2

BPM	0	0	252.000
BPM	79	0	189.000
BPM	115	288	252.000
MET	0	0	4	4
MET	79	0	4	3
MET	115	288	4	12
MET	118	288	4	4
MET	144	288	8	5
MET	146	0	8	9
MET	147	48	8	5
MET	148	144	8	9
MET	149	192	4	2
MET	150	0	4	4

HLD	5	0	0	1920
HLD	11	0	7	1920
TAP	17	0	6
TAP	18	0	6
TAP	19	0	7
TAP	20	0	7
TAP	21	0	0
TAP	22	0	0
TAP	23	0	1
TAP	24	0	1
TAP	25	0	0
TAP	25	192	0
TAP	26	0	0
TAP	27	0	1
TAP	27	192	1
TAP	28	0	1
TAP	29	0	2
TAP	29	192	2
TAP	30	0	2
TAP	31	0	3
TAP	31	0	4
TAP	32	0	3
TAP	32	0	4
TAP	33	0	4
TAP	33	192	4
TAP	34	0	4
TAP	35	0	5
TAP	35	192	5
TAP	36	0	5
TAP	37	0	6
TAP	37	192	6
TAP	38	0	6
TAP	39	0	0
TAP	39	0	7
TAP	40	0	0
TAP	40	0	7
HLD	41	0	6	384
HLD	41	0	7	384
HLD	43	0	4	384
HLD	43	0	5	384
HLD	45	0	2	384
HLD	45	0	3	384
HLD	47	0	0	384
HLD	47	0	1	384
HLD	49	0	0	816
HLD	49	0	7	816
XTP	53	0	0
XTP	53	0	7
XTP	53	192	0
XTP	53	192	7
XTP	54	0	0
XTP	54	0	7
STR	55	0	0
SI_	55	0	0	96	480	3
TAP	58	0	4
TAP	58	192	4
STR	59	0	4
SI_	59	0	4	96	480	7
TAP	62	0	0
TAP	62	192	0
STR	63	0	0
SI_	63	0	0	96	480	4
TAP	66	0	5
TAP	66	192	5
STR	67	0	5
SI_	67	0	5	96	480	1
TAP	70	0	0
TAP	70	0	7
TAP	70	192	0
TAP	70	192	7
STR	71	0	0
SI_	71	0	0	96	480	3
STR	71	0	7
SI_	71	0	7	96	480	4
TAP	74	0	3
TAP	74	0	4
THO	75	0	0	1536	C	1	L1
TTP	81	96	7	B	0	L1
TTP	82	0	6	B	0	L1
TTP	82	288	5	B	0	L1
TTP	83	192	4	B	0	L1
TTP	84	96	3	B	0	L1
TTP	85	0	2	B	0	L1
TTP	85	288	1	B	0	L1
TTP	86	192	0	B	0	L1
TTP	87	96	0	E	0	L1
TTP	88	0	1	E	0	L1
TTP	88	288	2	E	0	L1
TTP	89	192	3	E	0	L1
TTP	90	96	4	E	0	L1
TTP	91	0	0	C	0	L1
HLD	91	288	7	288
XTP	93	96	7
TAP	94	0	7
HLD	94	288	6	288
TAP	96	96	6
TAP	97	0	6
HLD	97	288	5	288
TAP	99	96	5
TAP	100	0	5
HLD	100	288	3	288
HLD	100	288	4	288
TAP	102	96	3
TAP	102	96	4
TAP	103	0	3
TAP	103	0	4
TAP	103	288	2
TAP	104	192	2
HLD	105	96	2	288
TAP	106	288	1
TAP	107	192	1
HLD	108	96	1	288
TAP	109	288	0
TAP	110	192	0
HLD	111	96	0	288
TAP	112	288	7
TAP	113	192	7
XTP	114	96	0
XTP	114	96	7
XTP	115	0	0
XTP	115	0	7
HLD	115	288	0	816
HLD	115	288	7	816
BRK	118	288	0
TAP	119	0	0
TAP	119	96	0
TAP	119	288	1
TAP	120	0	1
TAP	120	96	1
TAP	120	288	2
TAP	121	0	2
TAP	121	96	2
TAP	121	288	3
TAP	121	288	4
TAP	122	96	3
TAP	122	96	4
TAP	122	288	4
TAP	123	0	4
TAP	123	96	4
TAP	123	288	5
TAP	124	0	5
TAP	124	96	5
HLD	124	288	6	192
HLD	124	288	7	192
TAP	125	288	6
TAP	125	288	7
TAP	126	96	6
TAP	126	96	7
TAP	126	288	0
TAP	127	0	0
TAP	127	96	0
TAP	127	288	7
TAP	128	0	7
TAP	128	96	7
TAP	128	288	6
TAP	129	0	6
TAP	129	96	6
TAP	129	288	4
TAP	129	288	5
TAP	130	96	4
TAP	130	96	5
TAP	130	288	3
TAP	131	0	3
TAP	131	96	3
TAP	131	288	2
TAP	132	0	2
TAP	132	96	2
HLD	132	288	0	384
HLD	132	288	1	384
XHO	134	288	6	384
XHO	134	288	7	384
STR	136	288	0
SI_	136	288	0	96	480	5
TAP	139	288	7
TAP	140	96	7
STR	140	288	7
SI_	140	288	7	96	480	2
BRK	143	288	1
XTP	144	288	0
XTP	145	0	0
XTP	145	96	1
XTP	145	192	1
XTP	145	288	2
XTP	146	0	2
XTP	146	96	3
XTP	146	192	3
XTP	146	288	3
XTP	146	288	4
XHO	147	48	4	240
XHO	147	48	5	240
XHO	148	144	2	240
XHO	148	144	3	240
XTP	149	288	4
XTP	150	0	4
XTP	150	96	5
XTP	150	192	5
XTP	150	288	6
XTP	151	0	6
XTP	151	96	7
XTP	151	192	7
XHO	151	288	0	768
TAP	154	96	0
TAP	154	96	7
TAP	154	192	0
TAP	154	192	7
TAP	154	288	0
TAP	154	288	7
THO	156	0	0	1536	C	1	L1

T_REC_TAP	112
T_REC_BRK	2
T_REC_XTP	29
T_REC_HLD	26
T_REC_XHO	7
T_REC_STR	8
T_REC_BST	0
T_REC_XST	0
T_REC_TTP	14
T_REC_THO	2
T_REC_SLD	8
T_REC_ALL	208
T_NUM_TAP	163
T_NUM_BRK	2
T_NUM_HLD	35
T_NUM_SLD	8
T_NUM_ALL	208
T_JUDGE_TAP	165
T_JUDGE_HLD	228
T_JUDGE_SLD	8
T_JUDGE_ALL	401
TTM_EACHPAIRS	37
TTM_SCR_TAP	81500
TTM_SCR_BRK	5200
TTM_SCR_HLD	35000
TTM_SCR_SLD	12000
TTM_SCR_ALL	133700
TTM_SCR_S	129500
TTM_SCR_SS	133500
TTM_RAT_ACV	10014

