VERSION	0.00.00	1.03.00
FES_MODE	0
BPM_DEF	140.000	140.000	140.000	140.000
MET_DEF	4	4
RESOLUTION	384
CLK_DEF	384
COMPATIBLE_CODE	MA2

BPM	0	0	140.000
MET	0	0	4	4

TAP	2	288	3
TAP	2	312	4
TAP	2	336	3
TAP	2	360	4
BST	3	0	2
SI_	3	0	2	96	36	0
SI_	3	0	2	96	36	6
XTP	3	96	2
STR	3	192	2
SI_	3	192	2	96	36	5
SI_	3	192	2	96	36	7
XTP	3	288	2
STR	4	0	2
SI_	4	0	2	96	36	4
SI_	4	0	2	96	36	6
XTP	4	96	2
TAP	4	192	1
TAP	4	240	0
TAP	4	288	2
TAP	4	288	7
STR	5	0	5
SI_	5	0	5	96	36	1
SI_	5	0	5	96	36	7
XTP	5	96	5
STR	5	192	5
SI_	5	192	5	96	36	0
SI_	5	192	5	96	36	2
XTP	5	288	5
STR	6	0	5
SI_	6	0	5	96	36	1
SI_	6	0	5	96	36	3
XTP	6	96	5
TAP	6	192	6
TAP	6	240	7
TAP	6	288	0
TAP	6	288	5
HLD	7	0	2	96
TAP	7	48	4
HLD	7	96	4	96
TAP	7	144	3
HLD	7	192	3	96
TAP	7	240	5
HLD	7	288	5	336
TAP	8	0	6
TAP	8	72	4
HLD	8	144	3	144
TAP	8	288	5
HLD	9	0	5	96
TAP	9	48	3
HLD	9	96	3	96
TAP	9	144	4
HLD	9	192	4	96
TAP	9	240	2
HLD	9	288	2	336
TAP	10	0	1
TAP	10	72	3
HLD	10	144	4	144
TAP	10	288	2
TAP	11	0	3
HLD	11	48	4	96
HLD	11	96	3	96
BRK	11	192	0
TAP	11	288	6
TAP	11	336	6
HLD	12	0	6	72
HLD	12	72	5	72
HLD	12	144	4	240
TAP	12	240	2
TAP	12	288	1
HLD	12	336	0	96
HLD	13	48	6	240
HLD	13	96	2	192
TTP	14	0	5	E	0	M1
TTP	14	48	3	E	0	M1
TTP	14	96	4	E	0	M1
TTP	14	144	2	E	0	M1
TTP	14	168	2	B	0	M1
TTP	14	216	6	E	0	M1
TTP	14	240	5	B	0	M1
TAP	14	288	0
TAP	14	312	0
TAP	14	336	7
TAP	14	360	7
BST	15	0	2
SI_	15	0	2	96	36	0
SI_	15	0	2	96	36	7
STR	15	96	2
SI_	15	96	2	96	36	4
STR	15	192	2
SI_	15	192	2	96	36	6
SI_	15	192	2	96	36	7
TAP	15	192	6
STR	15	288	2
SI_	15	288	2	96	36	4
STR	16	0	2
SI_	16	0	2	96	36	5
SI_	16	0	2	96	36	6
TAP	16	0	5
TAP	16	96	2
TAP	16	192	7
TAP	16	240	0
TAP	16	288	1
TAP	16	288	3
XST	17	0	5
SI_	17	0	5	96	36	0
SI_	17	0	5	96	36	7
STR	17	96	5
SI_	17	96	5	96	36	3
TAP	17	192	1
STR	17	192	5
SI_	17	192	5	96	36	0
SI_	17	192	5	96	36	1
STR	17	288	5
SI_	17	288	5	96	36	3
TAP	18	0	2
STR	18	0	5
SI_	18	0	5	96	36	1
SI_	18	0	5	96	36	2
TAP	18	96	5
TAP	18	192	0
TAP	18	240	7
TAP	18	288	4
TAP	18	288	6
XST	19	0	0
SI_	19	0	0	96	36	5
SI_	19	0	0	96	36	6
STR	19	96	0
SI_	19	96	0	96	36	2
STR	19	192	0
SI_	19	192	0	96	36	4
SI_	19	192	0	96	36	5
TAP	19	192	4
STR	19	288	0
SI_	19	288	0	96	36	2
STR	20	0	0
SI_	20	0	0	96	36	3
SI_	20	0	0	96	36	4
TAP	20	0	3
TAP	20	96	0
TAP	20	192	5
TAP	20	240	6
TAP	20	288	1
TAP	20	288	7
HLD	20	336	0	48
HLD	20	336	2	48
STR	21	48	5
SCL	21	48	5	96	144	2
STR	21	48	7
SUL	21	48	7	96	144	0
TAP	21	96	5
TAP	21	96	7
HLD	22	0	3	48
HLD	22	0	4	48
TAP	22	96	1
TAP	22	96	6
TAP	22	144	0
TAP	22	168	7
TAP	22	192	0
TAP	22	240	2
TAP	22	240	5
TAP	22	288	3
TAP	22	312	3
TAP	22	336	4
TAP	22	360	4
BRK	23	0	2
STR	23	96	1
SCR	23	96	1	96	192	4
STR	23	288	5
SCR	23	288	5	96	192	0
STR	24	96	4
SUR	24	96	4	96	192	1
STR	24	288	0
SCL	24	288	0	96	216	3
STR	24	336	0
SUL	24	336	0	96	168	1
STR	25	336	2
SCL	25	336	2	96	240	5
TTP	27	0	0	C	0	M1
STR	27	96	6
SCL	27	96	6	96	192	3
STR	27	288	2
SCL	27	288	2	96	192	7
STR	28	96	3
SUL	28	96	3	96	192	6
STR	28	288	7
SCR	28	288	7	96	216	4
STR	28	336	7
SUR	28	336	7	96	168	6
STR	29	288	0
SCL	29	288	0	96	288	2
STR	29	336	0
SUR	29	336	0	96	240	1
HLD	31	0	4	192
TAP	31	96	3
TAP	31	168	3
HLD	31	192	3	192
TAP	31	288	4
TAP	31	360	5
HLD	32	0	5	192
TAP	32	96	4
TAP	32	168	2
HLD	32	192	2	192
TAP	32	288	3
TAP	32	360	4
HLD	33	0	4	288
TTP	33	96	6	E	0	M1
TTP	33	144	7	E	0	M1
TTP	33	192	0	E	0	M1
TTP	33	240	1	E	0	M1
TTP	33	288	2	E	0	M1
STR	34	0	4
SI_	34	0	4	96	36	1
STR	34	96	3
SI_	34	96	3	96	36	6
STR	34	192	7
SF_	34	192	7	96	24	3
BRK	34	288	7
TTP	34	300	0	C	1	M1
TTP	34	306	2	B	0	M1
TTP	34	306	4	B	0	M1
TAP	35	0	6
TAP	35	0	7
HLD	35	48	5	48
HLD	35	48	7	48
TAP	35	120	5
TAP	35	120	7
TAP	35	168	0
TAP	35	168	7
TAP	35	192	0
TAP	35	192	7
HLD	35	240	0	48
HLD	35	240	2	48
TAP	35	312	0
TAP	35	312	2
TAP	35	360	3
TAP	35	360	4
TAP	36	0	3
TAP	36	0	4
HLD	36	48	4	48
HLD	36	48	6	48
TAP	36	120	4
TAP	36	120	6
TAP	36	168	3
TAP	36	168	4
TAP	36	192	3
TAP	36	192	4
HLD	36	240	1	48
HLD	36	240	3	48
TAP	36	312	1
TAP	36	312	3
TAP	36	360	0
STR	37	0	0
SI_	37	0	0	96	48	4
STR	37	48	5
SI_	37	48	5	96	48	7
HLD	37	192	4	48
TAP	37	240	0
HLD	37	264	3	48
TAP	37	312	7
STR	37	336	2
SXR	37	336	2	96	144	7
STR	38	48	3
SCR	38	48	3	96	48	6
TAP	38	240	4
TAP	38	240	5
TAP	38	288	3
TAP	38	336	1
HLD	38	336	2	48
TAP	39	48	2
HLD	39	48	4	48
TAP	39	96	3
HLD	39	144	5	48
TAP	39	144	6
HLD	39	240	3	48
TAP	39	240	5
TAP	39	288	4
TAP	39	336	1
HLD	39	336	2	48
TAP	40	48	2
STR	40	48	4
SCR	40	48	4	96	96	1
TAP	40	96	3
XTP	40	144	4
XHO	40	144	5	144
TAP	40	336	5
HLD	41	0	0	48
HLD	41	0	5	48
HLD	41	72	2	48
HLD	41	72	7	48
TAP	41	144	4
TAP	41	144	5
STR	41	240	2
SCL	41	240	2	96	144	5
STR	41	240	3
SUL	41	240	3	96	144	4
TAP	41	336	2
TAP	41	336	3
TAP	42	192	5
STR	42	240	4
SI_	42	240	4	96	36	0
TAP	42	288	3
TAP	42	336	2
BST	42	336	4
SCL	42	336	4	96	36	1
STR	43	48	4
SCR	43	48	4	96	36	7
TAP	43	48	7
TAP	43	144	1
STR	43	144	4
SCL	43	144	4	96	36	1
STR	43	240	4
SCR	43	240	4	96	144	3
TAP	43	240	7
XTP	43	336	1
XTP	43	336	4
BRK	44	96	0
TAP	44	192	2
STR	44	240	3
SI_	44	240	3	96	36	7
TAP	44	288	4
BST	44	336	3
SCR	44	336	3	96	36	6
TAP	44	336	5
TAP	45	48	0
STR	45	48	3
SCL	45	48	3	96	36	0
STR	45	144	3
SCR	45	144	3	96	36	6
TAP	45	144	6
TAP	45	240	0
STR	45	240	3
SCL	45	240	3	96	144	4
XTP	45	336	3
XTP	45	336	6
BRK	46	96	7
TAP	46	192	5
TAP	46	240	4
TAP	46	288	3
HLD	46	336	2	96
STR	47	48	1
SUR	47	48	1	96	48	6
TAP	47	96	0
TAP	47	144	7
TAP	47	240	7
TAP	47	288	0
HLD	47	336	1	96
STR	48	48	0
SXL	48	48	0	96	144	0
TAP	48	96	7
HLD	48	144	6	144
TAP	48	336	5
HLD	49	0	4	48
HLD	49	0	5	48
HLD	49	72	2	48
HLD	49	72	3	48
STR	49	144	0
SI_	49	144	0	96	36	5
STR	49	144	7
SI_	49	144	7	96	36	5
STR	49	240	0
SCR	49	240	0	96	168	7
STR	49	240	7
SUR	49	240	7	96	168	0
BRK	49	336	0
BRK	49	336	7
TAP	50	240	2
TAP	50	288	3
TAP	50	336	4
HLD	51	0	5	120
HLD	51	72	1	120
HLD	51	144	4	120
HLD	51	216	0	120
HLD	51	288	3	120
HLD	51	360	7	120
HLD	52	48	2	120
HLD	52	120	6	48
TTP	52	192	2	B	0	M1
TTP	52	192	6	B	0	M1
TTP	52	204	0	C	1	M1
TAP	52	288	1
TAP	52	312	7
TAP	52	336	1
TAP	52	360	7
BST	53	0	0
SCR	53	0	0	96	144	4
TAP	53	96	5
TAP	53	144	6
TAP	53	168	6
TAP	53	216	7
TAP	53	240	7
STR	53	288	0
SI_	53	288	0	96	36	4
XTP	54	0	0
XST	54	0	7
SCL	54	0	7	96	144	3
TAP	54	96	2
TAP	54	144	1
TAP	54	168	1
TAP	54	216	0
TAP	54	240	0
STR	54	288	7
SI_	54	288	7	96	36	3
XST	55	0	1
SCR	55	0	1	96	144	5
XTP	55	0	7
TAP	55	96	6
TAP	55	144	7
TAP	55	168	7
TAP	55	216	0
TAP	55	240	0
STR	55	288	1
SI_	55	288	1	96	36	4
XTP	56	0	1
XST	56	0	6
SCL	56	0	6	96	144	2
TAP	56	96	1
TAP	56	144	0
TAP	56	168	0
TAP	56	216	7
TAP	56	240	7
STR	56	288	6
SI_	56	288	6	96	36	3
XTP	57	0	1
XTP	57	0	6
TAP	57	96	2
TAP	57	120	4
TAP	57	144	2
TAP	57	168	4
TAP	57	192	1
TAP	57	216	5
TAP	57	240	1
TAP	57	264	5
TAP	57	288	0
TAP	57	312	6
TAP	57	336	0
TAP	57	360	6
TAP	58	0	7
TAP	58	24	5
TAP	58	48	7
TAP	58	72	5
TAP	58	96	0
TAP	58	120	6
TAP	58	144	0
TAP	58	168	6
TAP	58	192	1
TAP	58	216	7
TAP	58	240	1
TAP	58	264	7
TAP	58	288	2
TAP	58	312	0
TAP	58	336	2
TAP	58	360	0
TAP	59	0	1
TAP	59	16	2
TAP	59	32	3
TAP	59	48	7
TAP	59	64	6
TAP	59	80	5
TAP	59	96	0
TAP	59	112	1
TAP	59	128	2
TAP	59	144	6
TAP	59	160	5
TAP	59	176	4
TAP	59	192	1
TAP	59	208	2
TAP	59	224	3
TAP	59	240	7
TAP	59	256	6
TAP	59	272	5
TAP	59	288	0
TAP	59	304	1
TAP	59	320	2
TAP	59	336	6
TAP	59	352	5
TAP	59	368	4
THO	60	0	0	336	C	0	M1
TTP	60	336	0	B	0	M1
TTP	60	336	0	E	0	M1
TTP	60	336	7	B	0	M1
STR	61	96	5
SCR	61	96	5	96	192	0
TAP	61	144	5
STR	61	288	1
SCR	61	288	1	96	192	4
TAP	61	336	1
STR	62	96	0
SUR	62	96	0	96	192	5
TAP	62	144	0
STR	62	288	4
SCL	62	288	4	96	216	7
STR	62	336	4
SUL	62	336	4	96	168	5
STR	63	336	5
SCR	63	336	5	96	240	2
TTP	65	0	0	C	0	M1
STR	65	96	1
SCR	65	96	1	96	192	4
TAP	65	144	1
STR	65	288	5
SCR	65	288	5	96	192	0
TAP	65	336	5
STR	66	96	4
SUR	66	96	4	96	192	1
TAP	66	144	4
STR	66	288	0
SCL	66	288	0	96	216	3
STR	66	336	0
SUL	66	336	0	96	168	1
STR	67	288	7
SCR	67	288	7	96	288	5
STR	67	336	7
SUL	67	336	7	96	240	6
HLD	69	0	3	192
TTP	69	48	7	B	0	M1
TTP	69	96	6	B	0	M1
TTP	69	144	5	B	0	M1
HLD	69	192	4	192
TTP	69	240	0	B	0	M1
TTP	69	288	1	B	0	M1
TTP	69	336	2	B	0	M1
HLD	70	0	3	192
TTP	70	48	7	B	0	M1
TTP	70	96	6	B	0	M1
TTP	70	144	5	B	0	M1
HLD	70	192	4	192
TTP	70	240	0	B	0	M1
TTP	70	288	1	B	0	M1
TTP	70	336	2	B	0	M1
HLD	71	0	3	288
TTP	71	96	0	E	0	M1
TTP	71	108	7	E	0	M1
TTP	71	120	6	E	0	M1
TTP	71	132	5	E	0	M1
TTP	71	144	4	E	0	M1
TTP	71	156	3	E	0	M1
TTP	71	168	2	E	0	M1
TTP	71	180	1	E	0	M1
TTP	71	192	0	E	0	M1
TTP	71	204	7	E	0	M1
TTP	71	216	6	E	0	M1
TTP	71	228	5	E	0	M1
TTP	71	240	4	E	0	M1
TTP	71	252	3	E	0	M1
TTP	71	264	2	E	0	M1
TTP	71	276	1	E	0	M1
TTP	71	288	0	E	0	M1
STR	72	0	3
SI_	72	0	3	96	36	6
STR	72	96	4
SI_	72	96	4	96	36	1
STR	72	192	0
SF_	72	192	0	96	24	4
BRK	72	288	0
TTP	72	300	0	C	1	M1
TTP	72	306	3	B	0	M1
TTP	72	306	5	B	0	M1
TAP	73	0	0
TAP	73	0	1
HLD	73	48	0	48
HLD	73	48	2	48
TAP	73	120	0
TAP	73	120	2
TAP	73	168	0
TAP	73	168	7
TAP	73	192	0
TAP	73	192	7
HLD	73	240	5	48
HLD	73	240	7	48
TAP	73	312	5
TAP	73	312	7
TAP	73	360	3
TAP	73	360	4
TAP	74	0	3
TAP	74	0	4
HLD	74	48	1	48
HLD	74	48	3	48
TAP	74	120	1
TAP	74	120	3
TAP	74	168	3
TAP	74	168	4
TAP	74	192	3
TAP	74	192	4
HLD	74	240	4	48
HLD	74	240	6	48
TAP	74	312	4
TAP	74	312	6
TAP	74	360	7
STR	75	0	7
SI_	75	0	7	96	48	3
STR	75	48	2
SI_	75	48	2	96	48	0
TAP	75	96	7
TAP	75	144	2
HLD	75	192	3	48
TAP	75	240	7
HLD	75	264	4	48
TAP	75	312	0
STR	75	336	5
SXL	75	336	5	96	144	0
STR	76	48	4
SCL	76	48	4	96	48	1
TTP	76	144	0	C	1	M1
TAP	76	240	2
TAP	76	240	3
TAP	76	288	4
HLD	76	336	5	48
TAP	76	336	6
HLD	77	48	3	48
TAP	77	48	5
TAP	77	96	4
TAP	77	144	1
HLD	77	144	2	48
TAP	77	240	2
HLD	77	240	4	48
TAP	77	288	3
HLD	77	336	5	48
TAP	77	336	6
STR	78	48	3
SCL	78	48	3	96	96	6
TAP	78	48	5
TAP	78	96	4
XHO	78	144	2	144
XTP	78	144	3
TAP	78	336	2
HLD	79	0	2	48
HLD	79	0	7	48
HLD	79	72	0	48
HLD	79	72	5	48
TAP	79	144	2
TAP	79	144	3
STR	79	240	4
SUR	79	240	4	96	144	3
STR	79	240	5
SCR	79	240	5	96	144	2
TAP	79	336	4
TAP	79	336	5
TAP	80	192	2
TAP	80	240	1
STR	80	240	3
SI_	80	240	3	96	36	0
TAP	80	288	2
TAP	80	288	4
BST	80	336	3
SXL	80	336	3	96	36	5
TAP	80	336	5
TAP	81	48	1
STR	81	48	3
SXR	81	48	3	96	36	1
STR	81	144	3
SXL	81	144	3	96	36	5
TAP	81	144	6
TAP	81	240	0
STR	81	240	3
SXR	81	240	3	96	144	7
XTP	81	336	3
XTP	81	336	7
BRK	82	96	6
TAP	82	192	5
STR	82	240	4
SI_	82	240	4	96	36	7
TAP	82	240	6
TAP	82	288	3
TAP	82	288	5
TAP	82	336	2
BST	82	336	4
SXR	82	336	4	96	36	2
STR	83	48	4
SXL	83	48	4	96	36	6
TAP	83	48	6
TAP	83	144	1
STR	83	144	4
SXR	83	144	4	96	36	2
STR	83	240	4
SXL	83	240	4	96	144	0
TAP	83	240	7
XTP	83	336	0
XTP	83	336	4
BRK	84	96	1
TAP	84	192	1
TAP	84	240	2
TAP	84	240	3
TAP	84	288	3
TAP	84	288	4
TAP	84	336	4
HLD	84	336	5	96
STR	85	48	6
SUL	85	48	6	96	48	1
TAP	85	96	7
TAP	85	144	0
TAP	85	240	0
TAP	85	288	7
HLD	85	336	6	96
STR	86	48	7
SXR	86	48	7	96	144	7
TAP	86	96	0
HLD	86	144	1	144
TAP	86	336	2
HLD	87	0	2	48
HLD	87	0	3	48
HLD	87	72	4	48
HLD	87	72	5	48
STR	87	144	0
SI_	87	144	0	96	36	2
STR	87	144	7
SI_	87	144	7	96	36	2
STR	87	240	0
SUL	87	240	0	96	168	7
STR	87	240	7
SCL	87	240	7	96	168	0
BRK	87	336	0
BRK	87	336	7
TAP	88	240	5
TAP	88	288	4
TAP	88	336	3
HLD	89	0	2	120
HLD	89	72	6	120
HLD	89	144	3	120
HLD	89	216	7	120
HLD	89	288	4	120
HLD	89	360	0	120
HLD	90	48	5	120
HLD	90	120	1	48
TTP	90	192	1	B	0	M1
TTP	90	192	5	B	0	M1
TTP	90	204	0	C	1	M1
TAP	90	288	6
TAP	90	312	0
TAP	90	336	6
TAP	90	360	0
BST	91	0	7
SI_	91	0	7	96	36	3
SI_	91	0	7	96	36	5
STR	91	96	7
SI_	91	96	7	96	36	1
TAP	91	192	4
STR	91	192	7
SI_	91	192	7	96	36	2
SI_	91	192	7	96	36	4
STR	91	288	7
SI_	91	288	7	96	36	5
TAP	92	0	3
STR	92	0	7
SI_	92	0	7	96	36	1
SI_	92	0	7	96	36	3
TAP	92	96	7
TAP	92	192	4
TAP	92	240	5
HLD	92	288	6	96
TAP	92	288	7
XST	93	0	0
SI_	93	0	0	96	36	2
SI_	93	0	0	96	36	4
STR	93	96	0
SI_	93	96	0	96	36	6
STR	93	192	0
SI_	93	192	0	96	36	3
SI_	93	192	0	96	36	5
TAP	93	192	3
STR	93	288	0
SI_	93	288	0	96	36	2
STR	94	0	0
SI_	94	0	0	96	36	4
SI_	94	0	0	96	36	6
TAP	94	0	4
TAP	94	96	0
TAP	94	192	3
TAP	94	240	2
HLD	94	288	0	480
TAP	94	288	1
STR	95	0	2
SI_	95	0	2	96	24	4
TAP	95	48	2
STR	95	192	5
SI_	95	192	5	96	24	3
TAP	95	240	5
HLD	96	0	4	96
TAP	96	96	6
TAP	96	144	3
TAP	96	168	3
HLD	96	192	4	48
HLD	96	240	2	48
STR	96	288	5
SI_	96	288	5	96	432	1
STR	97	288	0
SSL	97	288	0	96	48	4

T_REC_TAP	319
T_REC_BRK	12
T_REC_XTP	21
T_REC_HLD	105
T_REC_XHO	2
T_REC_STR	109
T_REC_BST	8
T_REC_XST	6
T_REC_TTP	59
T_REC_THO	1
T_REC_SLD	144
T_REC_ALL	786
T_NUM_TAP	514
T_NUM_BRK	20
T_NUM_HLD	108
T_NUM_SLD	144
T_NUM_ALL	786
T_JUDGE_TAP	534
T_JUDGE_HLD	237
T_JUDGE_SLD	144
T_JUDGE_ALL	915
TTM_EACHPAIRS	120
TTM_SCR_TAP	257000
TTM_SCR_BRK	52000
TTM_SCR_HLD	108000
TTM_SCR_SLD	216000
TTM_SCR_ALL	633000
TTM_SCR_S	612100
TTM_SCR_SS	631000
TTM_RAT_ACV	10031

