VERSION	0.00.00	1.03.00
FES_MODE	0
BPM_DEF	140.000	140.000	140.000	140.000
MET_DEF	4	4
RESOLUTION	384
CLK_DEF	384
COMPATIBLE_CODE	MA2

BPM	0	0	140.000
MET	0	0	4	4

HLD	1	0	3	384
TAP	1	192	4
HLD	2	0	4	192
TAP	2	192	3
TAP	2	288	2
TAP	2	288	5
TAP	3	0	0
TAP	3	0	7
TAP	3	96	2
TAP	3	96	3
TAP	3	192	0
TAP	3	192	7
TAP	3	288	4
TAP	3	288	5
TAP	4	0	0
TAP	4	0	7
TAP	4	96	2
TAP	4	96	3
TAP	4	192	4
TAP	4	192	5
TAP	4	288	3
TAP	4	288	6
TAP	5	0	0
TAP	5	0	7
TAP	5	96	2
TAP	5	96	3
TAP	5	192	0
TAP	5	192	7
TAP	5	288	4
TAP	5	288	5
TAP	6	0	0
TAP	6	0	7
TAP	6	96	2
TAP	6	96	3
TAP	6	192	4
TAP	6	240	4
TAP	6	288	3
HLD	7	0	2	576
TAP	7	0	4
TAP	7	96	4
TAP	7	192	3
TAP	7	288	3
TAP	8	0	5
TAP	8	96	4
TAP	8	192	3
TAP	8	288	2
TAP	8	288	4
TAP	9	0	3
HLD	9	0	5	576
TAP	9	96	3
TAP	9	192	4
TAP	9	288	4
TAP	10	0	2
TAP	10	96	3
TAP	10	192	4
TAP	10	288	3
TAP	10	288	6
HLD	11	0	2	576
TAP	11	96	4
TAP	11	192	3
TAP	11	288	1
TAP	12	0	4
TAP	12	96	3
TAP	12	192	1
TAP	12	288	2
TAP	13	0	3
TAP	13	96	1
TAP	13	96	5
TAP	13	192	4
TAP	13	288	3
STR	13	288	5
SI_	13	288	5	96	96	1
BRK	14	192	0
HLD	15	0	2	96
TAP	15	0	5
TAP	15	96	3
HLD	15	192	0	96
TAP	15	192	4
TAP	15	288	2
TAP	16	0	1
HLD	16	0	3	96
TAP	16	96	2
TAP	16	192	4
TAP	16	240	4
TAP	16	288	3
TAP	17	0	2
HLD	17	0	5	96
TAP	17	96	4
TAP	17	192	3
HLD	17	192	7	96
TAP	17	288	5
HLD	18	0	4	96
TAP	18	0	6
TAP	18	96	5
TAP	18	192	3
TAP	18	240	3
TAP	18	288	4
TAP	19	0	2
TAP	19	0	3
HLD	19	96	0	96
TAP	19	96	4
TAP	19	192	2
TAP	19	288	1
TAP	19	288	3
TAP	20	0	4
TAP	20	0	5
TAP	20	96	3
HLD	20	96	7	96
TAP	20	192	5
TAP	20	288	3
STR	20	288	6
SCL	20	288	6	96	96	3
STR	21	96	0
SI_	21	96	0	96	96	4
STR	21	288	7
SI_	21	288	7	96	96	3
TAP	22	96	2
TAP	22	192	3
TAP	22	192	4
TAP	22	240	3
TAP	22	240	4
TAP	22	288	2
TAP	22	288	5
THO	23	0	0	768	C	0	M1
TTP	26	0	0	C	0	M1
TTP	26	192	4	E	0	M1
TTP	27	0	5	B	0	M1
TTP	27	96	6	B	0	M1
TTP	27	96	6	E	0	M1
TTP	27	288	0	C	0	M1
TTP	28	0	2	B	0	M1
TTP	28	96	1	B	0	M1
TTP	28	96	2	E	0	M1
TTP	28	288	4	E	0	M1
TTP	29	0	3	E	0	M1
TTP	29	0	5	E	0	M1
TTP	29	96	2	E	0	M1
TTP	29	96	6	E	0	M1
TAP	29	288	3
STR	29	288	4
SCR	29	288	4	96	192	7
HLD	31	0	2	288
TAP	31	96	3
TAP	31	240	4
TAP	31	288	4
HLD	32	0	5	288
TAP	32	96	4
TAP	32	240	3
TAP	32	288	3
HLD	33	0	4	192
HLD	33	192	3	192
TAP	34	0	4
TAP	34	96	4
TAP	34	192	4
XTP	34	288	1
XTP	34	288	6
BST	35	0	0
SI_	35	0	0	96	48	4
BST	35	0	7
SI_	35	0	7	96	48	5
STR	35	192	0
SI_	35	192	0	96	48	2
STR	35	192	7
SI_	35	192	7	96	48	3
STR	36	0	0
SI_	36	0	0	96	48	4
STR	36	0	7
SI_	36	0	7	96	48	5
TAP	36	192	0
TAP	36	192	7
TAP	36	288	1
TAP	36	288	4
TAP	37	0	2
STR	37	0	3
SI_	37	0	3	96	48	7
STR	37	192	4
SI_	37	192	4	96	48	0
TAP	37	192	5
TAP	38	0	2
STR	38	0	3
SI_	38	0	3	96	48	7
TAP	38	192	0
TAP	38	192	6
TAP	38	288	2
STR	39	0	1
SCR	39	0	1	96	96	4
STR	39	0	3
SI_	39	0	3	96	96	7
XTP	39	288	7
STR	40	0	4
SI_	40	0	4	96	96	0
STR	40	0	6
SCL	40	0	6	96	96	3
XTP	40	288	0
HLD	41	0	1	72
HLD	41	72	3	72
TAP	41	144	2
STR	41	240	3
SCL	41	240	3	96	240	4
TAP	41	240	4
TAP	42	288	2
TAP	42	288	5
BRK	43	0	1
BRK	43	0	3
TAP	43	96	0
TAP	43	96	1
TAP	43	192	6
TAP	43	192	7
TAP	43	288	5
TAP	44	0	4
TAP	44	0	6
TAP	44	96	6
TAP	44	96	7
TAP	44	192	0
TAP	44	192	1
TAP	44	288	2
TAP	45	0	1
TAP	45	0	3
TAP	45	96	0
TAP	45	96	1
TAP	45	192	6
TAP	45	192	7
TAP	45	288	5
TAP	46	0	3
TAP	46	0	4
TAP	46	96	1
TAP	46	96	3
TAP	46	192	3
TAP	46	192	4
TAP	46	288	4
TAP	46	288	6
STR	47	0	6
SI_	47	0	6	96	48	4
STR	47	0	7
SI_	47	0	7	96	48	3
STR	47	192	0
SI_	47	192	0	96	48	4
STR	47	192	1
SI_	47	192	1	96	48	3
STR	48	0	6
SI_	48	0	6	96	48	4
STR	48	0	7
SI_	48	0	7	96	48	3
XTP	48	192	3
XTP	48	192	4
XTP	48	288	1
XTP	48	288	3
HLD	49	0	2	72
HLD	49	72	3	72
TAP	49	144	4
TAP	49	240	4
STR	49	240	5
SCR	49	240	5	96	240	2
TAP	50	288	3
TAP	50	288	4
THO	51	0	0	384	C	0	M1
TAP	52	192	2
TAP	52	192	5
BRK	52	288	0
BRK	52	288	7
TAP	53	0	1
TAP	53	0	6
TAP	53	96	3
TAP	53	144	3
HLD	53	192	4	96
STR	53	288	5
SI_	53	288	5	96	48	3
TAP	54	96	5
TAP	54	144	5
HLD	54	192	3	96
STR	54	288	2
SI_	54	288	2	96	48	4
TAP	55	96	2
TAP	55	144	2
HLD	55	192	4	96
STR	55	288	5
SI_	55	288	5	96	48	2
TAP	56	96	4
TAP	56	144	4
HLD	56	192	1	96
STR	56	288	3
SI_	56	288	3	96	48	5
XTP	57	0	2
TAP	57	96	2
TAP	57	144	3
HLD	57	192	5	96
STR	57	288	4
SI_	57	288	4	96	48	1
XTP	58	0	6
TAP	58	96	5
TAP	58	144	4
HLD	58	192	1	96
STR	58	288	3
SI_	58	288	3	96	48	6
XTP	59	0	1
TAP	59	96	2
TAP	59	144	3
HLD	59	192	6	96
BST	59	288	7
SSR	59	288	7	96	288	3
HLD	61	0	3	1536
TTP	62	0	4	E	0	M1
TTP	63	0	4	E	0	M1
TTP	64	0	4	E	0	M1
TTP	65	0	5	B	0	M1
TTP	65	96	6	B	0	M1
TTP	65	96	6	E	0	M1
TTP	65	288	0	C	0	M1
TTP	66	0	2	B	0	M1
TTP	66	96	1	B	0	M1
TTP	66	96	2	E	0	M1
TTP	66	288	4	E	0	M1
TTP	67	0	3	E	0	M1
TTP	67	0	5	E	0	M1
TTP	67	96	2	E	0	M1
TTP	67	96	6	E	0	M1
STR	67	288	3
SCL	67	288	3	96	192	0
TAP	67	288	4
HLD	69	0	2	192
HLD	69	192	3	192
HLD	70	0	4	192
HLD	70	192	5	192
HLD	71	0	3	192
TAP	71	96	4
HLD	71	192	4	192
TAP	71	288	3
TAP	72	0	3
TAP	72	96	3
TAP	72	192	3
TAP	72	192	4
XTP	72	288	0
XTP	72	288	7
BST	73	0	6
SI_	73	0	6	96	48	3
BST	73	0	7
SI_	73	0	7	96	48	2
STR	73	192	0
SI_	73	192	0	96	48	5
STR	73	192	1
SI_	73	192	1	96	48	4
STR	74	0	6
SI_	74	0	6	96	48	3
STR	74	0	7
SI_	74	0	7	96	48	2
TAP	74	192	1
TAP	74	192	4
TAP	74	288	2
TAP	74	288	3
STR	75	0	4
SI_	75	0	4	96	48	0
STR	75	0	5
SI_	75	0	5	96	48	7
STR	75	192	2
SI_	75	192	2	96	48	0
STR	75	192	3
SI_	75	192	3	96	48	7
STR	76	0	4
SI_	76	0	4	96	48	0
STR	76	0	5
SI_	76	0	5	96	48	7
XTP	76	192	1
XTP	76	192	3
TAP	76	288	3
TAP	76	288	4
STR	77	0	2
SCL	77	0	2	96	96	7
STR	77	0	6
SUR	77	0	6	96	96	3
XTP	77	288	0
XTP	77	288	4
STR	78	0	1
SUL	78	0	1	96	96	4
STR	78	0	5
SCR	78	0	5	96	96	0
XTP	78	288	3
XTP	78	288	7
HLD	79	0	2	72
HLD	79	72	1	72
TAP	79	144	0
STR	79	240	0
SCR	79	240	0	96	144	6
TAP	79	240	7
TAP	80	288	3
TAP	80	288	5
BRK	81	0	2
BRK	81	0	4
TAP	81	96	0
TAP	81	96	1
TAP	81	192	6
TAP	81	192	7
TAP	81	288	4
TAP	82	0	3
TAP	82	0	5
TAP	82	96	6
TAP	82	96	7
TAP	82	192	0
TAP	82	192	1
TAP	82	288	3
TAP	83	0	2
TAP	83	0	4
TAP	83	96	0
TAP	83	96	1
TAP	83	192	6
TAP	83	192	7
TAP	83	288	4
TAP	84	0	3
TAP	84	0	5
TAP	84	96	2
TAP	84	96	4
TAP	84	192	3
TAP	84	192	6
TAP	84	288	0
TAP	84	288	7
STR	85	0	1
SI_	85	0	1	96	48	3
STR	85	0	3
SI_	85	0	3	96	48	7
STR	85	192	4
SI_	85	192	4	96	48	0
STR	85	192	6
SI_	85	192	6	96	48	4
STR	86	0	1
SI_	86	0	1	96	48	3
STR	86	0	3
SI_	86	0	3	96	48	7
XTP	86	192	4
XTP	86	192	6
TAP	86	288	3
TAP	86	288	4
HLD	87	0	2	72
HLD	87	72	1	72
TAP	87	144	0
TAP	87	240	0
STR	87	240	1
SCR	87	240	1	96	240	7
TAP	88	288	1
TAP	88	288	6
THO	89	0	0	384	C	0	M1
TAP	90	192	2
TAP	90	192	5
BRK	90	288	0
BRK	90	288	7
HLD	91	0	1	96
TAP	91	0	6
TAP	91	96	3
TAP	91	192	2
HLD	91	192	6	96
TAP	91	288	4
HLD	92	0	1	96
TAP	92	0	5
TAP	92	96	2
TAP	92	192	1
TAP	92	240	1
TAP	92	288	0
TAP	93	0	1
HLD	93	0	7	96
TAP	93	96	4
HLD	93	192	0	96
TAP	93	192	6
TAP	93	288	3
TAP	94	0	1
HLD	94	0	7	96
TAP	94	96	4
TAP	94	192	6
TAP	94	240	6
TAP	94	288	0
TAP	94	288	6
HLD	95	0	1	96
HLD	95	0	5	96
HLD	95	192	2	96
HLD	95	192	4	96
HLD	96	0	3	96
STR	96	192	3
SUR	96	192	3	96	480	4
TAP	96	288	4

T_REC_TAP	246
T_REC_BRK	9
T_REC_XTP	21
T_REC_HLD	50
T_REC_XHO	0
T_REC_STR	54
T_REC_BST	5
T_REC_XST	0
T_REC_TTP	29
T_REC_THO	3
T_REC_SLD	59
T_REC_ALL	476
T_NUM_TAP	350
T_NUM_BRK	14
T_NUM_HLD	53
T_NUM_SLD	59
T_NUM_ALL	476
T_JUDGE_TAP	364
T_JUDGE_HLD	224
T_JUDGE_SLD	59
T_JUDGE_ALL	647
TTM_EACHPAIRS	124
TTM_SCR_TAP	175000
TTM_SCR_BRK	36400
TTM_SCR_HLD	53000
TTM_SCR_SLD	88500
TTM_SCR_ALL	352900
TTM_SCR_S	341000
TTM_SCR_SS	351500
TTM_RAT_ACV	10039

