VERSION	0.00.00	1.03.00
FES_MODE	0
BPM_DEF	140.000	140.000	140.000	140.000
MET_DEF	4	4
RESOLUTION	384
CLK_DEF	384
COMPATIBLE_CODE	MA2

BPM	0	0	140.000
MET	0	0	4	4

XTP	2	288	3
XTP	2	288	4
TAP	3	0	2
TAP	3	96	2
TAP	3	192	3
TAP	3	288	3
TAP	4	0	4
TAP	4	96	4
TAP	4	192	3
TAP	4	192	5
TAP	5	0	6
TAP	5	96	6
TAP	5	192	7
TAP	5	288	7
TAP	6	0	0
TAP	6	96	0
TAP	6	96	7
TAP	6	192	1
TAP	6	192	6
HLD	7	0	2	96
TAP	7	96	3
TAP	7	192	3
HLD	8	0	5	96
TAP	8	96	4
TAP	8	192	4
HLD	9	0	2	96
TAP	9	96	3
TAP	9	192	3
HLD	10	0	4	96
HLD	10	0	5	96
TAP	10	192	4
TAP	10	192	5
HLD	11	0	6	96
TAP	11	96	7
TAP	11	192	7
HLD	12	0	1	96
TAP	12	96	0
TAP	12	192	0
TAP	12	288	7
STR	13	0	0
SCR	13	0	0	96	144	3
STR	13	0	7
SCL	13	0	7	96	144	4
TAP	14	0	3
TAP	14	0	4
TAP	14	96	3
TAP	14	96	4
TAP	14	192	2
TAP	14	192	5
TAP	15	0	6
TAP	15	96	6
TAP	15	192	7
TAP	15	288	7
TAP	16	0	0
TAP	16	96	0
TAP	16	192	1
TAP	16	192	7
TAP	17	0	2
TAP	17	96	2
TAP	17	192	3
TAP	17	288	3
TAP	18	0	4
TAP	18	96	4
TAP	18	192	3
TAP	18	192	4
TAP	19	0	5
TAP	19	96	5
TAP	19	192	4
TAP	19	288	4
TAP	20	0	3
TAP	20	96	3
TAP	20	192	2
TAP	20	288	2
STR	21	0	3
SCL	21	0	3	96	144	0
STR	21	0	4
SCR	21	0	4	96	144	7
TAP	22	0	0
TAP	22	0	7
TAP	22	96	0
TAP	22	96	7
BRK	22	192	1
BRK	22	192	6
THO	23	0	0	1152	C	0	L1
TTP	27	0	0	E	0	L1
TTP	27	192	1	E	0	L1
TTP	28	0	2	E	0	L1
TTP	28	192	3	E	0	L1
TTP	29	0	4	E	0	L1
TTP	29	192	5	E	0	L1
TTP	30	0	6	E	0	L1
TTP	30	192	7	E	0	L1
XST	31	0	7
SI_	31	0	7	96	144	4
STR	32	0	3
SI_	32	0	3	96	144	0
STR	33	0	7
SI_	33	0	7	96	144	4
TAP	34	0	2
TAP	34	96	2
TAP	34	192	3
TAP	34	192	4
TAP	35	0	5
TAP	35	96	5
TAP	35	192	4
TAP	35	192	5
TAP	35	288	4
TAP	35	288	5
TAP	36	0	2
TAP	36	96	2
TAP	36	192	2
TAP	36	192	3
TAP	36	288	2
TAP	36	288	3
TAP	37	0	1
TAP	37	96	1
TAP	37	192	0
TAP	37	288	0
TAP	38	0	7
TAP	38	96	7
TAP	38	192	0
TAP	38	192	6
HLD	39	0	1	96
TAP	39	96	0
TAP	39	192	0
TAP	39	192	1
HLD	40	0	6	96
TAP	40	96	7
TAP	40	192	6
TAP	40	192	7
TAP	41	0	5
TAP	41	96	5
TAP	41	192	4
TAP	41	288	4
TAP	42	0	3
TAP	42	0	4
TAP	42	96	3
TAP	42	96	4
TAP	42	192	2
TAP	42	192	5
XST	43	0	0
SXR	43	0	0	96	384	5
XST	43	0	1
SXL	43	0	1	96	384	4
XST	45	0	6
SXR	45	0	6	96	384	3
XST	45	0	7
SXL	45	0	7	96	384	2
TAP	47	0	1
TAP	47	96	1
TAP	47	192	0
TAP	47	192	1
TAP	47	288	0
TAP	47	288	1
TAP	48	0	6
TAP	48	96	6
TAP	48	192	6
TAP	48	192	7
TAP	48	288	6
TAP	48	288	7
TAP	49	0	5
TAP	49	96	5
TAP	49	192	4
TAP	49	288	4
TAP	50	0	3
TAP	50	0	4
TAP	50	96	3
TAP	50	96	4
TAP	50	192	2
TAP	50	192	5
STR	51	0	3
SXR	51	0	3	96	384	0
STR	51	0	4
SXL	51	0	4	96	384	7
STR	53	0	6
SI_	53	0	6	96	144	2
STR	54	0	1
SI_	54	0	1	96	144	4
STR	55	0	5
SI_	55	0	5	96	144	0
TAP	56	0	1
TAP	56	96	1
TAP	56	192	0
TAP	56	192	7
STR	57	0	1
SUR	57	0	1	96	144	5
STR	58	0	6
SUL	58	0	6	96	144	2
TAP	59	0	1
TAP	59	96	1
TAP	59	192	0
TAP	59	288	0
BRK	60	0	0
BRK	60	0	7
TTP	61	0	0	C	0	L1
TTP	61	192	4	E	0	L1
TTP	62	0	3	E	0	L1
TTP	62	192	2	E	0	L1
TTP	63	0	1	E	0	L1
TTP	63	192	0	E	0	L1
TTP	64	0	7	E	0	L1
TTP	64	192	6	E	0	L1
TTP	65	0	5	E	0	L1
TTP	65	192	6	E	0	L1
TTP	66	0	7	E	0	L1
TTP	66	192	0	E	0	L1
TTP	67	0	1	E	0	L1
TTP	67	192	2	E	0	L1
TTP	68	0	3	E	0	L1
TTP	68	192	4	E	0	L1
XHO	69	0	5	192
HLD	69	192	4	192
HLD	70	0	3	192
XTP	70	192	2
TAP	71	0	1
TAP	71	96	1
TAP	71	192	0
TAP	71	288	7
BRK	72	0	1
BRK	72	0	6
XTP	72	288	3
XTP	72	288	4
TAP	73	0	2
TAP	73	96	2
TAP	73	96	3
TAP	73	192	2
TAP	73	288	2
TAP	73	288	3
TAP	74	0	5
TAP	74	96	4
TAP	74	96	5
TAP	74	192	5
TAP	74	288	4
TAP	74	288	5
TAP	75	0	6
TAP	75	96	6
TAP	75	192	7
TAP	75	288	7
TAP	76	0	0
TAP	76	96	0
TAP	76	192	1
TAP	76	192	7
HLD	77	0	6	96
TAP	77	96	7
TAP	77	192	0
TAP	77	192	5
HLD	78	0	1	96
TAP	78	96	0
TAP	78	192	2
TAP	78	192	7
TAP	79	0	2
TAP	79	96	2
TAP	79	192	3
TAP	79	288	3
TAP	80	0	3
TAP	80	0	4
TAP	80	96	3
TAP	80	96	4
TAP	80	192	2
TAP	80	192	5
XST	81	0	6
SXR	81	0	6	96	384	3
XST	81	0	7
SXL	81	0	7	96	384	2
XST	83	0	0
SXR	83	0	0	96	384	5
XST	83	0	1
SXL	83	0	1	96	384	4
TAP	85	0	6
TAP	85	96	6
TAP	85	96	7
TAP	85	192	6
TAP	85	288	6
TAP	85	288	7
TAP	86	0	1
TAP	86	96	0
TAP	86	96	1
TAP	86	192	1
TAP	86	288	0
TAP	86	288	1
TAP	87	0	2
TAP	87	96	2
TAP	87	192	3
TAP	87	288	3
TAP	88	0	3
TAP	88	0	4
TAP	88	96	3
TAP	88	96	4
TAP	88	192	2
TAP	88	192	5
STR	89	0	3
SXR	89	0	3	96	384	0
STR	89	0	4
SXL	89	0	4	96	384	7
TAP	91	0	6
TAP	91	96	6
TAP	91	192	7
TAP	91	288	7
TAP	92	0	0
TAP	92	96	0
TAP	92	192	1
TAP	92	192	7
TAP	93	0	2
TAP	93	96	2
TAP	93	192	3
TAP	93	288	3
TAP	94	0	4
TAP	94	96	4
TAP	94	192	3
TAP	94	192	5
STR	95	0	5
SI_	95	0	5	96	144	2
STR	96	0	1
SSL	96	0	1	96	480	5

T_REC_TAP	212
T_REC_BRK	6
T_REC_XTP	5
T_REC_HLD	13
T_REC_XHO	1
T_REC_STR	17
T_REC_BST	0
T_REC_XST	9
T_REC_TTP	24
T_REC_THO	1
T_REC_SLD	26
T_REC_ALL	314
T_NUM_TAP	267
T_NUM_BRK	6
T_NUM_HLD	15
T_NUM_SLD	26
T_NUM_ALL	314
T_JUDGE_TAP	273
T_JUDGE_HLD	58
T_JUDGE_SLD	26
T_JUDGE_ALL	357
TTM_EACHPAIRS	63
TTM_SCR_TAP	133500
TTM_SCR_BRK	15600
TTM_SCR_HLD	15000
TTM_SCR_SLD	39000
TTM_SCR_ALL	203100
TTM_SCR_S	196450
TTM_SCR_SS	202500
TTM_RAT_ACV	10029

