VERSION	0.00.00	1.03.00
FES_MODE	0
BPM_DEF	140.000	140.000	140.000	140.000
MET_DEF	4	4
RESOLUTION	384
CLK_DEF	384
COMPATIBLE_CODE	MA2

BPM	0	0	140.000
MET	0	0	4	4

TAP	3	0	0
TAP	3	192	0
TAP	4	0	0
TAP	5	0	7
TAP	5	192	7
TAP	6	0	7
HLD	7	0	0	384
HLD	9	0	1	384
HLD	11	0	2	384
HLD	13	0	3	384
HLD	13	0	4	384
TAP	15	0	4
TAP	15	192	4
TAP	16	0	4
TAP	17	0	5
TAP	17	192	5
TAP	18	0	5
TAP	19	0	6
TAP	19	192	6
TAP	20	0	6
TAP	21	0	7
TAP	21	192	7
TAP	22	0	0
TAP	22	0	7
TTP	23	0	0	B	0	L1
TTP	23	0	7	B	0	L1
TTP	24	0	1	B	0	L1
TTP	24	0	6	B	0	L1
TTP	25	0	2	B	0	L1
TTP	25	0	5	B	0	L1
TTP	26	0	3	B	0	L1
TTP	26	0	4	B	0	L1
TTP	27	0	5	B	0	L1
TTP	27	0	6	B	0	L1
TTP	28	0	0	B	0	L1
TTP	28	0	7	B	0	L1
TTP	29	0	1	B	0	L1
TTP	29	0	2	B	0	L1
TTP	30	0	3	B	0	L1
TTP	30	0	4	B	0	L1
TTP	31	0	2	B	0	L1
TTP	31	0	5	B	0	L1
TTP	32	0	1	B	0	L1
TTP	32	0	6	B	0	L1
THO	33	0	0	384	C	0	L1
TAP	35	0	7
TAP	35	192	7
TAP	36	0	6
TAP	36	192	6
TAP	37	0	5
TAP	37	192	5
TAP	38	0	3
TAP	38	0	4
TAP	39	0	3
TAP	39	192	3
TAP	40	0	2
TAP	40	192	2
TAP	41	0	1
TAP	41	192	1
TAP	42	0	0
TAP	42	0	7
XTP	43	0	7
TAP	43	96	7
TAP	43	192	7
TAP	44	0	6
TAP	44	0	7
TAP	45	0	0
TAP	45	96	0
TAP	45	192	0
TAP	46	0	0
TAP	46	0	1
TAP	47	0	2
TAP	47	192	2
TAP	47	192	3
TAP	48	0	5
TAP	48	192	4
TAP	48	192	5
TAP	49	0	6
TAP	49	192	6
TAP	49	192	7
TAP	50	0	0
TAP	50	96	0
TAP	50	192	0
HLD	51	0	0	384
HLD	51	0	7	384
XTP	52	192	1
XTP	52	192	6
STR	53	0	0
SI_	53	0	0	96	288	3
STR	55	0	7
SI_	55	0	7	96	288	4
STR	57	0	3
SI_	57	0	3	96	288	0
STR	59	0	7
SI_	59	0	7	96	288	3
HLD	61	0	2	384
HLD	61	0	3	384
HLD	63	0	4	384
HLD	63	0	5	384
HLD	65	0	6	384
HLD	65	0	7	384
HLD	67	0	0	384
HLD	67	0	1	384
HLD	69	0	2	384
HLD	69	0	3	384
STR	71	0	3
SI_	71	0	3	96	288	0
STR	71	0	4
SI_	71	0	4	96	288	7
XTP	73	0	7
TAP	73	96	7
TAP	73	192	7
TAP	74	0	6
TAP	74	96	6
TAP	74	192	6
TAP	75	0	5
TAP	75	96	5
TAP	75	192	5
TAP	76	0	3
TAP	76	0	4
TAP	76	192	3
TAP	76	192	4
TAP	77	0	3
TAP	77	96	3
TAP	77	192	3
TAP	78	0	2
TAP	78	96	2
TAP	78	192	2
TAP	79	0	1
TAP	79	96	1
TAP	79	192	1
TAP	80	0	0
TAP	80	0	7
TAP	80	192	0
TAP	80	192	7
TAP	81	0	6
TAP	81	96	6
TAP	81	192	6
TAP	82	0	6
TAP	82	0	7
TAP	82	192	6
TAP	82	192	7
TAP	83	0	0
TAP	83	96	0
TAP	83	192	0
TAP	84	0	0
TAP	84	0	1
TAP	84	192	0
TAP	84	192	1
TAP	85	0	2
TAP	85	192	2
TAP	85	192	3
TAP	86	0	5
TAP	86	192	4
TAP	86	192	5
TAP	87	0	6
TAP	87	192	6
TAP	87	192	7
TAP	88	0	0
TAP	88	192	0
TAP	88	192	7
HLD	89	0	0	384
HLD	89	0	7	384
XTP	90	192	1
XTP	90	192	6
BRK	91	0	7
TAP	91	96	7
TAP	91	192	6
TAP	92	0	5
TAP	92	96	5
TAP	92	192	4
TAP	93	0	3
TAP	93	96	3
TAP	93	192	2
TAP	94	0	1
TAP	94	96	1
TAP	94	192	0
TAP	94	192	1
TAP	95	0	7
TAP	95	192	7
TAP	96	0	0
TAP	96	0	7
HLD	96	192	1	624
HLD	96	192	6	624

T_REC_TAP	123
T_REC_BRK	1
T_REC_XTP	6
T_REC_HLD	21
T_REC_XHO	0
T_REC_STR	6
T_REC_BST	0
T_REC_XST	0
T_REC_TTP	20
T_REC_THO	1
T_REC_SLD	6
T_REC_ALL	184
T_NUM_TAP	155
T_NUM_BRK	1
T_NUM_HLD	22
T_NUM_SLD	6
T_NUM_ALL	184
T_JUDGE_TAP	156
T_JUDGE_HLD	186
T_JUDGE_SLD	6
T_JUDGE_ALL	348
TTM_EACHPAIRS	34
TTM_SCR_TAP	77500
TTM_SCR_BRK	2600
TTM_SCR_HLD	22000
TTM_SCR_SLD	9000
TTM_SCR_ALL	111100
TTM_SCR_S	107700
TTM_SCR_SS	111000
TTM_RAT_ACV	10009

