VERSION	0.00.00	1.03.00
FES_MODE	0
BPM_DEF	145.000	145.000	145.000	145.000
MET_DEF	4	4
RESOLUTION	384
CLK_DEF	384
COMPATIBLE_CODE	MA2

BPM	0	0	145.000
MET	0	0	4	4

TTP	1	0	4	B	0	M1
TTP	1	0	5	B	0	M1
TTP	1	0	6	E	0	M1
TTP	1	192	2	B	0	M1
TTP	1	192	2	E	0	M1
TTP	1	192	3	B	0	M1
TTP	2	0	3	B	0	M1
TTP	2	0	3	E	0	M1
TTP	2	0	4	B	0	M1
TTP	2	0	5	E	0	M1
TTP	2	192	0	C	0	M1
TTP	2	192	2	B	0	M1
TTP	2	192	5	B	0	M1
XTP	2	288	0
XTP	2	288	7
TTP	3	0	2	B	0	M1
TTP	3	0	2	E	0	M1
TTP	3	0	3	B	0	M1
TTP	3	192	4	B	0	M1
TTP	3	192	5	B	0	M1
TTP	3	192	6	E	0	M1
TTP	4	0	3	B	0	M1
TTP	4	0	3	E	0	M1
TTP	4	0	4	B	0	M1
TTP	4	0	5	E	0	M1
TTP	4	192	0	C	0	M1
TTP	4	192	2	B	0	M1
TTP	4	192	5	B	0	M1
XTP	4	288	1
XTP	4	288	6
TAP	5	0	0
TAP	5	0	7
TAP	5	48	0
TAP	5	96	0
TAP	5	96	1
TAP	5	144	1
TAP	5	192	1
TAP	5	192	2
TAP	5	240	2
TAP	5	288	2
TAP	5	288	3
TAP	5	336	3
TAP	6	0	3
TAP	6	0	4
TAP	6	48	4
TAP	6	96	4
TAP	6	96	5
TAP	6	144	5
TAP	6	192	5
TAP	6	192	6
TAP	6	240	6
TAP	6	288	6
TAP	6	288	7
TAP	6	336	7
TAP	7	0	0
TAP	7	24	7
TAP	7	48	0
TAP	7	72	7
TAP	7	96	0
TAP	7	120	7
TAP	7	144	0
TAP	7	168	7
TAP	7	192	0
TAP	7	216	7
TAP	7	240	0
TAP	7	264	7
TAP	7	288	0
TAP	7	312	7
TAP	7	336	0
TAP	7	360	7
TAP	8	0	0
TAP	8	24	7
TAP	8	48	1
TAP	8	72	6
TAP	8	96	2
TAP	8	120	5
TAP	8	144	2
STR	8	192	3
SCL	8	192	3	96	48	0
STR	8	192	4
SCR	8	192	4	96	48	7
BST	9	0	1
SI_	9	0	1	96	48	4
TAP	9	72	7
TAP	9	144	6
STR	9	192	6
SI_	9	192	6	96	48	1
TAP	9	264	3
TAP	9	336	2
STR	10	0	2
SI_	10	0	2	96	48	5
TAP	10	72	7
TAP	10	144	6
STR	10	192	6
SI_	10	192	6	96	48	3
TAP	10	264	0
TAP	10	336	1
STR	11	0	1
SI_	11	0	1	96	48	6
TAP	11	72	4
TAP	11	144	5
TAP	11	192	5
TAP	11	264	0
TAP	11	264	6
TAP	11	336	1
TAP	11	336	7
TAP	12	0	2
TAP	12	24	3
TAP	12	48	2
TAP	12	96	5
TAP	12	120	4
TAP	12	144	5
TAP	12	192	3
TAP	12	216	4
TAP	12	240	3
TAP	12	288	2
TAP	12	288	6
STR	13	0	5
SI_	13	0	5	96	48	0
TAP	13	72	3
TAP	13	144	2
STR	13	192	2
SI_	13	192	2	96	48	5
TAP	13	264	7
TAP	13	336	6
STR	14	0	6
SI_	14	0	6	96	48	1
TAP	14	72	3
TAP	14	144	2
STR	14	192	2
SI_	14	192	2	96	48	7
TAP	14	264	4
TAP	14	336	5
STR	15	0	5
SI_	15	0	5	96	48	2
TAP	15	72	0
TAP	15	144	1
TAP	15	192	1
TAP	15	264	2
TAP	15	264	4
TAP	15	336	3
TAP	15	336	5
TAP	16	0	6
HLD	16	24	6	72
TAP	16	72	4
HLD	16	96	4	72
TAP	16	144	3
HLD	16	168	3	72
TAP	16	216	0
TAP	16	240	0
BRK	16	288	1
BRK	16	288	6
TAP	17	0	3
TAP	17	0	4
TAP	17	48	2
TAP	17	72	3
TAP	17	96	2
TAP	17	120	3
TAP	17	144	2
TAP	17	168	3
TAP	17	192	1
TAP	17	240	0
TAP	17	240	4
TAP	17	288	1
TAP	17	312	3
TAP	17	336	1
TAP	17	360	3
TAP	18	0	1
TAP	18	48	2
TAP	18	48	4
TAP	18	96	3
TAP	18	120	4
TAP	18	144	3
TAP	18	192	4
TAP	18	192	5
TAP	18	216	4
TAP	18	216	5
TAP	18	264	3
TAP	18	264	6
TAP	18	312	5
TAP	18	336	4
TAP	19	0	6
TAP	19	24	3
TAP	19	48	6
TAP	19	72	3
TAP	19	96	5
TAP	19	120	2
TAP	19	144	5
TAP	19	168	2
TAP	19	192	4
TAP	19	216	1
TAP	19	240	4
TAP	19	264	1
TAP	19	288	3
TAP	19	312	2
TAP	19	360	2
TAP	20	0	3
TAP	20	24	1
TAP	20	48	3
TAP	20	72	1
TAP	20	96	4
TAP	20	120	2
TAP	20	144	4
TAP	20	168	2
TAP	20	192	5
TAP	20	216	3
TAP	20	240	5
TAP	20	264	3
TAP	20	288	5
TAP	20	336	4
BRK	20	336	7
TAP	21	0	6
TAP	21	48	3
TAP	21	48	5
TAP	21	96	4
TAP	21	144	2
TAP	21	144	4
TAP	21	192	2
TAP	21	216	3
TAP	21	240	2
TAP	21	264	1
TAP	21	264	4
TAP	21	360	2
TAP	22	0	3
TAP	22	48	2
TAP	22	48	4
TAP	22	96	3
TAP	22	144	3
TAP	22	144	5
TAP	22	192	5
TAP	22	216	4
TAP	22	240	5
TAP	22	264	3
TAP	22	264	6
TAP	22	360	4
TAP	22	360	5
TAP	23	24	3
TAP	23	48	4
TAP	23	96	2
TAP	23	120	3
TAP	23	144	1
TAP	23	168	3
TAP	23	192	2
TAP	23	216	4
TAP	23	240	2
TAP	23	264	4
TAP	23	288	3
TAP	23	312	5
TAP	23	360	4
TAP	23	360	6
TAP	24	24	3
TAP	24	48	5
TAP	24	72	3
TAP	24	96	5
TAP	24	120	2
TAP	24	144	4
TAP	24	168	2
TAP	24	192	4
TAP	24	216	1
TAP	24	240	3
BRK	24	264	0
TAP	25	0	2
TAP	25	0	3
TAP	25	48	3
TAP	25	48	4
TAP	25	96	4
TAP	25	96	5
TAP	25	144	3
TAP	25	144	4
TAP	25	192	2
TAP	25	216	3
TAP	25	264	3
TAP	25	288	2
TAP	25	336	1
TAP	25	336	4
TAP	26	0	2
TAP	26	0	5
TAP	26	48	3
TAP	26	48	6
TAP	26	96	5
TAP	26	120	4
TAP	26	144	5
TAP	26	168	4
HLD	26	192	6	48
TAP	26	240	3
HLD	26	264	4	48
TAP	26	312	1
HLD	26	336	3	48
TAP	27	0	2
HLD	27	24	4	48
TAP	27	72	3
TAP	27	96	5
TAP	27	144	4
TAP	27	144	6
TAP	27	192	3
TAP	27	192	5
TAP	27	240	2
TAP	27	264	4
TAP	27	288	2
TAP	27	336	1
TAP	27	336	5
TAP	28	0	2
TAP	28	0	4
TAP	28	48	1
TAP	28	96	2
TAP	28	96	4
TAP	28	144	3
TAP	28	144	5
TAP	28	192	4
TAP	28	192	6
TAP	28	240	5
TAP	28	264	4
TAP	28	288	5
TAP	28	336	3
BRK	28	336	7
TAP	29	48	1
TAP	29	72	0
TAP	29	96	1
TAP	29	120	0
TAP	29	168	2
TAP	29	168	7
TAP	29	240	6
TAP	29	264	7
TAP	29	288	6
TAP	29	336	0
TAP	29	336	5
TAP	30	48	1
TAP	30	72	3
TAP	30	96	2
TAP	30	120	4
TAP	30	144	3
TAP	30	168	5
TAP	30	216	5
TAP	30	240	4
TAP	30	288	3
TAP	30	288	6
TAP	30	336	1
TAP	30	336	4
TAP	31	24	0
TAP	31	48	0
TAP	31	72	6
TAP	31	96	1
TAP	31	120	7
TAP	31	144	0
TAP	31	168	0
TAP	31	192	7
TAP	31	216	0
TAP	31	264	1
TAP	31	264	6
BRK	31	336	5
BRK	31	336	7
BRK	32	0	0
BRK	32	0	2
TAP	32	48	1
TAP	32	72	3
TAP	32	96	2
TAP	32	120	6
TAP	32	144	4
TAP	32	168	5
STR	32	192	0
SI_	32	192	0	96	24	4
TAP	32	216	3
BRK	32	264	0
BRK	32	264	7
TTP	33	0	4	B	0	M1
TTP	33	0	5	B	0	M1
TTP	33	0	6	E	0	M1
TTP	33	192	2	B	0	M1
TTP	33	192	2	E	0	M1
TTP	33	192	3	B	0	M1
TTP	34	0	3	B	0	M1
TTP	34	0	3	E	0	M1
TTP	34	0	4	B	0	M1
TTP	34	0	5	E	0	M1
TTP	34	192	0	C	0	M1
TTP	34	192	2	B	0	M1
TTP	34	192	5	B	0	M1
XTP	34	288	0
XTP	34	288	7
TTP	35	0	2	B	0	M1
TTP	35	0	2	E	0	M1
TTP	35	0	3	B	0	M1
TTP	35	192	4	B	0	M1
TTP	35	192	5	B	0	M1
TTP	35	192	6	E	0	M1
TTP	36	0	3	B	0	M1
TTP	36	0	3	E	0	M1
TTP	36	0	4	B	0	M1
TTP	36	0	5	E	0	M1
TTP	36	192	0	C	0	M1
TTP	36	192	2	B	0	M1
TTP	36	192	5	B	0	M1
XTP	36	288	0
XTP	36	288	7
TTP	37	0	3	B	0	M1
TTP	37	0	3	E	0	M1
TTP	37	0	4	B	0	M1
TTP	37	0	5	E	0	M1
STR	37	96	0
SCR	37	96	0	96	48	3
TTP	37	192	1	B	0	M1
TTP	37	192	2	B	0	M1
STR	37	288	7
SCL	37	288	7	96	48	4
TTP	38	0	5	B	0	M1
TTP	38	0	6	B	0	M1
STR	38	96	0
SCR	38	96	0	96	48	3
TTP	38	192	0	C	0	M1
TAP	38	288	7
TAP	39	0	2
TAP	39	48	2
TAP	39	96	3
TAP	39	144	3
TAP	39	192	4
TAP	39	240	4
TAP	39	288	5
TAP	39	336	5
HLD	40	0	3	48
HLD	40	0	4	48
HLD	40	72	2	48
HLD	40	72	5	48
TAP	40	144	3
TAP	40	144	4
TAP	40	192	3
TAP	40	192	4
STR	40	288	0
SI_	40	288	0	96	48	6
TAP	40	288	7
BST	41	0	0
SI_	41	0	0	96	48	2
TAP	41	0	4
TAP	41	72	4
STR	41	96	0
SI_	41	96	0	96	48	6
TAP	41	144	4
STR	41	192	0
SI_	41	192	0	96	48	2
TAP	41	192	5
TAP	41	264	5
STR	41	288	0
SI_	41	288	0	96	48	6
TAP	41	336	5
STR	42	0	0
SI_	42	0	0	96	48	2
TAP	42	0	4
TAP	42	72	4
STR	42	96	0
SI_	42	96	0	96	48	6
TAP	42	144	4
STR	42	192	0
SI_	42	192	0	96	48	2
TAP	42	192	5
TAP	42	264	5
STR	42	288	0
SI_	42	288	0	96	48	6
TAP	42	336	5
STR	43	0	0
SI_	43	0	0	96	48	4
TAP	43	0	4
TAP	43	72	4
TAP	43	96	0
TAP	43	144	7
TAP	43	192	7
TAP	43	264	5
TAP	43	288	4
TAP	43	336	2
TAP	43	336	3
STR	44	0	2
SI_	44	0	2	96	48	7
STR	44	0	3
SI_	44	0	3	96	48	6
TAP	44	96	2
TAP	44	96	3
TAP	44	192	1
TAP	44	192	5
TAP	44	288	2
STR	44	288	7
SI_	44	288	7	96	48	1
TAP	45	0	3
STR	45	0	7
SI_	45	0	7	96	48	5
TAP	45	72	3
STR	45	96	7
SI_	45	96	7	96	48	1
TAP	45	144	3
TAP	45	192	2
STR	45	192	7
SI_	45	192	7	96	48	5
TAP	45	264	2
STR	45	288	7
SI_	45	288	7	96	48	1
TAP	45	336	2
TAP	46	0	3
STR	46	0	7
SI_	46	0	7	96	48	5
TAP	46	72	3
STR	46	96	7
SI_	46	96	7	96	48	1
TAP	46	144	3
TAP	46	192	2
STR	46	192	7
SI_	46	192	7	96	48	3
TAP	46	264	2
TAP	46	288	7
TAP	46	336	0
TAP	47	0	0
TAP	47	72	2
TAP	47	96	3
TAP	47	144	1
TAP	47	144	4
TAP	47	192	0
TAP	47	192	6
TAP	47	264	5
STR	47	288	4
SXL	47	288	4	96	144	0
SXR	47	288	4	96	144	0
TAP	47	336	4
TAP	48	192	2
TAP	48	192	6
STR	48	288	6
SI_	48	288	6	96	48	3
STR	48	288	7
SI_	48	288	7	96	48	3
TAP	48	336	0
TAP	48	336	5
TAP	49	0	6
TAP	49	0	7
TAP	49	72	1
TAP	49	96	0
TAP	49	144	2
TAP	49	144	7
STR	49	192	3
SI_	49	192	3	96	48	0
STR	49	192	6
SV_	49	192	6	96	48	0
TAP	49	288	3
TAP	49	288	6
HLD	50	0	1	72
TAP	50	0	7
TAP	50	72	3
TAP	50	96	2
TAP	50	144	6
TAP	50	144	7
TAP	50	192	0
HLD	50	192	5	72
TAP	50	264	4
TAP	50	288	5
TAP	50	336	0
TAP	50	336	7
TAP	51	0	1
TAP	51	0	3
TAP	51	48	2
TAP	51	48	4
TAP	51	72	2
TAP	51	72	4
TAP	51	120	1
TAP	51	120	3
TAP	51	144	1
TAP	51	144	3
TAP	51	192	2
TAP	51	216	3
BRK	51	264	0
BRK	51	264	4
TAP	52	0	4
TAP	52	0	6
TAP	52	48	3
TAP	52	48	5
TAP	52	72	3
TAP	52	72	5
TAP	52	120	4
TAP	52	120	6
TAP	52	144	4
TAP	52	144	6
TAP	52	192	5
TAP	52	216	4
BRK	52	264	3
BRK	52	264	7
TAP	53	0	2
TAP	53	0	4
TAP	53	72	1
TAP	53	96	0
TAP	53	144	2
TAP	53	144	7
STR	53	192	3
SI_	53	192	3	96	48	0
STR	53	192	6
SV_	53	192	6	96	48	0
TAP	53	288	3
TAP	53	288	6
HLD	54	0	1	72
TAP	54	0	7
TAP	54	72	3
TAP	54	96	2
TAP	54	144	6
TAP	54	144	7
TAP	54	192	0
HLD	54	192	5	72
TAP	54	264	4
TAP	54	288	5
TAP	54	336	0
TAP	54	336	7
TAP	55	0	1
TAP	55	0	3
TAP	55	48	2
TAP	55	48	4
TAP	55	72	2
TAP	55	72	4
TAP	55	120	1
TAP	55	120	3
TAP	55	144	1
TAP	55	144	3
TAP	55	192	2
TAP	55	216	3
BRK	55	264	0
BRK	55	264	7
BRK	56	0	2
BRK	56	0	5
XTP	56	12	3
XTP	56	12	4
BRK	56	72	1
BRK	56	72	6
XTP	56	84	2
XTP	56	84	5
XTP	56	96	3
XTP	56	96	4
BRK	56	144	0
BRK	56	144	7
XTP	56	156	1
XTP	56	156	6
XTP	56	168	2
XTP	56	168	5
XTP	56	180	3
XTP	56	180	4
TAP	56	288	1
TAP	56	288	6
TAP	57	0	0
TAP	57	0	4
XTP	57	12	7
XTP	57	24	6
TAP	57	72	4
STR	57	96	0
SI_	57	96	0	96	48	6
XTP	57	108	1
XTP	57	120	2
TAP	57	144	4
TAP	57	192	0
TAP	57	192	5
TAP	57	264	5
STR	57	288	0
SI_	57	288	0	96	48	6
XTP	57	300	1
XTP	57	312	2
TAP	57	336	5
TAP	58	0	0
TAP	58	0	4
TAP	58	72	4
STR	58	96	0
SI_	58	96	0	96	48	6
XTP	58	108	1
XTP	58	120	2
TAP	58	144	4
TAP	58	192	0
TAP	58	192	5
TAP	58	264	5
STR	58	288	0
SI_	58	288	0	96	48	6
XTP	58	300	1
XTP	58	312	2
TAP	58	336	5
TAP	59	0	0
TAP	59	0	4
TAP	59	72	4
STR	59	96	0
SI_	59	96	0	96	48	6
XTP	59	108	1
XTP	59	120	2
TAP	59	144	4
TAP	59	192	0
TAP	59	192	5
TAP	59	264	5
STR	59	288	0
SI_	59	288	0	96	48	6
XTP	59	300	1
XTP	59	312	2
TAP	59	336	5
TAP	60	0	0
TAP	60	0	4
TAP	60	72	4
TAP	60	96	0
TAP	60	96	4
TAP	60	144	2
TAP	60	144	6
TAP	60	192	3
TAP	60	192	7
TAP	60	240	6
TAP	60	288	1
TAP	60	288	5
TAP	60	336	2
TAP	61	0	3
TAP	61	0	7
XTP	61	12	0
XTP	61	24	1
TAP	61	72	3
STR	61	96	7
SI_	61	96	7	96	48	1
XTP	61	108	6
XTP	61	120	5
TAP	61	144	3
TAP	61	192	2
TAP	61	192	7
TAP	61	264	2
STR	61	288	7
SI_	61	288	7	96	48	1
XTP	61	300	6
XTP	61	312	5
TAP	61	336	2
TAP	62	0	3
TAP	62	0	7
TAP	62	72	3
STR	62	96	7
SI_	62	96	7	96	48	1
XTP	62	108	6
XTP	62	120	5
TAP	62	144	3
TAP	62	192	2
TAP	62	192	7
TAP	62	264	2
STR	62	288	7
SI_	62	288	7	96	48	1
XTP	62	300	6
XTP	62	312	5
TAP	62	336	2
TAP	63	0	3
TAP	63	0	7
TAP	63	72	3
TAP	63	96	3
TAP	63	96	7
TAP	63	144	1
TAP	63	144	5
TAP	63	192	0
TAP	63	192	7
TAP	63	240	1
TAP	63	240	6
TAP	63	288	2
TAP	63	288	5
TAP	63	336	3
TAP	63	336	4
TAP	64	0	2
TAP	64	24	3
TAP	64	48	2
TAP	64	72	5
TAP	64	96	4
TAP	64	120	5
TAP	64	144	1
TAP	64	168	3
TAP	64	192	2
TAP	64	216	6
TAP	64	240	4
TAP	64	264	5
BRK	64	288	0
TAP	65	0	0
STR	65	0	7
SSL	65	0	7	96	48	3
STR	65	192	0
SSL	65	192	0	96	48	4
TAP	65	192	1
STR	66	0	6
SI_	66	0	6	96	48	3
SSR	66	0	6	96	48	2
TAP	66	0	7
STR	66	192	0
SI_	66	192	0	96	48	5
SSR	66	192	0	96	48	4
TAP	66	192	1
TAP	67	0	6
STR	67	0	7
SSL	67	0	7	96	48	3
STR	67	192	0
SLL	67	192	0	96	48	4
STR	67	192	1
SI_	67	192	1	96	48	5
STR	68	0	6
SI_	68	0	6	96	48	3
SSR	68	0	6	96	48	2
TAP	68	0	7
TAP	68	192	0
STR	68	192	1
SI_	68	192	1	96	48	6
SSR	68	192	1	96	48	5
TAP	69	0	0
STR	69	0	7
SSL	69	0	7	96	48	3
TAP	69	48	0
TAP	69	48	7
STR	69	192	0
SSL	69	192	0	96	48	4
TAP	69	192	1
TAP	69	240	0
TAP	69	240	1
STR	70	0	6
SI_	70	0	6	96	48	3
SSR	70	0	6	96	48	2
TAP	70	0	7
TAP	70	48	6
TAP	70	48	7
STR	70	192	0
SI_	70	192	0	96	48	5
SSR	70	192	0	96	48	4
TAP	70	192	1
TAP	70	240	0
TAP	70	240	1
TAP	71	0	6
STR	71	0	7
SSL	71	0	7	96	48	3
TAP	71	48	6
TAP	71	48	7
STR	71	192	0
SLL	71	192	0	96	48	4
STR	71	192	1
SI_	71	192	1	96	48	5
TAP	71	240	0
TAP	71	240	1
STR	72	0	1
SI_	72	0	1	96	48	3
STR	72	48	3
SV_	72	48	3	96	48	4
STR	72	96	4
SI_	72	96	4	96	48	6
STR	72	192	7
SF_	72	192	7	96	48	3
BRK	73	0	1
BRK	73	0	5

T_REC_TAP	534
T_REC_BRK	26
T_REC_XTP	44
T_REC_HLD	15
T_REC_XHO	0
T_REC_STR	71
T_REC_BST	2
T_REC_XST	0
T_REC_TTP	61
T_REC_THO	0
T_REC_SLD	80
T_REC_ALL	833
T_NUM_TAP	710
T_NUM_BRK	28
T_NUM_HLD	15
T_NUM_SLD	80
T_NUM_ALL	833
T_JUDGE_TAP	738
T_JUDGE_HLD	22
T_JUDGE_SLD	80
T_JUDGE_ALL	840
TTM_EACHPAIRS	168
TTM_SCR_TAP	355000
TTM_SCR_BRK	72800
TTM_SCR_HLD	15000
TTM_SCR_SLD	120000
TTM_SCR_ALL	562800
TTM_SCR_S	543200
TTM_SCR_SS	560000
TTM_RAT_ACV	10050

