VERSION	0.00.00	1.03.00
FES_MODE	0
BPM_DEF	145.000	145.000	145.000	145.000
MET_DEF	4	4
RESOLUTION	384
CLK_DEF	384
COMPATIBLE_CODE	MA2

BPM	0	0	145.000
MET	0	0	4	4

XHO	1	0	3	144
XHO	1	0	5	96
HLD	1	192	2	96
HLD	1	192	4	144
HLD	2	0	3	144
HLD	2	0	5	96
TAP	2	192	3
TAP	2	192	4
TAP	2	288	3
TAP	2	288	4
HLD	3	0	2	96
HLD	3	0	3	144
HLD	3	192	4	144
HLD	3	192	5	96
HLD	4	0	2	96
HLD	4	0	3	144
TAP	4	192	3
TAP	4	192	4
TAP	4	288	3
TAP	4	288	4
HLD	5	0	4	144
HLD	5	0	5	96
HLD	5	192	1	96
HLD	5	192	3	144
HLD	6	0	4	144
HLD	6	0	6	96
HLD	6	192	2	96
HLD	6	192	3	144
HLD	7	0	4	144
HLD	7	0	5	96
HLD	7	192	2	96
HLD	7	192	3	144
HLD	8	0	3	144
HLD	8	0	4	96
TAP	8	192	2
STR	8	192	5
SI_	8	192	5	96	48	7
BRK	9	0	0
TAP	9	96	2
TAP	9	144	2
TAP	9	192	7
TAP	9	288	3
TAP	9	288	5
TAP	10	0	7
TAP	10	96	5
TAP	10	144	5
TAP	10	192	0
TAP	10	288	2
TAP	10	288	4
TAP	11	0	0
TAP	11	96	2
TAP	11	144	2
TAP	11	192	7
TAP	11	288	3
TAP	11	288	5
TAP	12	0	2
TAP	12	0	6
TAP	12	96	2
TAP	12	96	6
TAP	12	192	3
TAP	12	288	1
TAP	12	288	5
TAP	13	0	0
TAP	13	96	2
TAP	13	144	2
TAP	13	192	7
TAP	13	288	3
TAP	13	288	5
TAP	14	0	7
TAP	14	96	5
TAP	14	144	5
TAP	14	192	0
TAP	14	288	2
TAP	14	288	4
TAP	15	0	0
TAP	15	96	2
TAP	15	144	2
TAP	15	192	7
STR	15	288	3
SSR	15	288	3	96	192	7
TAP	15	288	5
BRK	16	288	0
HLD	17	0	1	1440
TAP	17	0	4
TAP	17	96	3
TAP	17	144	3
XTP	17	192	3
TAP	17	288	5
TAP	18	0	2
TAP	18	48	2
TAP	18	96	2
TAP	18	192	0
TAP	18	288	3
TAP	18	336	3
TAP	19	0	3
TAP	19	96	2
TAP	19	192	7
TAP	19	288	4
TAP	19	336	4
TAP	20	0	4
TAP	20	96	5
STR	20	192	3
SI_	20	192	3	96	96	7
HLD	21	0	2	1344
TAP	21	96	7
TAP	21	192	4
TAP	21	288	5
TAP	21	336	5
TAP	22	0	5
TAP	22	96	3
TAP	22	192	4
TAP	22	240	4
TAP	22	288	4
TAP	23	0	3
TAP	23	96	6
TAP	23	192	3
XTP	23	288	7
XTP	23	336	7
XTP	24	0	7
TAP	24	96	3
STR	24	192	4
SI_	24	192	4	96	96	7
HLD	25	0	1	1440
TAP	25	96	7
TAP	25	192	5
TAP	25	240	5
TAP	25	288	5
TAP	26	0	3
TAP	26	96	0
TAP	26	192	4
TAP	26	288	6
XTP	26	336	6
XTP	27	0	6
TAP	27	96	3
TAP	27	192	7
TAP	27	288	4
TAP	28	0	3
TAP	28	48	3
TAP	28	96	3
TAP	28	192	7
TAP	28	288	4
XTP	28	336	4
HLD	29	0	2	1344
TAP	29	96	3
TAP	29	192	5
TAP	29	288	4
TAP	29	336	4
TAP	30	0	4
TAP	30	96	5
TAP	30	192	1
TAP	30	288	6
TAP	30	336	6
TAP	31	0	6
TAP	31	96	1
TAP	31	192	5
TAP	31	288	3
TAP	31	336	3
TAP	32	0	3
TAP	32	96	4
BST	32	192	7
SI_	32	192	7	96	48	3
XTP	33	0	0
TTP	33	192	4	B	0	M1
TTP	33	192	5	B	0	M1
TTP	33	192	6	E	0	M1
TTP	34	0	2	B	0	M1
TTP	34	0	2	E	0	M1
TTP	34	0	3	B	0	M1
TTP	34	192	0	C	0	M1
XTP	34	288	0
XTP	34	288	7
XTP	35	0	1
XTP	35	0	6
TTP	35	192	2	B	0	M1
TTP	35	192	2	E	0	M1
TTP	35	192	3	B	0	M1
TTP	36	0	4	B	0	M1
TTP	36	0	5	B	0	M1
TTP	36	0	6	E	0	M1
TAP	36	192	3
TAP	36	288	3
TAP	36	288	4
HLD	37	0	5	384
TAP	37	96	4
TAP	37	192	4
TAP	37	288	4
HLD	38	0	2	288
TAP	38	96	3
TAP	38	192	3
TAP	38	288	3
TAP	39	0	4
TAP	39	48	4
TAP	39	96	3
TAP	39	144	3
TAP	39	192	4
TAP	39	240	4
TAP	39	288	3
TAP	39	288	4
TAP	40	0	2
HLD	40	0	5	192
STR	40	192	4
SI_	40	192	4	96	48	0
BRK	41	0	7
TAP	41	96	2
TAP	41	96	4
TAP	41	192	6
TAP	41	192	7
TAP	41	288	1
TAP	41	288	3
TAP	42	0	0
TAP	42	0	5
TAP	42	96	2
TAP	42	96	4
TAP	42	192	6
TAP	42	192	7
TAP	42	288	1
TAP	42	288	3
TAP	43	0	0
TAP	43	0	5
TAP	43	96	2
TAP	43	96	4
TAP	43	192	6
TAP	43	192	7
TAP	43	288	1
TAP	43	288	3
TAP	44	0	0
TAP	44	0	5
TAP	44	96	2
TAP	44	96	3
STR	44	192	4
SI_	44	192	4	96	48	0
TAP	44	192	5
BRK	45	0	7
TAP	45	96	2
TAP	45	96	4
TAP	45	192	6
TAP	45	192	7
TAP	45	288	1
TAP	45	288	3
TAP	46	0	0
TAP	46	0	5
TAP	46	96	2
TAP	46	96	4
TAP	46	192	6
TAP	46	192	7
TAP	46	288	1
TAP	46	288	3
TAP	47	0	0
TAP	47	0	5
TAP	47	96	2
TAP	47	96	4
TAP	47	192	6
TAP	47	192	7
STR	47	288	4
SUR	47	288	4	96	96	1
STR	47	288	5
SCR	47	288	5	96	96	0
XTP	48	192	0
TAP	48	288	2
TAP	48	288	7
HLD	49	0	6	72
HLD	49	72	5	72
TAP	49	144	4
TAP	49	192	4
TAP	49	288	2
TAP	49	288	3
HLD	50	0	1	72
TAP	50	72	0
TAP	50	144	2
TAP	50	144	7
HLD	50	192	6	72
TAP	50	264	7
TAP	50	336	0
TAP	50	336	4
HLD	51	0	1	48
HLD	51	0	3	48
HLD	51	72	1	48
HLD	51	72	3	48
TAP	51	144	1
TAP	51	144	3
XTP	51	192	0
XTP	51	192	4
XTP	51	264	0
XTP	51	264	4
HLD	52	0	4	48
HLD	52	0	6	48
HLD	52	72	4	48
HLD	52	72	6	48
TAP	52	144	4
TAP	52	144	6
XTP	52	192	3
XTP	52	192	7
XTP	52	264	3
XTP	52	264	7
HLD	53	0	1	72
HLD	53	72	2	72
TAP	53	144	3
TAP	53	192	3
TAP	53	288	4
TAP	53	288	5
HLD	54	0	6	72
TAP	54	72	7
TAP	54	144	0
TAP	54	144	5
HLD	54	192	1	72
TAP	54	264	0
TAP	54	336	3
TAP	54	336	7
HLD	55	0	4	48
HLD	55	0	6	48
HLD	55	72	4	48
HLD	55	72	6	48
TAP	55	144	4
TAP	55	144	6
XTP	55	192	3
XTP	55	192	7
XTP	55	264	3
XTP	55	264	7
XTP	56	0	2
XTP	56	0	4
XTP	56	72	4
XTP	56	72	5
TAP	56	144	3
TAP	56	144	6
BRK	56	192	3
BRK	56	192	6
BST	56	288	0
SCR	56	288	0	96	576	7
TTP	57	0	0	C	1	M1
STR	59	0	6
SI_	59	0	6	96	48	4
TAP	59	96	3
TAP	59	144	3
STR	59	192	2
SI_	59	192	2	96	48	4
TAP	59	288	5
TAP	59	336	5
STR	60	0	6
SI_	60	0	6	96	48	4
TAP	60	96	3
TAP	60	144	3
TAP	60	192	2
TAP	60	288	2
TAP	60	288	3
STR	61	0	1
SI_	61	0	1	96	48	3
TAP	61	96	4
TAP	61	144	4
STR	61	192	5
SI_	61	192	5	96	48	3
TAP	61	288	2
TAP	61	336	2
STR	62	0	1
SI_	62	0	1	96	48	3
TAP	62	96	4
TAP	62	144	4
STR	62	192	5
SI_	62	192	5	96	48	3
TAP	62	288	2
TAP	62	336	2
STR	63	0	1
SI_	63	0	1	96	48	4
TAP	63	96	5
TAP	63	144	5
STR	63	192	6
SI_	63	192	6	96	48	3
STR	63	288	2
SCL	63	288	2	96	192	5
BRK	64	288	7
HLD	65	0	2	96
HLD	65	0	3	144
HLD	65	192	4	144
HLD	65	192	5	96
HLD	66	0	2	96
HLD	66	0	3	144
TAP	66	192	3
TAP	66	192	4
XTP	66	288	7
HLD	67	0	4	144
HLD	67	0	6	96
HLD	67	192	1	96
HLD	67	192	3	144
HLD	68	0	4	144
HLD	68	0	6	96
TAP	68	192	3
TAP	68	192	4
XTP	68	288	0
HLD	69	0	1	96
HLD	69	96	3	96
HLD	69	192	4	96
HLD	69	288	6	96
HLD	70	0	1	96
HLD	70	96	3	96
HLD	70	192	4	96
HLD	70	288	6	96
TAP	71	0	4
TAP	71	48	4
TAP	71	96	5
TAP	71	144	5
TAP	71	192	2
TAP	71	240	2
TAP	71	288	3
TAP	71	336	3
TAP	72	0	1
TAP	72	48	1
TAP	72	96	6
TAP	72	144	6
STR	72	192	0
SI_	72	192	0	96	48	4
STR	72	192	7
SI_	72	192	7	96	48	3
BRK	73	0	1
BRK	73	0	6

T_REC_TAP	242
T_REC_BRK	9
T_REC_XTP	31
T_REC_HLD	71
T_REC_XHO	2
T_REC_STR	20
T_REC_BST	2
T_REC_XST	0
T_REC_TTP	14
T_REC_THO	0
T_REC_SLD	22
T_REC_ALL	413
T_NUM_TAP	307
T_NUM_BRK	11
T_NUM_HLD	73
T_NUM_SLD	22
T_NUM_ALL	413
T_JUDGE_TAP	318
T_JUDGE_HLD	273
T_JUDGE_SLD	22
T_JUDGE_ALL	613
TTM_EACHPAIRS	95
TTM_SCR_TAP	153500
TTM_SCR_BRK	28600
TTM_SCR_HLD	73000
TTM_SCR_SLD	33000
TTM_SCR_ALL	288100
TTM_SCR_S	278400
TTM_SCR_SS	287000
TTM_RAT_ACV	10038

