VERSION	0.00.00	1.03.00
FES_MODE	0
BPM_DEF	145.000	145.000	145.000	145.000
MET_DEF	4	4
RESOLUTION	384
CLK_DEF	384
COMPATIBLE_CODE	MA2

BPM	0	0	145.000
MET	0	0	4	4

TTP	1	0	4	E	0	L1
TTP	1	192	3	E	0	L1
TTP	2	0	2	E	0	L1
TTP	2	192	1	E	0	L1
TTP	3	0	0	E	0	L1
TTP	3	192	7	E	0	L1
TTP	4	0	6	E	0	L1
TTP	4	192	5	E	0	L1
XHO	5	0	2	192
HLD	5	192	3	192
HLD	6	0	4	192
TAP	6	192	5
HLD	7	0	6	192
HLD	7	192	7	192
HLD	8	0	0	192
TAP	8	192	1
TAP	9	0	2
TAP	9	96	2
TAP	9	192	3
TAP	9	288	3
TAP	10	0	4
TAP	10	96	4
TAP	10	192	3
TAP	10	192	5
TAP	11	0	6
TAP	11	96	6
TAP	11	192	7
TAP	11	288	7
TAP	12	0	0
TAP	12	96	0
TAP	12	192	0
TAP	12	192	7
TAP	13	0	1
TAP	13	96	1
TAP	13	192	0
TAP	13	288	0
TAP	14	0	7
TAP	14	96	7
TAP	14	192	0
TAP	14	192	6
TAP	15	0	5
TAP	15	96	5
TAP	15	192	4
TAP	15	288	4
TAP	16	0	3
TAP	16	96	3
TAP	16	192	2
TAP	16	192	4
HLD	17	0	5	96
TAP	17	96	4
TAP	17	192	4
HLD	18	0	2	96
TAP	18	96	3
TAP	18	192	3
HLD	19	0	5	96
TAP	19	96	4
TAP	19	192	4
HLD	20	0	2	96
HLD	20	0	3	96
TAP	20	192	2
TAP	20	192	3
HLD	21	0	1	96
TAP	21	96	0
TAP	21	192	0
HLD	22	0	6	96
TAP	22	96	7
TAP	22	192	7
HLD	23	0	1	96
TAP	23	96	0
TAP	23	192	0
HLD	24	0	0	96
HLD	24	0	7	96
TAP	24	192	1
TAP	24	192	6
TAP	25	0	5
TAP	25	96	5
TAP	25	192	4
TAP	25	192	5
TAP	26	0	2
TAP	26	96	2
TAP	26	192	2
TAP	26	192	3
TAP	27	0	5
TAP	27	96	5
TAP	27	192	4
TAP	27	192	5
TAP	28	0	3
TAP	28	96	3
TAP	28	192	2
TAP	28	192	4
TAP	29	0	1
TAP	29	96	1
TAP	29	192	0
TAP	29	192	1
TAP	30	0	6
TAP	30	96	6
TAP	30	192	6
TAP	30	192	7
TAP	31	0	1
TAP	31	96	1
TAP	31	192	0
TAP	31	192	1
TAP	32	0	7
TAP	32	96	0
TAP	32	96	7
TAP	32	192	1
TAP	32	192	6
TTP	33	0	4	B	0	L1
TTP	33	0	5	B	0	L1
TTP	33	192	6	B	0	L1
TTP	33	192	7	B	0	L1
TTP	34	0	0	B	0	L1
TTP	34	0	1	B	0	L1
TTP	34	192	2	B	0	L1
TTP	34	192	3	B	0	L1
TTP	35	0	4	B	0	L1
TTP	35	0	5	B	0	L1
TTP	35	192	6	B	0	L1
TTP	35	192	7	B	0	L1
TTP	36	0	0	B	0	L1
TTP	36	0	1	B	0	L1
TTP	36	192	2	B	0	L1
TTP	36	192	3	B	0	L1
XTP	37	0	5
XTP	37	96	5
TAP	37	192	6
TAP	37	288	6
TAP	38	0	7
TAP	38	96	7
TAP	38	192	0
TAP	38	288	0
TAP	39	0	1
TAP	39	96	2
TAP	39	192	3
TAP	39	288	4
XST	40	0	3
SI_	40	0	3	96	144	0
XST	40	0	4
SI_	40	0	4	96	144	7
BRK	41	0	6
TAP	41	96	6
TAP	41	192	6
TAP	41	192	7
TAP	41	288	6
TAP	41	288	7
TAP	42	0	5
TAP	42	96	4
TAP	42	192	3
TAP	42	288	2
TAP	43	0	1
TAP	43	96	1
TAP	43	192	0
TAP	43	192	1
TAP	43	288	0
TAP	43	288	1
TAP	44	0	2
TAP	44	96	3
TAP	44	192	2
TAP	44	192	4
TAP	45	0	5
TAP	45	96	5
TAP	45	192	4
TAP	45	192	5
TAP	45	288	4
TAP	45	288	5
TAP	46	0	6
TAP	46	96	7
TAP	46	192	0
TAP	46	288	1
TAP	47	0	2
TAP	47	96	2
TAP	47	192	2
TAP	47	192	3
TAP	47	288	2
TAP	47	288	3
TAP	48	0	1
TAP	48	96	0
TAP	48	96	7
TAP	48	192	1
TAP	48	192	6
HLD	49	0	5	96
TAP	49	96	4
TAP	49	192	3
TAP	49	192	6
HLD	50	0	2	96
TAP	50	96	3
TAP	50	192	1
TAP	50	192	4
XST	51	0	0
SI_	51	0	0	96	144	4
XST	51	0	1
SI_	51	0	1	96	144	4
XST	52	0	6
SI_	52	0	6	96	144	3
XST	52	0	7
SI_	52	0	7	96	144	3
HLD	53	0	2	96
TAP	53	96	3
TAP	53	192	1
TAP	53	192	4
HLD	54	0	5	96
TAP	54	96	4
TAP	54	192	3
TAP	54	192	6
XST	55	0	6
SI_	55	0	6	96	144	3
XST	55	0	7
SI_	55	0	7	96	144	3
TTP	56	0	0	C	1	L1
STR	57	0	0
SI_	57	0	0	96	144	4
STR	58	0	5
SI_	58	0	5	96	144	0
STR	59	0	1
SI_	59	0	1	96	144	4
TAP	60	0	5
TAP	60	96	5
TAP	60	192	4
TAP	60	192	5
STR	61	0	6
SI_	61	0	6	96	144	2
STR	62	0	1
SI_	62	0	1	96	144	4
STR	63	0	5
SI_	63	0	5	96	144	0
TAP	64	0	1
TAP	64	96	1
HLD	64	192	0	96
HLD	64	192	7	96
TTP	65	0	0	E	0	L1
TTP	65	192	1	E	0	L1
TTP	66	0	2	E	0	L1
TTP	66	192	3	E	0	L1
TTP	67	0	4	E	0	L1
TTP	67	192	5	E	0	L1
TTP	68	0	6	E	0	L1
TTP	68	192	7	E	0	L1
HLD	69	0	1	192
HLD	69	192	0	192
HLD	70	0	7	192
TAP	70	192	6
HLD	71	0	5	192
HLD	71	192	4	192
HLD	72	0	3	192
TAP	72	192	2
BRK	73	0	1
BRK	73	0	4

T_REC_TAP	153
T_REC_BRK	3
T_REC_XTP	2
T_REC_HLD	27
T_REC_XHO	1
T_REC_STR	6
T_REC_BST	0
T_REC_XST	8
T_REC_TTP	33
T_REC_THO	0
T_REC_SLD	14
T_REC_ALL	247
T_NUM_TAP	202
T_NUM_BRK	3
T_NUM_HLD	28
T_NUM_SLD	14
T_NUM_ALL	247
T_JUDGE_TAP	205
T_JUDGE_HLD	80
T_JUDGE_SLD	14
T_JUDGE_ALL	299
TTM_EACHPAIRS	39
TTM_SCR_TAP	101000
TTM_SCR_BRK	7800
TTM_SCR_HLD	28000
TTM_SCR_SLD	21000
TTM_SCR_ALL	157800
TTM_SCR_S	152800
TTM_SCR_SS	157500
TTM_RAT_ACV	10019

