VERSION	0.00.00	1.03.00
FES_MODE	0
BPM_DEF	145.000	145.000	145.000	145.000
MET_DEF	4	4
RESOLUTION	384
CLK_DEF	384
COMPATIBLE_CODE	MA2

BPM	0	0	145.000
MET	0	0	4	4

XTP	5	0	0
TAP	5	192	0
TAP	6	0	0
XTP	7	0	7
TAP	7	192	7
TAP	8	0	7
TAP	9	0	0
TAP	9	192	0
TAP	10	0	0
TAP	11	0	1
TAP	11	192	1
TAP	12	0	1
TAP	13	0	2
TAP	13	192	2
TAP	14	0	2
TAP	15	0	3
TAP	15	192	3
TAP	16	0	3
TAP	16	0	4
XTP	17	0	4
TAP	17	192	4
TAP	18	0	4
TAP	19	0	5
TAP	19	192	5
TAP	20	0	5
TAP	21	0	6
TAP	21	192	6
TAP	22	0	6
TAP	23	0	7
TAP	23	192	7
TAP	24	0	0
TAP	24	0	7
TAP	25	0	6
TAP	25	192	6
TAP	26	0	5
TAP	27	0	4
TAP	27	192	4
TAP	28	0	3
TAP	28	0	4
TAP	29	0	2
TAP	29	192	2
TAP	30	0	1
TAP	31	0	0
TAP	31	192	0
XTP	32	0	0
XTP	32	0	7
STR	33	0	0
SI_	33	0	0	96	288	3
STR	35	0	7
SI_	35	0	7	96	288	4
STR	37	0	3
SI_	37	0	3	96	288	0
HLD	39	0	7	384
BRK	41	0	0
TAP	41	96	0
TAP	41	192	0
TAP	42	0	1
TAP	42	192	1
TAP	43	0	2
TAP	43	96	2
TAP	43	192	2
TAP	44	0	3
TAP	44	192	3
TAP	44	192	4
TAP	45	0	4
TAP	45	96	4
TAP	45	192	4
TAP	46	0	5
TAP	46	192	5
TAP	47	0	6
TAP	47	96	6
TAP	47	192	6
TAP	48	0	7
TAP	48	192	0
TAP	48	192	7
TAP	49	0	6
TAP	49	96	6
TAP	49	192	6
TAP	50	0	5
TAP	50	192	4
TAP	50	192	5
TAP	51	0	3
TAP	51	96	3
TAP	51	192	3
TAP	52	0	2
TAP	52	192	2
TAP	52	192	3
TAP	53	0	1
TAP	53	96	1
TAP	53	192	1
TAP	54	0	0
TAP	54	192	0
TAP	54	192	7
TAP	55	0	7
TAP	55	96	7
TAP	55	192	7
TAP	56	0	0
TAP	56	96	0
BRK	56	192	0
XHO	57	0	0	192
XHO	57	0	1	192
TAP	58	0	1
TAP	58	192	2
HLD	59	0	2	192
HLD	59	0	3	192
TAP	60	0	3
TAP	60	192	4
HLD	61	0	4	192
HLD	61	0	5	192
TAP	62	0	5
TAP	62	192	6
HLD	63	0	6	192
HLD	63	0	7	192
TAP	64	0	6
TAP	64	0	7
TTP	65	0	7	B	0	L1
TTP	65	192	6	B	0	L1
TTP	66	0	5	B	0	L1
TTP	66	192	0	C	0	L1
TTP	67	0	0	B	0	L1
TTP	67	192	1	B	0	L1
TTP	68	0	2	B	0	L1
TTP	68	192	0	C	0	L1
TTP	69	0	0	B	0	L1
TTP	69	0	7	B	0	L1
TTP	69	192	1	B	0	L1
TTP	69	192	6	B	0	L1
TTP	70	0	2	B	0	L1
TTP	70	0	5	B	0	L1
TTP	70	192	3	B	0	L1
TTP	70	192	4	B	0	L1
TTP	71	0	2	B	0	L1
TTP	71	0	5	B	0	L1
TTP	71	192	1	B	0	L1
TTP	71	192	6	B	0	L1
TTP	72	0	0	B	0	L1
TTP	72	0	7	B	0	L1
THO	72	192	0	192	C	0	L1

T_REC_TAP	93
T_REC_BRK	2
T_REC_XTP	5
T_REC_HLD	7
T_REC_XHO	2
T_REC_STR	3
T_REC_BST	0
T_REC_XST	0
T_REC_TTP	22
T_REC_THO	1
T_REC_SLD	3
T_REC_ALL	138
T_NUM_TAP	123
T_NUM_BRK	2
T_NUM_HLD	10
T_NUM_SLD	3
T_NUM_ALL	138
T_JUDGE_TAP	125
T_JUDGE_HLD	44
T_JUDGE_SLD	3
T_JUDGE_ALL	172
TTM_EACHPAIRS	14
TTM_SCR_TAP	61500
TTM_SCR_BRK	5200
TTM_SCR_HLD	10000
TTM_SCR_SLD	4500
TTM_SCR_ALL	81200
TTM_SCR_S	78600
TTM_SCR_SS	81000
TTM_RAT_ACV	10024

