VERSION	0.00.00	1.03.00
FES_MODE	0
BPM_DEF	160.000	160.000	160.000	160.000
MET_DEF	4	4
RESOLUTION	384
CLK_DEF	384
COMPATIBLE_CODE	MA2

BPM	0	0	160.000
MET	0	0	4	4

THO	1	0	0	720	C	0	M1
STR	3	0	7
SI_	3	0	7	96	192	3
XTP	3	192	2
STR	4	0	0
SI_	4	0	0	96	192	4
XTP	4	192	5
STR	5	0	7
SI_	5	0	7	96	192	3
XTP	5	192	2
STR	6	0	0
SI_	6	0	0	96	192	4
XTP	6	192	5
STR	7	0	7
SSR	7	0	7	96	240	3
XTP	7	192	2
STR	8	0	0
SSL	8	0	0	96	240	4
XTP	8	192	5
STR	9	0	6
SSL	9	0	6	96	240	2
XTP	9	192	3
STR	10	0	1
SSR	10	0	1	96	240	5
XTP	10	192	4
HLD	11	0	6	288
TAP	11	96	4
TAP	11	192	4
STR	11	288	4
SV_	11	288	4	96	192	1
TAP	12	0	5
TAP	12	96	5
TAP	12	192	4
TAP	12	288	1
TAP	12	288	4
HLD	13	0	1	288
TAP	13	96	3
TAP	13	192	3
STR	13	288	3
SV_	13	288	3	96	192	6
TAP	14	0	2
TAP	14	96	2
TAP	14	192	3
TAP	14	288	3
TAP	14	288	6
TAP	15	0	5
TAP	15	48	5
TAP	15	96	3
TAP	15	144	3
TAP	15	192	4
TAP	15	240	4
TAP	15	288	2
TAP	15	336	2
TAP	16	0	6
TAP	16	48	6
TAP	16	96	4
TAP	16	144	4
TAP	16	192	3
TAP	16	240	3
TAP	16	288	1
TAP	16	336	1
TAP	17	0	5
TAP	17	24	3
TAP	17	48	4
TAP	17	72	3
TAP	17	96	4
TAP	17	120	3
TAP	17	144	4
TAP	17	168	3
TAP	17	192	5
TAP	17	216	3
TAP	17	240	4
TAP	17	264	3
TAP	17	288	4
TAP	17	312	3
TAP	17	336	4
TAP	17	360	3
TTP	18	0	4	B	0	M1
TTP	18	12	5	B	0	M1
TTP	18	24	6	B	0	M1
TTP	18	36	7	B	0	M1
TTP	18	48	0	B	0	M1
TTP	18	60	1	B	0	M1
TTP	18	72	2	B	0	M1
TTP	18	84	3	B	0	M1
TTP	18	96	4	E	0	M1
TTP	18	108	5	E	0	M1
TTP	18	120	6	E	0	M1
TTP	18	132	7	E	0	M1
TTP	18	144	0	E	0	M1
TTP	18	156	1	E	0	M1
TTP	18	168	2	E	0	M1
TTP	18	180	3	E	0	M1
TTP	18	192	0	C	1	M1
TAP	19	0	0
TAP	19	24	7
TAP	19	72	7
TAP	19	96	1
TAP	19	144	1
TAP	19	168	3
TAP	19	192	2
TAP	19	216	4
HLD	19	240	3	48
TAP	19	288	6
TAP	19	336	6
TAP	19	360	4
TAP	20	0	5
TAP	20	24	3
HLD	20	48	4	48
TAP	20	96	1
TAP	20	144	1
TAP	20	168	3
TAP	20	192	2
TAP	20	216	4
HLD	20	240	3	48
TAP	20	288	6
TAP	20	336	6
TAP	20	360	4
TAP	21	0	5
TAP	21	24	3
HLD	21	48	4	48
TAP	21	96	2
TAP	21	144	1
TAP	21	168	3
TAP	21	192	2
TAP	21	216	4
HLD	21	240	3	48
TAP	21	288	5
TAP	21	336	5
TAP	21	360	3
TAP	22	0	4
TAP	22	24	2
TAP	22	48	3
TAP	22	72	1
TAP	22	96	4
TAP	22	120	1
TAP	22	144	5
TAP	22	168	2
TAP	22	192	4
TAP	22	216	3
TAP	22	240	5
TAP	22	288	2
TAP	22	288	6
TAP	22	336	7
TAP	22	360	0
TAP	23	24	0
TAP	23	48	7
XTP	23	96	1
XTP	23	96	5
TAP	23	144	6
TAP	23	168	2
TAP	23	192	5
TAP	23	216	3
HLD	23	240	4	48
TAP	23	288	3
TAP	23	336	1
TAP	23	360	5
TAP	24	0	2
TAP	24	24	4
HLD	24	48	3	48
TAP	24	96	4
TAP	24	144	2
TAP	24	168	3
TAP	24	216	5
TAP	24	240	4
TAP	24	288	6
TAP	24	312	4
TAP	24	336	5
TAP	24	360	2
XST	25	0	3
SCR	25	0	3	96	96	6
XTP	25	192	7
TAP	25	288	0
TAP	25	288	6
XTP	25	336	0
XTP	25	336	6
XTP	25	352	5
XTP	25	368	4
XHO	26	0	3	96
TAP	26	96	2
TAP	26	168	3
TAP	26	168	4
TAP	26	240	4
TAP	26	240	5
TAP	26	288	3
TAP	26	288	6
TAP	26	336	5
TAP	26	360	4
XST	27	0	6
SUL	27	0	6	96	96	2
XTP	27	72	3
XTP	27	192	0
TAP	27	288	1
TAP	27	288	3
TAP	27	320	1
TAP	27	320	3
TAP	27	352	1
TAP	27	352	3
HLD	28	0	1	48
HLD	28	0	3	48
HLD	28	72	3	48
HLD	28	72	4	48
TAP	28	144	5
TAP	28	168	4
XTP	28	192	6
TAP	28	240	3
HLD	28	288	2	96
TAP	28	288	7
XTP	28	336	7
XTP	28	352	6
XTP	28	368	5
XST	29	0	4
SUR	29	0	4	96	96	0
TAP	29	72	3
XTP	29	144	2
STR	29	192	1
SUR	29	192	1	96	96	5
TAP	29	264	7
XTP	29	336	6
TAP	30	0	6
TAP	30	48	6
TAP	30	72	4
TAP	30	120	4
TAP	30	144	3
TAP	30	192	2
TAP	30	192	3
TAP	30	240	1
TAP	30	264	4
TAP	30	312	5
TAP	30	336	3
XST	31	0	6
SUL	31	0	6	96	96	2
XTP	31	72	2
XTP	31	192	0
TAP	31	288	1
TAP	31	288	3
TAP	31	320	1
TAP	31	320	3
TAP	31	352	1
TAP	31	352	3
HLD	32	0	1	48
HLD	32	0	3	48
HLD	32	72	3	48
HLD	32	72	4	48
TAP	32	144	5
TAP	32	168	4
TAP	32	192	6
TAP	32	240	2
HLD	32	288	0	96
TAP	32	288	6
XTP	32	336	6
XTP	32	352	5
XTP	32	368	4
XST	33	0	3
SUR	33	0	3	96	96	7
TAP	33	72	2
XTP	33	144	0
STR	33	192	1
SUR	33	192	1	96	96	5
TAP	33	264	0
XTP	33	336	7
HLD	34	0	6	324
TAP	34	324	7
TAP	34	336	0
TAP	34	352	1
TAP	34	368	2
BST	35	0	3
SI_	35	0	3	96	240	7
BST	35	0	7
SSL	35	0	7	96	240	3
HLD	36	0	0	288
XTP	36	0	4
STR	36	288	7
SV_	36	288	7	96	48	1
SV_	36	288	7	96	48	5
BST	37	0	7
SSL	37	0	7	96	240	3
SSR	37	0	7	96	240	3
HLD	38	0	1	288
XTP	38	0	5
STR	38	288	0
SI_	38	288	0	96	48	3
SI_	38	288	0	96	48	5
BST	39	0	0
SUL	39	0	0	96	240	5
SUR	39	0	0	96	240	3
XTP	40	0	2
HLD	40	0	6	288
STR	40	288	7
SLL	40	288	7	96	48	3
SLR	40	288	7	96	48	3
BST	41	0	7
SLL	41	0	7	96	240	1
SLR	41	0	7	96	240	5
XTP	42	0	1
XTP	42	0	5
TAP	42	192	0
TAP	42	192	7
TAP	42	224	0
TAP	42	224	7
TAP	42	256	0
TAP	42	256	7
TAP	42	288	1
TAP	42	288	6
BST	43	0	2
SI_	43	0	2	96	32	7
TAP	43	64	6
STR	43	96	6
SI_	43	96	6	96	32	3
TAP	43	160	1
STR	43	192	1
SI_	43	192	1	96	32	5
TAP	43	256	7
STR	43	288	7
SCR	43	288	7	96	192	6
TAP	43	352	4
TAP	44	0	4
TAP	44	64	7
TAP	44	96	7
TAP	44	160	3
TAP	44	192	3
TAP	44	256	1
XTP	44	288	1
XTP	44	288	7
STR	45	0	5
SI_	45	0	5	96	32	0
TAP	45	64	1
STR	45	96	1
SI_	45	96	1	96	32	4
TAP	45	160	6
STR	45	192	6
SI_	45	192	6	96	32	3
TAP	45	256	0
STR	45	288	0
SSL	45	288	0	96	96	4
TAP	45	352	4
STR	46	0	4
SSL	46	0	4	96	96	0
TAP	46	64	5
TAP	46	96	5
TAP	46	160	6
TAP	46	192	6
TAP	46	256	7
XTP	46	288	2
XTP	46	288	7
STR	47	0	1
SI_	47	0	1	96	32	4
TAP	47	64	4
STR	47	96	5
SI_	47	96	5	96	32	0
TAP	47	160	3
STR	47	192	2
SI_	47	192	2	96	32	7
TAP	47	256	3
STR	47	288	4
SSL	47	288	4	96	96	0
TAP	47	352	0
STR	48	0	0
SSL	48	0	0	96	96	4
TAP	48	64	3
TAP	48	96	3
TAP	48	160	1
TAP	48	192	1
TAP	48	256	0
TAP	48	288	0
TAP	48	320	7
TAP	48	352	0
XHO	49	0	1	64
BRK	49	0	5
TAP	49	64	3
HLD	49	96	3	64
TAP	49	160	4
HLD	49	192	4	64
TAP	49	256	6
TAP	49	288	6
TAP	49	352	1
TAP	49	352	7
XTP	50	0	1
XTP	50	0	7
XTP	50	16	2
XTP	50	32	3
XTP	50	48	4
XTP	50	64	5
XTP	50	80	6
XTP	50	96	7
XTP	50	112	0
XTP	50	128	1
XTP	50	144	2
XTP	50	160	3
XTP	50	176	4
XTP	50	192	6
XTP	50	208	7
XTP	50	224	6
XTP	50	240	7
XHO	50	256	5	128
TTP	51	0	0	C	1	M1
TTP	53	0	4	E	0	M1
TTP	53	96	5	E	0	M1
TTP	53	120	4	B	0	M1
TTP	53	144	3	B	0	M1
TTP	53	168	3	E	0	M1
TTP	53	240	1	B	0	M1
TTP	53	240	2	E	0	M1
TTP	53	312	6	B	0	M1
TTP	53	312	6	E	0	M1
TTP	54	0	0	C	0	M1
TTP	54	72	7	B	0	M1
TTP	54	72	7	E	0	M1
TTP	54	144	5	B	0	M1
TTP	54	144	6	E	0	M1
TTP	54	192	3	B	0	M1
TTP	54	192	3	E	0	M1
TTP	54	264	1	B	0	M1
TTP	54	264	2	E	0	M1
TTP	54	336	0	C	0	M1
TAP	55	0	6
HLD	55	96	6	288
HLD	55	192	3	96
HLD	56	0	2	384
TAP	56	96	3
HLD	56	192	4	96
HLD	57	0	5	288
TAP	57	96	4
HLD	57	192	3	96
HLD	58	0	2	96
HLD	58	0	4	96
STR	58	192	3
SI_	58	192	3	96	48	7
TAP	58	192	5
BRK	59	0	1
BRK	59	0	5
TAP	59	96	2
TAP	59	120	3
TAP	59	144	2
HLD	59	192	1	48
HLD	59	192	4	48
HLD	59	264	2	48
HLD	59	264	5	48
STR	59	336	3
SCR	59	336	3	96	240	1
HLD	59	336	6	336
XTP	61	0	2
XTP	61	0	6
TAP	61	96	5
TAP	61	120	4
TAP	61	144	5
HLD	61	192	3	48
HLD	61	192	6	48
HLD	61	264	2	48
HLD	61	264	5	48
HLD	61	336	1	240
STR	61	336	4
SI_	61	336	4	96	144	0
TAP	62	288	1
TAP	62	320	1
TAP	62	352	7
XTP	63	0	2
XTP	63	0	6
TAP	63	96	5
TAP	63	120	4
TAP	63	144	5
HLD	63	192	4	48
HLD	63	192	6	48
HLD	63	264	1	48
HLD	63	264	3	48
XST	63	336	4
SCR	63	336	4	96	240	2
XHO	63	336	5	336
XTP	65	0	2
XTP	65	0	5
TAP	65	96	4
TAP	65	120	3
TAP	65	144	4
TAP	65	192	1
TAP	65	192	6
TAP	65	240	1
TAP	65	240	6
TAP	65	288	3
TAP	65	312	4
TAP	65	336	3
XHO	65	360	2	120
XHO	65	360	5	120
TAP	66	192	3
TAP	66	216	4
TAP	66	240	3
TAP	66	264	4
TAP	66	288	3
TAP	66	312	4
TAP	66	336	3
TAP	66	360	4
HLD	67	0	2	72
TAP	67	72	3
TAP	67	96	2
TAP	67	144	1
TAP	67	144	4
HLD	67	192	5	72
TAP	67	264	4
TAP	67	288	5
TAP	67	336	3
TAP	67	336	6
HLD	68	0	2	72
TAP	68	72	3
TAP	68	96	1
TAP	68	144	0
TAP	68	144	4
HLD	68	192	5	72
TAP	68	264	4
TAP	68	288	6
TAP	68	336	3
TAP	68	336	7
HLD	69	0	2	72
TAP	69	72	3
TAP	69	96	1
TAP	69	144	0
TAP	69	144	5
HLD	69	192	6	72
TAP	69	264	7
TAP	69	288	5
TAP	69	336	0
TAP	69	336	4
HLD	70	0	1	72
TAP	70	72	0
TAP	70	96	2
TAP	70	144	3
TAP	70	144	7
HLD	70	192	6	72
TAP	70	264	7
TAP	70	288	5
TAP	70	336	0
TAP	70	336	4
TAP	71	0	1
TAP	71	0	3
TAP	71	48	1
TAP	71	96	2
TAP	71	96	5
TAP	71	144	5
TAP	71	192	4
TAP	71	192	6
TAP	71	240	4
TAP	71	288	3
TAP	71	288	5
TAP	71	336	5
TAP	72	0	3
TAP	72	24	4
TAP	72	48	3
TAP	72	72	4
TAP	72	96	2
TAP	72	120	5
TAP	72	144	2
TAP	72	168	5
TAP	72	192	1
TAP	72	216	6
TAP	72	240	1
TAP	72	264	6
TAP	72	288	0
TAP	72	312	7
TAP	72	336	0
TAP	72	360	7
XTP	73	0	0
XTP	73	16	1
XTP	73	32	2
XTP	73	48	3
XTP	73	64	4
XTP	73	80	5
XTP	73	96	6
XTP	73	112	7
XTP	73	128	0
XTP	73	144	1
XTP	73	160	2
XTP	73	176	3
TTP	73	192	6	E	0	M1
TTP	73	204	5	B	0	M1
TTP	73	216	4	B	0	M1
TTP	73	228	4	E	0	M1
TTP	73	240	2	E	0	M1
TTP	73	252	2	B	0	M1
TTP	73	264	3	B	0	M1
TTP	73	276	4	E	0	M1
TTP	73	288	7	E	0	M1
TTP	73	300	6	B	0	M1
TTP	73	312	5	B	0	M1
TTP	73	324	5	E	0	M1
TTP	73	336	1	E	0	M1
TTP	73	348	1	B	0	M1
TTP	73	360	2	B	0	M1
TTP	73	372	3	E	0	M1
XHO	74	0	7	192
TAP	74	192	0
TAP	74	208	7
TAP	74	224	0
TAP	74	240	7
BRK	74	288	2
BRK	74	288	5
TAP	75	0	3
TAP	75	0	4
TAP	75	48	0
TAP	75	72	7
TAP	75	96	4
TAP	75	120	5
TAP	75	144	2
TAP	75	168	3
TAP	75	192	0
TAP	75	240	1
HLD	75	240	7	48
BRK	75	288	1
TAP	75	304	2
TAP	75	320	3
TAP	75	336	6
TAP	75	360	7
TAP	76	0	6
TAP	76	24	0
TAP	76	48	3
TAP	76	72	2
TAP	76	96	6
TAP	76	120	3
TAP	76	144	5
TAP	76	168	4
TAP	76	192	0
TAP	76	216	1
TAP	76	240	7
TAP	76	264	4
TAP	76	288	5
TAP	76	336	2
TAP	76	336	4
TAP	77	0	1
TAP	77	0	5
TAP	77	48	6
TAP	77	72	0
TAP	77	96	3
TAP	77	120	2
TAP	77	144	5
TAP	77	168	4
TAP	77	192	0
TAP	77	240	1
HLD	77	240	7	48
BRK	77	288	1
TAP	77	304	2
TAP	77	320	3
TAP	77	336	6
TAP	77	360	7
TAP	78	0	5
TAP	78	24	0
TAP	78	48	3
TAP	78	72	2
TAP	78	96	6
TAP	78	120	4
TAP	78	144	7
TAP	78	168	0
TAP	78	192	3
TAP	78	216	2
TAP	78	240	4
TAP	78	264	1
TAP	78	288	7
TAP	78	304	6
TAP	78	320	5
TAP	78	336	0
TAP	78	352	1
TAP	78	368	2
TAP	79	0	3
TAP	79	0	4
TAP	79	48	6
TAP	79	72	7
TAP	79	96	5
TAP	79	120	2
TAP	79	144	3
TAP	79	168	1
TAP	79	192	7
HLD	79	240	0	48
TAP	79	240	6
BRK	79	288	6
TAP	79	304	5
TAP	79	320	4
TAP	79	336	2
TAP	79	360	3
TAP	80	0	1
TAP	80	24	7
TAP	80	48	4
TAP	80	72	5
TAP	80	96	0
TAP	80	120	7
TAP	80	144	4
TAP	80	168	6
TAP	80	192	1
TAP	80	216	3
TAP	80	240	0
TAP	80	264	7
TAP	80	288	4
TAP	80	336	3
TAP	80	336	5
TAP	81	0	2
TAP	81	0	6
TAP	81	48	1
TAP	81	72	7
TAP	81	96	4
TAP	81	120	5
TAP	81	144	2
TAP	81	168	3
TAP	81	192	7
TAP	81	240	0
TAP	81	240	6
TAP	81	288	0
BRK	81	288	6
TAP	81	304	5
TAP	81	320	4
TAP	81	336	2
TAP	81	360	3
TAP	82	0	1
TAP	82	24	1
TAP	82	48	7
TAP	82	72	0
TAP	82	96	5
TAP	82	120	5
TAP	82	144	4
BRK	82	168	3
BRK	82	168	6
TAP	82	216	1
TAP	82	216	4
TAP	82	240	1
TAP	82	240	4
BRK	82	288	0
TTP	82	288	0	C	1	M1
STR	83	0	7
SI_	83	0	7	96	48	2
SI_	83	0	7	96	48	4
TAP	83	48	7
XTP	83	96	7
TTP	83	104	0	C	1	M1
TAP	83	192	1
TAP	83	240	1
TAP	83	240	7
BRK	83	288	1
TAP	83	288	7
TAP	83	304	2
TAP	83	320	3
TAP	83	336	5
TAP	83	360	5
HLD	84	0	7	0
TAP	84	24	0
TAP	84	48	1
HLD	84	48	4	0
TAP	84	72	2
HLD	84	96	0	0
TAP	84	96	3
TAP	84	120	7
HLD	84	144	2	0
TAP	84	144	6
TAP	84	168	5
HLD	84	192	0	0
TAP	84	192	4
TAP	84	216	1
TAP	84	240	2
HLD	84	240	6	0
TAP	84	264	3
HLD	84	288	0	0
TAP	84	288	4
TAP	84	336	2
TAP	84	336	6
TAP	85	0	5
TAP	85	24	4
TAP	85	48	6
TAP	85	72	0
TAP	85	96	3
TAP	85	120	2
TAP	85	144	5
TAP	85	168	4
TAP	85	192	7
TAP	85	240	0
TAP	85	240	6
TAP	85	288	0
BRK	85	288	6
TAP	85	304	5
TAP	85	320	4
TAP	85	336	2
TAP	85	360	2
HLD	86	0	0	0
TAP	86	24	7
HLD	86	48	3	0
TAP	86	48	6
TAP	86	72	5
TAP	86	96	4
HLD	86	96	7	0
TAP	86	120	0
TAP	86	144	1
HLD	86	144	5	0
TAP	86	168	2
TAP	86	192	3
HLD	86	192	7	0
TAP	86	216	6
HLD	86	240	1	0
TAP	86	240	5
TAP	86	264	4
TTP	86	288	1	E	0	M1
TAP	86	288	3
TTP	86	300	2	E	0	M1
TTP	86	312	3	E	0	M1
TTP	86	324	4	E	0	M1
TTP	86	336	5	E	0	M1
TTP	86	348	6	E	0	M1
TTP	86	360	7	E	0	M1
TTP	86	372	0	E	0	M1
TTP	87	0	0	C	1	M1
TTP	87	0	1	E	0	M1
XTP	87	336	2
XTP	87	336	3
TTP	88	0	0	C	1	M1
BRK	88	0	7
TAP	88	288	0
TAP	88	312	7
TAP	88	336	0
TAP	88	360	7
XTP	89	0	1
XTP	89	0	6
TAP	89	48	1
TAP	89	48	6
TAP	89	96	2
TAP	89	96	3
TAP	89	144	2
TAP	89	144	3
TAP	89	192	4
TAP	89	192	5
TAP	89	240	4
TAP	89	240	5
TAP	89	288	6
TAP	89	312	2
TAP	89	336	6
TAP	89	360	2
TAP	90	0	5
TAP	90	24	3
TAP	90	48	4
TAP	90	72	1
TAP	90	96	3
TAP	90	120	2
TAP	90	144	7
TAP	90	168	0
TAP	90	192	7
TAP	90	204	6
TAP	90	216	5
TAP	90	228	4
TAP	90	240	3
TAP	90	252	2
TAP	90	264	1
TAP	90	276	0
BRK	90	288	7
BRK	91	0	1
TAP	91	24	3
TAP	91	48	2
TAP	91	72	6
TAP	91	96	4
TAP	91	120	5
BRK	91	144	0
TAP	91	168	3
TAP	91	192	2
TAP	91	216	7
TAP	91	240	4
TAP	91	264	5
TAP	91	288	3
TAP	91	312	4
TAP	91	336	3
TAP	91	360	4
TTP	92	0	1	B	0	M1
TTP	92	0	2	E	0	M1
TAP	92	24	3
TAP	92	48	2
TTP	92	72	6	B	0	M1
TTP	92	72	6	E	0	M1
TAP	92	96	4
TAP	92	120	5
TTP	92	144	0	B	0	M1
TTP	92	144	1	E	0	M1
TAP	92	168	3
TAP	92	192	2
TTP	92	216	7	B	0	M1
TTP	92	216	7	E	0	M1
TAP	92	240	4
TAP	92	264	5
TAP	92	288	3
TAP	92	312	4
TAP	92	336	2
TAP	92	360	5
HLD	93	0	1	12
TAP	93	24	3
TAP	93	48	2
HLD	93	72	6	12
TAP	93	96	4
TAP	93	120	5
HLD	93	144	0	12
TAP	93	168	2
TAP	93	192	1
HLD	93	216	7	12
TAP	93	240	5
TAP	93	264	6
HLD	93	288	3	12
TAP	93	312	4
TAP	93	336	3
TAP	93	360	4
TTP	94	0	2	E	0	M1
TTP	94	12	1	B	0	M1
TAP	94	24	3
TAP	94	48	2
TTP	94	72	6	E	0	M1
TTP	94	84	6	B	0	M1
TAP	94	96	4
TAP	94	120	5
TTP	94	144	1	E	0	M1
TTP	94	152	1	B	0	M1
TAP	94	168	3
TAP	94	192	2
TTP	94	216	7	E	0	M1
TTP	94	224	6	B	0	M1
TAP	94	240	4
TAP	94	264	5
TTP	94	288	2	E	0	M1
TTP	94	300	2	B	0	M1
XTP	94	312	3
XTP	94	336	1
TAP	94	360	4
HLD	95	0	0	24
HLD	95	24	5	24
HLD	95	48	0	24
HLD	95	72	5	24
HLD	95	96	1	24
HLD	95	120	6	24
HLD	95	144	1	24
HLD	95	168	6	24
HLD	95	192	2	24
HLD	95	216	7	24
HLD	95	240	2	24
HLD	95	264	7	24
HLD	95	288	4	24
HLD	95	312	5	24
HLD	95	336	4	24
HLD	95	360	5	24
HLD	96	0	7	24
HLD	96	24	6	24
HLD	96	48	7	24
HLD	96	72	6	24
HLD	96	96	2	24
HLD	96	120	3	24
HLD	96	144	2	24
HLD	96	168	3	24
HLD	96	192	1	24
HLD	96	216	4	24
HLD	96	240	1	24
HLD	96	264	4	24
HLD	96	288	0	24
HLD	96	312	7	24
HLD	96	336	0	24
HLD	96	360	7	24
TAP	97	0	1
TAP	97	12	2
TAP	97	24	3
TAP	97	36	4
TAP	97	48	5
TAP	97	60	6
TAP	97	72	7
TAP	97	84	0
XST	97	96	1
SI_	97	96	1	96	24	5
XTP	97	96	3
BRK	97	192	1
XTP	97	192	7
TTP	97	200	1	B	0	M1
TTP	97	208	0	C	1	M1
TTP	97	216	5	B	0	M1
XTP	97	264	0
BRK	97	264	7
TTP	97	272	7	B	0	M1
TTP	97	280	0	C	1	M1
TTP	97	288	3	B	0	M1
BRK	97	336	0
BST	97	336	5
SCR	97	336	5	96	288	2
TTP	97	344	0	B	0	M1
TTP	97	352	0	C	1	M1
TTP	97	360	4	B	0	M1
BRK	99	0	0
TTP	99	0	0	C	1	M1

T_REC_TAP	562
T_REC_BRK	22
T_REC_XTP	84
T_REC_HLD	108
T_REC_XHO	7
T_REC_STR	32
T_REC_BST	7
T_REC_XST	7
T_REC_TTP	94
T_REC_THO	1
T_REC_SLD	53
T_REC_ALL	977
T_NUM_TAP	779
T_NUM_BRK	29
T_NUM_HLD	116
T_NUM_SLD	53
T_NUM_ALL	977
T_JUDGE_TAP	808
T_JUDGE_HLD	222
T_JUDGE_SLD	53
T_JUDGE_ALL	1083
TTM_EACHPAIRS	108
TTM_SCR_TAP	389500
TTM_SCR_BRK	75400
TTM_SCR_HLD	116000
TTM_SCR_SLD	79500
TTM_SCR_ALL	660400
TTM_SCR_S	637800
TTM_SCR_SS	657500
TTM_RAT_ACV	10044

