VERSION	0.00.00	1.03.00
FES_MODE	0
BPM_DEF	160.000	160.000	160.000	160.000
MET_DEF	4	4
RESOLUTION	384
CLK_DEF	384
COMPATIBLE_CODE	MA2

BPM	0	0	160.000
MET	0	0	4	4

THO	1	0	0	384	C	0	M1
TTP	1	0	2	B	0	M1
TTP	1	0	3	B	0	M1
TTP	1	0	4	B	0	M1
TTP	1	0	5	B	0	M1
XTP	3	0	3
XHO	3	0	5	384
TAP	3	192	4
HLD	4	0	2	384
TAP	4	192	3
HLD	5	0	6	384
TAP	5	192	4
HLD	6	0	1	384
TAP	6	192	3
HLD	7	0	4	384
TAP	7	192	5
HLD	8	0	3	384
TAP	8	192	2
HLD	9	0	7	384
TAP	9	192	6
HLD	10	0	0	384
TAP	10	192	1
TAP	11	0	7
TAP	11	96	7
TAP	11	192	4
TAP	11	192	6
TAP	11	288	4
TAP	11	288	6
TAP	12	0	5
TAP	12	96	5
TAP	12	192	2
TAP	12	192	4
TAP	12	288	2
TAP	12	288	4
TAP	13	0	3
TAP	13	96	3
TAP	13	192	2
TAP	13	192	4
TAP	13	288	2
TAP	13	288	4
TAP	14	0	1
TAP	14	96	1
TAP	14	192	0
TAP	14	192	6
TAP	14	288	0
TAP	14	288	6
TAP	15	0	7
TAP	15	48	7
TAP	15	96	6
TAP	15	144	6
TAP	15	192	5
TAP	15	240	5
TAP	15	288	4
TAP	15	336	4
TAP	16	0	3
TAP	16	48	3
TAP	16	96	2
TAP	16	144	2
TAP	16	192	1
TAP	16	240	1
TAP	16	288	0
TAP	16	336	0
XTP	17	0	7
XTP	17	24	6
XTP	17	48	5
XTP	17	72	4
XTP	17	96	3
XTP	17	120	2
XTP	17	144	1
XTP	17	168	0
XTP	17	192	7
XTP	17	216	6
XTP	17	240	5
XTP	17	264	4
XTP	17	288	3
XTP	17	312	2
XTP	17	336	1
XTP	17	360	0
XHO	18	0	7	192
TTP	18	192	0	C	1	M1
TTP	18	192	3	B	0	M1
TTP	18	192	4	B	0	M1
HLD	19	0	6	72
HLD	19	72	5	72
TAP	19	144	4
HLD	19	192	3	72
HLD	19	264	2	72
TAP	19	336	1
HLD	20	0	1	72
HLD	20	72	2	72
TAP	20	144	3
HLD	20	192	6	72
HLD	20	264	5	72
TAP	20	336	4
HLD	21	0	1	72
HLD	21	72	2	72
TAP	21	144	3
HLD	21	192	4	72
HLD	21	264	5	72
TAP	21	336	6
HLD	22	0	6	72
HLD	22	72	5	72
TAP	22	144	4
TAP	22	192	3
TAP	22	240	3
TAP	22	288	2
TAP	22	288	4
HLD	23	0	1	72
HLD	23	72	2	72
TAP	23	144	3
HLD	23	192	4	72
HLD	23	264	5	72
TAP	23	336	6
HLD	24	0	6	72
HLD	24	72	5	72
TAP	24	144	4
HLD	24	192	1	72
HLD	24	264	2	72
TAP	24	336	3
XST	25	0	3
SV_	25	0	3	96	48	0
SV_	25	0	3	96	48	6
XST	25	192	7
SV_	25	192	7	96	48	2
SV_	25	192	7	96	48	4
XST	26	0	3
SI_	26	0	3	96	48	0
SI_	26	0	3	96	48	6
XHO	26	192	7	96
XTP	26	288	0
TAP	27	0	2
TAP	27	0	3
HLD	27	72	1	120
TAP	27	72	4
TAP	27	192	3
XTP	27	288	2
XTP	27	320	3
XTP	27	352	4
XTP	28	0	5
TAP	28	72	3
TAP	28	72	6
TAP	28	144	4
TAP	28	144	5
STR	28	192	4
SI_	28	192	4	96	48	0
TAP	28	192	5
TAP	28	288	6
HLD	29	0	7	192
TAP	29	96	5
HLD	29	192	0	192
TAP	29	288	2
TAP	30	0	5
STR	30	96	2
SCL	30	96	2	96	96	7
STR	30	96	6
SCL	30	96	6	96	96	3
TAP	31	0	4
TAP	31	0	5
TAP	31	72	3
HLD	31	72	6	120
TAP	31	192	4
XTP	31	288	5
XTP	31	320	4
XTP	31	352	3
XTP	32	0	2
TAP	32	72	1
TAP	32	72	4
TAP	32	144	2
TAP	32	144	3
TAP	32	192	2
STR	32	192	3
SI_	32	192	3	96	48	7
TAP	32	288	1
HLD	33	0	0	96
HLD	33	96	2	96
HLD	33	192	4	96
STR	33	288	6
SI_	33	288	6	96	48	2
TTP	34	0	0	C	1	M1
STR	34	288	0
SCR	34	288	0	96	384	6
THO	35	0	0	384	C	0	M1
STR	36	288	7
SCL	36	288	7	96	384	1
THO	37	0	0	384	C	0	M1
STR	38	288	1
SLR	38	288	1	96	384	6
THO	39	0	0	384	C	0	M1
STR	40	288	6
SLL	40	288	6	96	384	1
THO	41	0	0	384	C	0	M1
XTP	42	192	0
XTP	42	192	7
XTP	42	288	2
XTP	42	288	5
TAP	43	0	4
TAP	43	64	4
TAP	43	96	3
TAP	43	160	3
TAP	43	192	4
TAP	43	256	4
TAP	43	288	3
TAP	43	352	3
TAP	44	0	5
TAP	44	64	5
TAP	44	96	7
TAP	44	160	7
TAP	44	192	0
TAP	44	256	0
TAP	44	288	2
TAP	44	352	2
TAP	45	0	4
TAP	45	64	4
TAP	45	96	3
TAP	45	160	3
TAP	45	192	4
TAP	45	256	4
TAP	45	288	3
TAP	45	352	3
TAP	46	0	6
TAP	46	64	6
TAP	46	96	4
TAP	46	160	4
TAP	46	192	3
TAP	46	256	3
TAP	46	288	1
TAP	47	0	3
TAP	47	0	5
TAP	47	64	3
TAP	47	96	4
TAP	47	160	4
TAP	47	192	3
TAP	47	256	3
TAP	47	288	4
TAP	47	352	4
TAP	48	0	2
TAP	48	64	2
TAP	48	96	0
TAP	48	160	0
TAP	48	192	7
TAP	48	256	7
TAP	48	288	5
TAP	48	352	5
TAP	49	0	3
TAP	49	64	3
TAP	49	96	4
TAP	49	160	4
TAP	49	192	3
TAP	49	256	3
TAP	49	288	4
TAP	49	352	4
TAP	50	0	1
TAP	50	64	1
TAP	50	96	3
TAP	50	160	3
TAP	50	192	4
TAP	50	256	4
STR	50	288	6
SCR	50	288	6	96	384	3
THO	51	0	0	384	C	0	M1
STR	53	0	1
SCR	53	0	1	96	288	6
TTP	55	96	5	E	0	M1
TTP	55	120	4	B	0	M1
TTP	55	144	3	B	0	M1
TTP	55	168	3	E	0	M1
TTP	55	240	5	B	0	M1
TTP	55	240	6	E	0	M1
TTP	55	312	1	B	0	M1
TTP	55	312	2	E	0	M1
TTP	56	0	0	E	0	M1
TTP	56	0	7	B	0	M1
TTP	57	96	3	E	0	M1
TTP	57	120	3	B	0	M1
TTP	57	144	4	B	0	M1
TTP	57	168	5	E	0	M1
TTP	57	240	2	B	0	M1
TTP	57	240	2	E	0	M1
TTP	57	312	6	B	0	M1
TTP	57	312	6	E	0	M1
TTP	58	0	0	B	0	M1
TTP	58	0	0	E	0	M1
TTP	58	192	0	C	1	M1
TTP	58	192	2	B	0	M1
TTP	58	192	3	B	0	M1
TTP	58	192	4	B	0	M1
TTP	58	192	5	B	0	M1
TAP	59	0	0
TAP	59	0	7
TAP	59	96	1
TAP	59	96	6
TAP	59	192	2
STR	59	192	5
SI_	59	192	5	96	96	2
TAP	59	240	2
TAP	59	240	5
STR	59	288	3
SCL	59	288	3	96	192	5
TAP	61	0	0
TAP	61	0	7
TAP	61	96	1
TAP	61	96	6
STR	61	192	2
SI_	61	192	2	96	96	5
TAP	61	192	5
TAP	61	240	2
TAP	61	240	5
STR	61	288	4
SCR	61	288	4	96	192	2
TAP	63	0	6
TAP	63	0	7
TAP	63	96	0
TAP	63	96	5
STR	63	192	1
SI_	63	192	1	96	96	4
TAP	63	192	4
TAP	63	240	1
TAP	63	240	4
STR	63	288	3
SCL	63	288	3	96	192	5
TAP	65	0	0
TAP	65	0	1
TAP	65	96	2
TAP	65	96	7
TAP	65	192	3
STR	65	192	6
SI_	65	192	6	96	96	3
TAP	65	240	3
TAP	65	240	6
STR	65	288	4
SCL	65	288	4	96	192	6
STR	67	0	5
SI_	67	0	5	96	48	0
STR	67	96	1
SI_	67	96	1	96	48	4
STR	67	192	6
SI_	67	192	6	96	48	3
STR	67	288	2
SI_	67	288	2	96	48	7
STR	68	0	5
SI_	68	0	5	96	48	0
STR	68	96	1
SI_	68	96	1	96	48	4
STR	68	192	6
SI_	68	192	6	96	48	3
STR	68	288	2
SI_	68	288	2	96	48	7
STR	69	0	5
SI_	69	0	5	96	48	2
STR	69	96	1
SI_	69	96	1	96	48	6
STR	69	192	4
SI_	69	192	4	96	48	7
STR	69	288	0
SI_	69	288	0	96	48	3
STR	70	0	5
SI_	70	0	5	96	48	2
STR	70	96	1
SI_	70	96	1	96	48	6
STR	70	192	4
SI_	70	192	4	96	48	7
STR	70	288	0
SI_	70	288	0	96	48	3
STR	71	0	6
SI_	71	0	6	96	48	2
TAP	71	48	6
STR	71	96	1
SI_	71	96	1	96	48	5
TAP	71	144	1
STR	71	192	7
SI_	71	192	7	96	48	3
TAP	71	240	7
STR	71	288	0
SI_	71	288	0	96	48	4
TAP	71	336	0
STR	72	0	6
SI_	72	0	6	96	48	2
TAP	72	48	6
STR	72	96	1
SI_	72	96	1	96	48	5
TAP	72	144	1
STR	72	192	7
SI_	72	192	7	96	48	3
TAP	72	240	7
TAP	72	288	0
XTP	73	0	0
XTP	73	24	1
XTP	73	48	2
XTP	73	72	3
XTP	73	96	4
XTP	73	120	5
XTP	73	144	6
XTP	73	168	7
XTP	73	192	0
XTP	73	216	1
XTP	73	240	2
XTP	73	264	3
XTP	73	288	4
XTP	73	312	5
XTP	73	336	6
XTP	73	360	7
XTP	74	0	0
TAP	74	192	0
TAP	74	192	7
BRK	74	288	2
BRK	74	288	5
TAP	75	0	1
TAP	75	0	4
TAP	75	48	2
TAP	75	72	3
TAP	75	96	2
TAP	75	144	4
TAP	75	192	3
TAP	75	192	5
TAP	75	240	6
TAP	75	288	4
TAP	75	288	7
TAP	75	336	2
TAP	76	0	1
TAP	76	0	4
TAP	76	48	2
TAP	76	72	3
TAP	76	96	2
TAP	76	144	1
TAP	76	168	0
TAP	76	192	1
TAP	76	240	6
TAP	76	264	7
TAP	76	288	6
TAP	76	336	4
TAP	76	336	5
TAP	77	0	3
TAP	77	0	6
TAP	77	48	5
TAP	77	72	4
TAP	77	96	5
TAP	77	144	3
TAP	77	192	2
TAP	77	192	4
TAP	77	240	1
TAP	77	264	1
TAP	77	288	3
TAP	77	336	5
TAP	78	0	4
TAP	78	0	5
TAP	78	48	6
TAP	78	72	7
TAP	78	96	6
TAP	78	144	1
TAP	78	168	0
TAP	78	192	1
TAP	78	240	2
TAP	78	264	3
TAP	78	288	2
TAP	78	336	4
TAP	78	336	5
TAP	79	0	3
TAP	79	0	6
TAP	79	48	5
TAP	79	72	4
TAP	79	96	5
TAP	79	144	3
TAP	79	192	2
TAP	79	192	4
TAP	79	240	1
TAP	79	288	0
TAP	79	288	3
TAP	79	336	5
TAP	80	0	3
TAP	80	0	6
TAP	80	48	5
TAP	80	72	4
TAP	80	96	5
TAP	80	144	6
TAP	80	168	7
TAP	80	192	6
TAP	80	240	1
TAP	80	264	0
TAP	80	288	1
TAP	80	336	2
TAP	80	336	3
TAP	81	0	1
TAP	81	0	4
TAP	81	48	2
TAP	81	72	3
TAP	81	96	2
TAP	81	144	4
TAP	81	192	3
TAP	81	192	5
TAP	81	240	6
TAP	81	264	6
TAP	81	288	4
TAP	81	336	2
TAP	82	0	1
TAP	82	0	4
TAP	82	48	2
TAP	82	72	3
HLD	82	96	2	72
TAP	82	168	4
TAP	82	240	3
TAP	82	240	5
TAP	82	288	2
TAP	82	312	4
TAP	82	336	2
TAP	82	360	4
TAP	83	0	2
XTP	83	48	0
XTP	83	48	6
BRK	83	96	1
BRK	83	96	5
TAP	83	192	2
TAP	83	192	4
TAP	83	240	1
TAP	83	288	0
TAP	83	288	3
TAP	83	336	5
TAP	84	0	3
TAP	84	0	6
TAP	84	48	5
TAP	84	72	4
TAP	84	96	5
TAP	84	144	6
TAP	84	168	7
TAP	84	192	6
TAP	84	240	1
TAP	84	264	0
TAP	84	288	1
TAP	84	336	2
TAP	84	336	3
TAP	85	0	1
TAP	85	0	4
TAP	85	48	2
TAP	85	72	3
TAP	85	96	2
TAP	85	144	4
TAP	85	192	3
TAP	85	192	5
TAP	85	240	6
TAP	85	264	6
TAP	85	288	4
TAP	85	336	2
TAP	86	0	2
TAP	86	0	3
TAP	86	48	1
TAP	86	72	0
TAP	86	96	1
TAP	86	144	6
TAP	86	168	7
TAP	86	192	6
TAP	86	240	5
TAP	86	264	4
TAP	86	288	5
TAP	86	336	2
TAP	86	336	3
HLD	87	0	1	288
HLD	87	0	4	96
TAP	87	192	4
TAP	87	288	4
TAP	87	336	5
HLD	88	0	3	96
HLD	88	0	6	96
TAP	88	192	3
TAP	88	192	6
TAP	88	288	5
TAP	88	312	4
TAP	88	336	5
TAP	88	360	4
TAP	89	0	6
TAP	89	48	6
TAP	89	96	0
TAP	89	144	0
TAP	89	192	4
TAP	89	240	4
TAP	89	288	2
TAP	89	312	3
TAP	89	336	2
TAP	89	360	3
TAP	90	0	1
TAP	90	48	1
TAP	90	96	7
TAP	90	144	7
STR	90	192	4
SI_	90	192	4	96	48	0
STR	90	192	6
SI_	90	192	6	96	48	2
TAP	91	0	1
TAP	91	0	4
TAP	91	48	2
TAP	91	72	3
TAP	91	120	1
TAP	91	144	0
TAP	91	192	6
TAP	91	216	7
TAP	91	264	5
TAP	91	288	4
TAP	91	336	4
TAP	91	336	5
TAP	92	0	3
TAP	92	0	6
TAP	92	48	5
TAP	92	72	4
TAP	92	120	6
TAP	92	144	7
TAP	92	192	1
TAP	92	216	0
TAP	92	264	2
TAP	92	288	3
TAP	92	336	2
TAP	92	336	3
TAP	93	0	1
TAP	93	0	4
TAP	93	48	5
TAP	93	72	4
TAP	93	120	1
TAP	93	144	0
TAP	93	192	2
TAP	93	216	3
TAP	93	264	6
TAP	93	288	7
TAP	93	336	4
TAP	93	336	5
TAP	94	0	3
TAP	94	0	6
TAP	94	48	2
TAP	94	72	3
TAP	94	120	6
TAP	94	144	7
TAP	94	192	5
TAP	94	216	4
TAP	94	264	1
TAP	94	288	0
TAP	94	336	2
TAP	94	336	3
TAP	95	0	5
TAP	95	24	4
TAP	95	48	5
TAP	95	72	4
TAP	95	96	5
TAP	95	120	4
XTP	95	144	6
TAP	95	192	2
TAP	95	216	3
TAP	95	240	2
TAP	95	264	3
TAP	95	288	2
TAP	95	312	3
XTP	95	336	1
TAP	96	0	6
TAP	96	24	4
TAP	96	48	6
TAP	96	72	4
TAP	96	96	6
TAP	96	120	4
XTP	96	144	7
TAP	96	192	1
TAP	96	216	3
TAP	96	240	1
TAP	96	264	3
TAP	96	288	1
TAP	96	312	3
XTP	96	336	1
STR	97	0	0
SI_	97	0	0	96	48	3
STR	97	0	4
SI_	97	0	4	96	48	7
XTP	97	192	2
XTP	97	192	6
XST	97	264	0
SLL	97	264	0	96	312	1
XST	97	264	4
SLL	97	264	4	96	312	5
TTP	99	0	0	C	1	M1

T_REC_TAP	424
T_REC_BRK	4
T_REC_XTP	55
T_REC_HLD	41
T_REC_XHO	3
T_REC_STR	46
T_REC_BST	0
T_REC_XST	5
T_REC_TTP	34
T_REC_THO	6
T_REC_SLD	54
T_REC_ALL	672
T_NUM_TAP	564
T_NUM_BRK	4
T_NUM_HLD	50
T_NUM_SLD	54
T_NUM_ALL	672
T_JUDGE_TAP	568
T_JUDGE_HLD	196
T_JUDGE_SLD	54
T_JUDGE_ALL	818
TTM_EACHPAIRS	85
TTM_SCR_TAP	282000
TTM_SCR_BRK	10400
TTM_SCR_HLD	50000
TTM_SCR_SLD	81000
TTM_SCR_ALL	423400
TTM_SCR_S	410350
TTM_SCR_SS	423000
TTM_RAT_ACV	10009

