VERSION	0.00.00	1.03.00
FES_MODE	0
BPM_DEF	160.000	160.000	160.000	160.000
MET_DEF	4	4
RESOLUTION	384
CLK_DEF	384
COMPATIBLE_CODE	MA2

BPM	0	0	160.000
MET	0	0	4	4

STR	1	0	3
SXR	1	0	3	96	480	0
STR	1	0	4
SXL	1	0	4	96	480	7
HLD	3	0	6	192
TAP	3	192	7
HLD	4	0	1	192
TAP	4	192	0
HLD	5	0	6	192
TAP	5	192	7
HLD	6	0	0	96
HLD	6	0	1	96
TAP	6	192	0
TAP	6	192	1
HLD	7	0	2	192
TAP	7	192	3
HLD	8	0	5	192
TAP	8	192	4
HLD	9	0	2	192
TAP	9	192	3
HLD	10	0	3	96
HLD	10	0	4	96
TAP	10	192	2
TAP	10	192	5
TAP	11	0	6
TAP	11	96	6
TAP	11	192	7
TAP	11	288	7
TAP	12	0	0
TAP	12	96	0
TAP	12	192	1
TAP	12	192	7
TAP	13	0	2
TAP	13	96	2
TAP	13	192	3
TAP	13	288	3
TAP	14	0	4
TAP	14	96	4
TAP	14	192	3
TAP	14	192	5
TAP	15	0	6
TAP	15	96	7
TAP	15	192	0
TAP	15	288	1
TAP	16	0	2
TAP	16	96	3
TAP	16	192	4
TAP	16	288	5
TAP	17	0	6
TAP	17	48	6
TAP	17	96	6
TAP	17	192	7
TAP	17	240	7
TAP	17	288	7
TAP	18	0	0
TAP	18	48	0
TAP	18	96	0
BRK	18	192	1
BRK	18	192	6
TAP	19	0	5
TAP	19	96	5
TAP	19	192	4
TAP	19	192	5
TAP	19	288	4
TAP	19	288	5
TAP	20	0	6
TAP	20	96	7
TAP	20	192	0
TAP	20	288	1
TAP	21	0	2
TAP	21	96	2
TAP	21	192	2
TAP	21	192	3
TAP	21	288	2
TAP	21	288	3
TAP	22	0	1
TAP	22	96	0
TAP	22	192	1
TAP	22	192	7
TAP	23	0	6
TAP	23	96	6
TAP	23	192	6
TAP	23	192	7
TAP	23	288	6
TAP	23	288	7
TAP	24	0	5
TAP	24	96	4
TAP	24	192	3
TAP	24	288	2
HLD	25	0	1	96
HLD	25	0	3	96
HLD	25	192	2	96
HLD	25	192	4	96
HLD	26	0	3	96
HLD	26	0	5	96
HLD	26	192	4	96
HLD	26	192	6	96
STR	27	0	7
SLL	27	0	7	96	192	3
STR	28	0	2
SLL	28	0	2	96	240	3
TTP	29	0	4	B	0	L1
TTP	29	0	5	B	0	L1
TTP	29	192	6	B	0	L1
TTP	29	192	7	B	0	L1
TTP	30	0	0	B	0	L1
TTP	30	0	1	B	0	L1
TTP	30	192	2	B	0	L1
TTP	30	192	3	B	0	L1
STR	31	0	0
SLR	31	0	0	96	192	4
STR	32	0	5
SLR	32	0	5	96	240	4
TTP	33	0	3	B	0	L1
TTP	33	0	3	E	0	L1
TTP	33	192	2	B	0	L1
TTP	33	192	5	B	0	L1
TTP	34	0	0	C	1	L1
TTP	34	0	1	B	0	L1
TTP	34	0	6	B	0	L1
BST	35	0	7
SSL	35	0	7	96	288	3
SSR	35	0	7	96	288	3
TAP	36	192	2
TAP	36	192	4
BST	37	0	3
SSL	37	0	3	96	288	7
SSR	37	0	3	96	288	7
TAP	38	192	0
TAP	38	192	6
BST	39	0	7
SLL	39	0	7	96	288	3
SLR	39	0	7	96	288	3
TAP	40	192	2
TAP	40	192	4
BST	41	0	3
SCL	41	0	3	96	144	0
SCR	41	0	3	96	144	6
XTP	42	0	7
XTP	42	96	7
XTP	42	192	6
XTP	42	288	6
HLD	43	0	5	192
HLD	43	192	4	192
HLD	44	0	3	192
TAP	44	192	2
HLD	45	0	1	192
HLD	45	192	0	192
HLD	46	0	7	192
TAP	46	192	6
TAP	47	0	5
TAP	47	96	5
TAP	47	192	4
TAP	47	288	4
TAP	48	0	3
TAP	48	96	3
TAP	48	192	2
TAP	48	288	2
TAP	49	0	1
TAP	49	96	0
TAP	49	96	1
TAP	49	192	6
TAP	49	288	6
TAP	49	288	7
TAP	50	0	0
TAP	50	96	0
TAP	50	96	7
BRK	50	192	1
BRK	50	192	6
TTP	51	0	0	C	1	L1
TTP	52	0	6	E	0	L1
TTP	52	192	5	E	0	L1
TTP	53	0	0	C	0	L1
TTP	54	0	2	E	0	L1
TTP	54	192	3	E	0	L1
STR	55	0	5
SCR	55	0	5	96	144	0
STR	56	0	1
SUR	56	0	1	96	144	5
STR	57	0	6
SUL	57	0	6	96	144	2
TAP	58	0	1
TAP	58	96	0
TAP	58	192	7
TAP	58	288	6
HLD	59	0	5	192
TAP	59	192	4
STR	59	288	4
SUL	59	288	4	96	240	3
TAP	59	288	5
HLD	61	0	2	192
TAP	61	192	3
TAP	61	288	2
STR	61	288	3
SUR	61	288	3	96	240	4
HLD	63	0	5	192
TAP	63	192	4
STR	63	288	4
SUL	63	288	4	96	240	3
TAP	63	288	5
HLD	65	0	2	192
TAP	65	192	3
TAP	65	288	2
STR	65	288	3
SCR	65	288	3	96	240	7
TAP	67	0	1
TAP	67	96	1
TAP	67	192	0
TAP	67	288	0
TAP	68	0	7
TAP	68	96	7
TAP	68	192	0
TAP	68	192	6
TAP	69	0	5
TAP	69	96	5
TAP	69	192	4
TAP	69	288	4
TAP	70	0	3
TAP	70	96	3
TAP	70	192	2
TAP	70	192	4
TAP	71	0	1
TAP	71	96	0
TAP	71	192	7
TAP	71	288	6
TAP	72	0	5
TAP	72	96	4
TAP	72	192	3
TAP	72	288	2
TAP	73	0	1
TAP	73	48	1
TAP	73	96	1
TAP	73	192	0
TAP	73	240	0
TAP	73	288	0
BST	74	0	0
SI_	74	0	0	96	144	4
BST	74	0	7
SI_	74	0	7	96	144	3
TAP	75	0	5
TAP	75	96	5
TAP	75	192	4
TAP	75	192	5
TAP	75	288	3
TAP	75	288	6
TAP	76	0	7
TAP	76	48	7
TAP	76	96	7
TAP	76	192	0
TAP	76	288	0
TAP	76	288	7
TAP	77	0	1
TAP	77	96	1
TAP	77	192	0
TAP	77	192	1
TAP	77	288	2
TAP	77	288	7
TAP	78	0	3
TAP	78	48	3
TAP	78	96	3
TAP	78	192	4
TAP	78	288	3
TAP	78	288	4
TAP	79	0	5
TAP	79	96	4
TAP	79	96	5
TAP	79	192	5
TAP	79	288	3
TAP	79	288	6
TAP	80	0	7
TAP	80	48	7
TAP	80	96	7
TAP	80	192	0
TAP	80	288	0
TAP	80	288	7
TAP	81	0	1
TAP	81	96	0
TAP	81	96	1
TAP	81	192	2
TAP	81	288	2
TAP	81	288	3
TAP	82	0	4
TAP	82	0	5
TAP	82	96	6
TAP	82	96	7
BRK	82	192	0
BRK	82	192	5
TAP	83	0	1
TAP	83	48	1
TAP	83	96	0
TAP	83	96	1
TAP	83	192	2
TAP	83	288	2
TAP	83	288	3
TAP	84	0	5
TAP	84	96	4
TAP	84	96	5
TAP	84	192	6
TAP	84	288	0
TAP	84	288	7
TAP	85	0	6
TAP	85	48	6
TAP	85	96	6
TAP	85	96	7
TAP	85	192	5
TAP	85	288	4
TAP	85	288	5
TAP	86	0	2
TAP	86	96	2
TAP	86	96	3
BRK	86	192	1
BRK	86	192	4
STR	87	0	0
SI_	87	0	0	96	144	4
STR	87	0	1
SI_	87	0	1	96	144	5
STR	88	0	6
SI_	88	0	6	96	144	2
STR	88	0	7
SI_	88	0	7	96	144	3
TAP	89	0	1
TAP	89	48	1
TAP	89	96	1
TAP	89	192	0
TAP	89	240	0
TAP	89	288	0
TAP	90	0	0
TAP	90	0	7
TAP	90	48	0
TAP	90	48	7
TAP	90	96	0
TAP	90	96	7
BRK	90	192	1
BRK	90	192	6
TAP	91	0	5
TAP	91	96	4
TAP	91	96	6
TAP	91	192	2
TAP	91	288	1
TAP	91	288	3
TAP	92	0	0
TAP	92	48	0
TAP	92	96	0
TAP	92	192	1
TAP	92	192	7
TAP	92	288	6
TAP	93	0	5
TAP	93	96	4
TAP	93	96	6
TAP	93	192	2
TAP	93	288	1
TAP	93	288	3
TAP	94	0	0
TAP	94	48	0
TAP	94	96	0
TAP	94	192	0
TAP	94	192	7
TAP	94	288	1
TAP	94	288	6
TAP	95	0	7
TAP	95	96	6
TAP	95	192	5
TAP	95	288	4
TAP	96	0	3
TAP	96	96	2
TAP	96	192	1
TAP	96	288	0
TAP	96	288	7
BRK	97	0	1
BRK	97	0	6
XTP	97	192	3
XTP	97	192	4
XTP	97	264	3
XTP	97	264	4
XST	97	336	3
SCL	97	336	3	96	192	0
XST	97	336	4
SCR	97	336	4	96	192	7
TTP	99	0	0	C	1	L1

T_REC_TAP	255
T_REC_BRK	12
T_REC_XTP	8
T_REC_HLD	28
T_REC_XHO	0
T_REC_STR	17
T_REC_BST	6
T_REC_XST	2
T_REC_TTP	22
T_REC_THO	0
T_REC_SLD	29
T_REC_ALL	379
T_NUM_TAP	304
T_NUM_BRK	18
T_NUM_HLD	28
T_NUM_SLD	29
T_NUM_ALL	379
T_JUDGE_TAP	322
T_JUDGE_HLD	88
T_JUDGE_SLD	29
T_JUDGE_ALL	439
TTM_EACHPAIRS	73
TTM_SCR_TAP	152000
TTM_SCR_BRK	46800
TTM_SCR_HLD	28000
TTM_SCR_SLD	43500
TTM_SCR_ALL	270300
TTM_SCR_S	260450
TTM_SCR_SS	268500
TTM_RAT_ACV	10067

