VERSION	0.00.00	1.03.00
FES_MODE	0
BPM_DEF	160.000	160.000	160.000	160.000
MET_DEF	4	4
RESOLUTION	384
CLK_DEF	384
COMPATIBLE_CODE	MA2

BPM	0	0	160.000
MET	0	0	4	4

TAP	3	0	0
TAP	4	0	0
HLD	5	0	0	384
TAP	7	0	7
TAP	8	0	7
HLD	9	0	7	384
TAP	11	0	0
TAP	12	0	1
TAP	13	0	2
TAP	14	0	3
TAP	15	0	4
TAP	16	0	5
TAP	17	0	6
XTP	18	0	0
XTP	18	0	7
TAP	19	0	7
TAP	19	192	7
TAP	20	0	7
TAP	21	0	6
TAP	21	192	6
TAP	22	0	6
TAP	23	0	5
TAP	23	192	5
TAP	24	0	5
TAP	25	0	4
TAP	25	192	4
TAP	26	0	3
TAP	26	0	4
HLD	27	0	3	192
TAP	28	0	3
HLD	29	0	2	192
TAP	30	0	2
HLD	31	0	1	192
TAP	32	0	1
HLD	33	0	0	192
HLD	33	0	7	192
TAP	34	0	0
TAP	34	0	7
STR	35	0	0
SI_	35	0	0	96	288	3
STR	37	0	4
SI_	37	0	4	96	288	7
STR	39	0	0
SI_	39	0	0	96	288	5
STR	41	0	6
SI_	41	0	6	96	288	2
TAP	43	0	0
TAP	43	192	0
TAP	44	0	1
TAP	44	192	1
TAP	45	0	2
TAP	45	192	2
TAP	46	0	2
TAP	46	0	3
TAP	46	192	2
TAP	46	192	3
TAP	47	0	4
TAP	47	192	4
TAP	48	0	5
TAP	48	192	5
TAP	49	0	6
TAP	49	192	6
TAP	50	0	0
TAP	50	0	7
TAP	50	192	0
TAP	50	192	7
BRK	51	0	1
BRK	51	0	6
THO	53	0	0	384	C	0	L1
TTP	55	0	6	B	0	L1
TTP	55	0	7	B	0	L1
TTP	56	0	4	B	0	L1
TTP	56	0	5	B	0	L1
TTP	57	0	2	B	0	L1
TTP	57	0	3	B	0	L1
TTP	58	0	0	B	0	L1
TTP	58	0	1	B	0	L1
HLD	59	0	0	384
HLD	59	0	1	384
HLD	61	0	2	384
HLD	61	0	3	384
HLD	63	0	4	384
HLD	63	0	5	384
HLD	65	0	6	384
HLD	65	0	7	384
TAP	67	0	7
TAP	67	192	6
TAP	68	0	5
TAP	68	192	4
TAP	68	192	5
TAP	69	0	3
TAP	69	192	2
TAP	70	0	1
TAP	70	192	0
TAP	70	192	1
TAP	71	0	7
TAP	71	192	6
TAP	71	192	7
TAP	72	0	0
TAP	72	192	0
TAP	72	192	1
TAP	73	0	7
TAP	73	192	0
TAP	73	192	7
XTP	74	0	1
XTP	74	0	6
BRK	75	0	0
TAP	75	96	0
TAP	75	192	0
TAP	76	0	1
TAP	76	192	1
TAP	77	0	2
TAP	77	96	2
TAP	77	192	2
TAP	78	0	3
TAP	78	0	4
TAP	78	192	3
TAP	78	192	4
TAP	79	0	4
TAP	79	96	4
TAP	79	192	4
TAP	80	0	5
TAP	80	192	5
TAP	81	0	6
TAP	81	96	6
TAP	81	192	6
XTP	82	0	0
XTP	82	0	7
TAP	83	0	7
TAP	83	96	7
TAP	83	192	7
TAP	84	0	6
TAP	84	96	6
TAP	84	192	6
TAP	85	0	5
TAP	85	96	5
TAP	85	192	5
TAP	86	0	3
TAP	86	0	4
TAP	86	96	3
TAP	86	96	4
TAP	86	192	3
TAP	86	192	4
TAP	87	0	3
TAP	87	96	3
TAP	87	192	3
TAP	88	0	2
TAP	88	96	2
TAP	88	192	2
TAP	89	0	1
TAP	89	96	1
TAP	89	192	1
TAP	90	0	0
TAP	90	0	7
TAP	90	96	0
TAP	90	96	7
XTP	90	192	0
XTP	90	192	7
TAP	91	0	0
TAP	91	96	0
TAP	91	192	1
TAP	91	288	1
TAP	92	0	2
TAP	92	96	2
TAP	92	192	2
TAP	92	192	3
TAP	93	0	4
TAP	93	96	4
TAP	93	192	5
TAP	93	288	5
TAP	94	0	6
TAP	94	96	6
TAP	94	192	6
TAP	94	192	7
TAP	95	0	7
TAP	95	96	6
TAP	95	192	5
TAP	95	288	4
TAP	96	0	3
TAP	96	96	2
TAP	96	192	1
TAP	96	288	0
TAP	97	0	0
TAP	97	0	7
TAP	97	96	0
TAP	97	96	7
STR	97	192	0
SI_	97	192	0	96	288	3
STR	97	192	7
SI_	97	192	7	96	288	4
TTP	99	0	0	C	1	L1

T_REC_TAP	143
T_REC_BRK	3
T_REC_XTP	8
T_REC_HLD	15
T_REC_XHO	0
T_REC_STR	6
T_REC_BST	0
T_REC_XST	0
T_REC_TTP	9
T_REC_THO	1
T_REC_SLD	6
T_REC_ALL	191
T_NUM_TAP	166
T_NUM_BRK	3
T_NUM_HLD	16
T_NUM_SLD	6
T_NUM_ALL	191
T_JUDGE_TAP	169
T_JUDGE_HLD	108
T_JUDGE_SLD	6
T_JUDGE_ALL	283
TTM_EACHPAIRS	33
TTM_SCR_TAP	83000
TTM_SCR_BRK	7800
TTM_SCR_HLD	16000
TTM_SCR_SLD	9000
TTM_SCR_ALL	115800
TTM_SCR_S	112050
TTM_SCR_SS	115500
TTM_RAT_ACV	10025

