VERSION	0.00.00	1.03.00
FES_MODE	0
BPM_DEF	137.000	137.000	137.000	137.000
MET_DEF	4	4
RESOLUTION	384
CLK_DEF	384
COMPATIBLE_CODE	MA2

BPM	0	0	137.000
MET	0	0	4	4

STR	1	288	2
SCR	1	288	2	96	48	5
STR	1	288	6
SCR	1	288	6	96	1056	1
BRK	2	0	2
THO	4	0	0	384	C	0	M1
TAP	5	0	0
TAP	5	16	7
TAP	5	32	6
TAP	5	48	5
TAP	5	64	4
TAP	5	80	3
TAP	5	96	2
TAP	5	112	1
TAP	5	144	7
TAP	5	176	5
TAP	5	208	3
TAP	5	264	0
TAP	5	352	2
BST	6	0	7
SI_	6	0	7	96	144	4
TAP	6	96	6
STR	6	192	5
SI_	6	192	5	96	144	2
TAP	6	288	4
STR	7	0	3
SI_	7	0	3	96	144	0
TAP	7	96	2
STR	7	192	1
SI_	7	192	1	96	144	6
TAP	7	288	0
STR	8	0	7
SI_	8	0	7	96	144	2
TAP	8	96	0
STR	8	192	1
SI_	8	192	1	96	144	4
TAP	8	288	2
STR	9	0	3
SI_	9	0	3	96	144	6
TAP	9	96	4
STR	9	192	5
SI_	9	192	5	96	144	0
TAP	9	288	6
TAP	10	0	7
TAP	10	96	1
TAP	10	96	7
TAP	10	168	5
TAP	10	192	4
TAP	10	240	4
TAP	10	288	0
TAP	10	288	6
TAP	11	0	2
TAP	11	0	3
TAP	11	96	1
TAP	11	96	7
TAP	11	168	5
TAP	11	192	4
TAP	11	240	4
TAP	11	288	0
TAP	11	288	6
TAP	11	312	5
TAP	12	0	2
TAP	12	24	3
TAP	12	48	2
TAP	12	72	1
TAP	12	96	2
TAP	12	120	0
TAP	12	144	3
TAP	12	168	7
TAP	12	192	4
TAP	12	216	6
TAP	12	240	5
TAP	12	264	6
TAP	12	288	7
TAP	12	312	5
TAP	12	336	0
TAP	12	360	4
TAP	13	0	1
TAP	13	24	3
TAP	13	48	2
TAP	13	72	1
TAP	13	72	4
TAP	13	120	0
TAP	13	120	3
TAP	13	168	1
TAP	13	168	4
TAP	13	216	6
TAP	13	240	4
TAP	13	264	5
BST	13	288	0
SI_	13	288	0	96	48	4
TAP	14	0	0
TAP	14	0	6
TAP	14	72	6
STR	14	96	3
SI_	14	96	3	96	48	6
TAP	14	144	2
TAP	14	192	1
STR	14	192	3
SCL	14	192	3	96	48	0
TAP	14	288	7
TAP	14	360	3
TAP	15	0	3
TAP	15	72	1
STR	15	96	4
SI_	15	96	4	96	48	1
TAP	15	144	5
STR	15	192	4
SCR	15	192	4	96	48	7
TAP	15	192	6
TAP	15	288	0
TAP	15	360	4
TAP	16	0	4
TAP	16	72	6
STR	16	96	3
SI_	16	96	3	96	48	6
TAP	16	144	2
TAP	16	192	1
STR	16	192	3
SCL	16	192	3	96	48	0
TAP	16	288	7
TAP	16	360	3
TAP	17	0	3
TAP	17	72	1
TAP	17	96	4
HLD	17	144	3	48
HLD	17	144	5	48
TAP	17	216	4
TAP	17	216	6
STR	17	288	7
SI_	17	288	7	96	48	3
TAP	17	312	2
TAP	17	336	7
TAP	17	360	2
TAP	18	0	7
TAP	18	72	1
STR	18	96	4
SI_	18	96	4	96	48	0
TAP	18	144	5
STR	18	192	4
SCR	18	192	4	96	48	7
TAP	18	192	6
TAP	18	288	0
TAP	18	360	4
TAP	19	0	4
TAP	19	72	6
STR	19	96	3
SI_	19	96	3	96	48	7
TAP	19	144	2
TAP	19	192	1
STR	19	192	3
SCL	19	192	3	96	48	0
TAP	19	288	7
TAP	19	360	3
TAP	20	0	3
TAP	20	72	1
STR	20	96	4
SI_	20	96	4	96	48	0
TAP	20	144	5
STR	20	192	4
SCR	20	192	4	96	48	7
TAP	20	192	6
TAP	20	288	0
TAP	20	360	1
HLD	21	0	1	168
TAP	21	48	0
TAP	21	96	2
TAP	21	120	2
TAP	21	168	0
TAP	21	216	1
TAP	21	216	7
TAP	21	240	1
TAP	21	240	7
TAP	21	288	0
TAP	21	312	0
TAP	21	336	0
TAP	21	360	0
BRK	22	0	0
TAP	22	72	1
STR	22	96	3
SI_	22	96	3	96	48	0
TAP	22	144	2
TAP	22	144	4
STR	22	192	5
SCR	22	192	5	96	48	0
TAP	22	240	4
TAP	22	288	0
TAP	22	360	4
TAP	23	0	4
TAP	23	72	6
STR	23	96	4
SI_	23	96	4	96	48	7
TAP	23	144	3
TAP	23	144	5
STR	23	192	2
SCL	23	192	2	96	48	7
TAP	23	240	3
TAP	23	288	7
TAP	23	360	3
TAP	24	0	3
TAP	24	72	1
STR	24	96	3
SI_	24	96	3	96	48	0
TAP	24	144	2
TAP	24	144	4
STR	24	192	5
SCR	24	192	5	96	48	0
TAP	24	240	4
TAP	24	288	0
TAP	24	360	4
TAP	25	0	4
TAP	25	72	6
TAP	25	96	4
TAP	25	144	3
TAP	25	144	5
HLD	25	192	2	48
HLD	25	192	4	48
TAP	25	288	6
TAP	25	312	0
TAP	25	336	5
TAP	25	360	1
TAP	26	0	2
TAP	26	0	4
TAP	26	72	6
STR	26	96	4
SI_	26	96	4	96	48	7
TAP	26	144	3
TAP	26	144	5
STR	26	192	2
SCL	26	192	2	96	48	7
TAP	26	240	3
TAP	26	288	7
TAP	26	360	3
TAP	27	0	3
TAP	27	72	1
STR	27	96	3
SI_	27	96	3	96	48	0
TAP	27	144	2
TAP	27	144	4
STR	27	192	5
SCR	27	192	5	96	48	0
TAP	27	240	4
TAP	27	288	0
TAP	27	360	2
TAP	28	0	2
TAP	28	24	3
TAP	28	48	1
TAP	28	72	4
TAP	28	96	0
TAP	28	120	5
TAP	28	144	7
TAP	28	168	6
TAP	28	192	4
TAP	28	216	5
TAP	28	240	3
TAP	28	264	6
TAP	28	288	2
TAP	28	312	7
TAP	28	336	0
TAP	28	360	1
HLD	29	0	3	72
HLD	29	72	5	72
HLD	29	144	7	72
TAP	29	216	1
STR	29	288	2
SCR	29	288	2	96	1056	5
STR	29	288	6
SCR	29	288	6	96	48	1
BRK	30	0	6
THO	32	0	0	384	C	0	M1
TAP	33	0	6
TAP	33	16	5
TAP	33	32	4
TAP	33	48	3
TAP	33	64	2
TAP	33	80	1
TAP	33	96	0
TAP	33	128	6
TAP	33	160	6
TAP	33	224	6
BRK	33	304	6
TAP	34	0	2
TAP	34	0	7
STR	34	48	1
SI_	34	48	1	96	48	4
TAP	34	72	0
TAP	34	120	0
TAP	34	144	1
STR	34	192	7
SCL	34	192	7	96	48	4
TAP	34	240	0
TAP	34	240	6
TAP	35	0	2
TAP	35	24	2
TAP	35	48	3
TAP	35	72	3
STR	35	96	4
SI_	35	96	4	96	48	7
TAP	35	120	4
TAP	35	144	5
TAP	35	192	3
TTP	35	288	1	E	0	M1
TTP	35	336	0	C	0	M1
TAP	36	0	2
TAP	36	24	2
TAP	36	48	0
TAP	36	72	1
TAP	36	96	1
TAP	36	120	7
TAP	36	144	0
TAP	36	168	0
STR	36	192	6
SCL	36	192	6	96	48	3
TAP	36	216	7
TAP	36	240	7
BRK	36	264	7
TAP	37	0	2
TAP	37	48	2
TAP	37	72	1
TAP	37	120	1
TAP	37	144	0
HLD	37	192	6	96
TAP	37	192	7
TTP	37	240	5	E	0	M1
TTP	37	288	4	E	0	M1
TTP	37	336	3	E	0	M1
HLD	38	0	1	48
HLD	38	0	4	48
TAP	38	72	0
HLD	38	72	3	72
TAP	38	144	1
TAP	38	168	4
TAP	38	192	2
TAP	38	216	6
TAP	38	240	3
HLD	38	264	7	72
TTP	38	288	5	B	0	M1
TTP	38	288	5	E	0	M1
TTP	38	336	3	B	0	M1
TTP	38	336	4	E	0	M1
TAP	39	0	1
TAP	39	24	0
TAP	39	48	2
TAP	39	72	0
TAP	39	96	1
TAP	39	120	0
HLD	39	144	1	96
TTP	39	192	2	B	0	M1
TTP	39	192	3	B	0	M1
HLD	39	240	7	96
TTP	39	288	5	E	0	M1
TTP	39	336	0	C	0	M1
HLD	40	0	0	48
HLD	40	0	1	48
HLD	40	72	1	48
TAP	40	72	2
TTP	40	144	2	B	0	M1
TTP	40	144	3	B	0	M1
TTP	40	144	4	E	0	M1
TAP	40	192	0
TAP	40	192	5
TAP	40	240	6
TAP	40	264	6
TAP	40	288	7
TAP	40	312	7
TAP	40	336	0
TAP	40	360	0
TAP	41	0	1
HLD	41	72	3	72
HLD	41	72	5	72
TAP	41	192	7
HLD	41	264	2	72
HLD	41	264	4	72
TAP	42	0	1
TAP	42	0	5
HLD	42	72	2	48
HLD	42	72	6	48
TAP	42	144	7
TAP	42	168	7
STR	42	192	3
SCL	42	192	3	96	48	0
TAP	42	216	7
TAP	42	240	7
HLD	42	288	4	96
TAP	43	0	7
TAP	43	24	7
TAP	43	48	5
TAP	43	72	0
TAP	43	96	0
TAP	43	120	6
TAP	43	144	1
TAP	43	168	1
HLD	43	192	7	96
TTP	43	288	5	B	0	M1
TTP	43	288	5	E	0	M1
TTP	43	336	3	B	0	M1
TTP	43	336	4	E	0	M1
HLD	44	0	0	48
HLD	44	72	1	48
HLD	44	72	7	48
TAP	44	144	2
TAP	44	168	2
STR	44	192	0
SCL	44	192	0	96	48	5
TAP	44	216	1
TAP	44	240	1
BRK	44	264	1
STR	44	288	0
SCR	44	288	0	96	192	3
HLD	45	0	0	144
TAP	45	192	0
TTP	45	240	6	E	0	M1
TTP	45	288	2	E	0	M1
TTP	45	336	0	C	0	M1
HLD	46	0	1	48
TAP	46	24	7
TAP	46	48	7
HLD	46	96	0	48
TAP	46	120	6
TAP	46	144	6
HLD	46	192	7	48
TAP	46	216	5
TAP	46	240	5
HLD	46	288	6	48
TAP	46	312	4
TAP	46	336	4
HLD	47	0	5	48
TAP	47	24	3
TAP	47	48	3
HLD	47	96	4	48
TAP	47	120	2
TAP	47	144	2
HLD	47	192	3	48
TAP	47	216	1
TAP	47	240	1
HLD	47	288	2	48
TAP	47	312	0
TAP	47	336	0
TAP	48	0	1
TAP	48	0	7
TAP	48	48	0
TAP	48	48	6
TAP	48	96	5
TAP	48	96	7
TAP	48	144	4
TAP	48	144	6
TAP	48	192	3
TAP	48	192	5
TAP	48	240	2
TAP	48	240	4
TAP	48	288	1
TAP	48	288	3
TAP	48	336	0
TAP	48	336	2
TAP	49	0	5
TAP	49	24	4
TAP	49	48	5
TAP	49	72	4
TAP	49	120	3
TAP	49	120	6
TAP	49	168	1
TAP	49	168	4
TAP	49	216	2
TAP	49	240	3
TAP	49	264	2
STR	49	288	3
SCL	49	288	3	96	144	0
STR	49	288	4
SCR	49	288	4	96	144	7
TAP	50	192	1
XTP	50	208	2
XTP	50	224	3
XTP	50	240	4
XTP	50	256	5
XTP	50	272	6
TAP	50	288	1
XTP	50	304	2
XTP	50	320	3
XTP	50	336	4
XTP	50	352	5
XTP	50	368	6
TAP	51	0	1
XST	51	0	7
SI_	51	0	7	96	48	2
HLD	51	96	3	96
TAP	51	192	1
XTP	51	208	0
XTP	51	224	7
XTP	51	240	6
XTP	51	256	5
XTP	51	272	4
TAP	51	288	1
XTP	51	304	0
XTP	51	320	7
XTP	51	336	6
XTP	51	352	5
XTP	51	368	4
XST	52	0	3
SI_	52	0	3	96	48	7
TAP	52	0	7
HLD	52	96	4	96
TAP	52	192	7
XTP	52	208	0
XTP	52	224	1
XTP	52	240	2
XTP	52	256	3
XTP	52	272	4
TAP	52	288	7
XTP	52	304	0
XTP	52	320	1
XTP	52	336	2
XTP	52	352	3
XTP	52	368	4
STR	53	0	1
SCL	53	0	1	96	96	6
STR	53	96	6
SCL	53	96	6	96	96	3
STR	53	192	3
SCL	53	192	3	96	96	0
TAP	53	288	6
TAP	53	336	5
STR	54	0	4
SI_	54	0	4	96	48	7
TAP	54	96	2
TAP	54	96	4
TAP	54	192	6
XTP	54	208	5
XTP	54	224	4
XTP	54	240	3
XTP	54	256	2
XTP	54	272	1
TAP	54	288	6
XTP	54	304	5
XTP	54	320	4
XTP	54	336	3
XTP	54	352	2
XTP	54	368	1
XST	55	0	0
SI_	55	0	0	96	48	5
TAP	55	0	6
HLD	55	96	4	96
TAP	55	192	6
XTP	55	208	7
XTP	55	224	0
XTP	55	240	1
XTP	55	256	2
XTP	55	272	3
TAP	55	288	6
XTP	55	304	7
XTP	55	320	0
XTP	55	336	1
XTP	55	352	2
XTP	55	368	3
TAP	56	0	0
XST	56	0	4
SI_	56	0	4	96	48	0
HLD	56	96	3	96
TAP	56	192	0
XTP	56	208	7
XTP	56	224	6
XTP	56	240	5
XTP	56	256	4
XTP	56	272	3
TAP	56	288	0
XTP	56	304	7
XTP	56	320	6
XTP	56	336	5
XTP	56	352	4
XTP	56	368	3
STR	57	0	6
SCR	57	0	6	96	96	1
STR	57	96	1
SCR	57	96	1	96	96	4
STR	57	192	4
SCR	57	192	4	96	96	7
TAP	57	288	1
TAP	57	336	2
STR	58	0	3
SI_	58	0	3	96	48	0
TAP	58	96	3
TAP	58	96	7
TAP	58	192	6
TAP	58	208	5
TAP	58	224	4
TAP	58	240	0
TAP	58	256	1
TAP	58	272	2
STR	58	288	7
SI_	58	288	7	96	48	2
TAP	58	304	6
TAP	58	320	5
TAP	58	336	1
TAP	58	352	2
TAP	58	368	3
STR	59	0	4
SI_	59	0	4	96	48	0
TAP	59	96	6
TAP	59	192	1
TAP	59	208	2
TAP	59	224	3
TAP	59	240	7
TAP	59	256	6
TAP	59	272	5
STR	59	288	0
SI_	59	288	0	96	48	5
TAP	59	304	1
TAP	59	320	2
TAP	59	336	6
TAP	59	352	5
TAP	59	368	4
STR	60	0	3
SI_	60	0	3	96	48	7
TAP	60	96	1
TAP	60	192	6
TAP	60	208	5
TAP	60	224	4
TAP	60	240	0
TAP	60	256	1
TAP	60	272	2
TAP	60	288	7
TAP	60	304	6
TAP	60	320	5
TAP	60	336	1
TAP	60	352	2
TAP	60	368	3
STR	61	0	7
SCR	61	0	7	96	96	2
STR	61	96	2
SCR	61	96	2	96	96	5
STR	61	192	5
SCR	61	192	5	96	96	0
STR	61	288	1
SI_	61	288	1	96	48	5
TAP	61	336	1
TAP	62	0	1
TAP	62	96	2
TAP	62	96	6
TAP	62	192	1
TAP	62	208	0
TAP	62	224	7
HLD	62	240	6	80
TAP	62	288	2
TAP	62	304	1
TAP	62	320	0
TAP	62	336	7
TAP	62	352	6
TAP	62	368	5
HLD	63	0	4	72
STR	63	72	2
SI_	63	72	2	96	120	6
BRK	63	192	3
TAP	63	288	0
TAP	63	304	1
TAP	63	320	2
TAP	63	336	3
TAP	63	352	4
TAP	63	368	5
HLD	64	0	6	72
STR	64	72	5
SI_	64	72	5	96	120	1
BRK	64	192	6
HLD	64	288	7	96
TAP	65	0	0
TAP	65	24	0
TAP	65	48	0
TAP	65	72	0
TAP	65	96	0
TAP	65	120	0
TAP	65	144	2
TAP	65	168	2
TAP	65	192	2
TAP	65	216	2
TAP	65	240	2
TAP	65	264	2
TAP	65	288	3
TAP	65	312	3
TAP	65	336	4
TAP	65	360	4
TAP	66	0	5
TAP	66	48	2
TAP	66	72	1
TAP	66	72	3
TAP	66	120	5
TAP	66	144	4
TAP	66	144	6
STR	66	192	3
SCL	66	192	3	96	48	0
STR	66	192	7
SCL	66	192	7	96	48	4
BRK	66	288	3
BRK	66	288	7
STR	67	0	5
SI_	67	0	5	96	144	0
TAP	67	96	6
STR	67	192	7
SI_	67	192	7	96	144	2
TAP	67	288	0
STR	68	0	1
SI_	68	0	1	96	144	4
TAP	68	96	2
STR	68	192	3
SI_	68	192	3	96	144	6
TAP	68	288	4
STR	69	0	5
SI_	69	0	5	96	144	2
TAP	69	96	4
STR	69	192	3
SI_	69	192	3	96	144	0
TAP	69	288	2
STR	70	0	1
SI_	70	0	1	96	144	6
TAP	70	96	0
STR	70	192	7
SI_	70	192	7	96	144	4
TAP	70	288	6
TAP	71	0	5
TAP	71	96	0
TAP	71	96	6
TAP	71	168	2
TAP	71	192	3
TAP	71	240	3
TAP	71	288	1
TAP	71	288	7
TAP	72	0	4
TAP	72	0	5
TAP	72	96	0
TAP	72	96	6
TAP	72	168	2
TAP	72	192	3
TAP	72	240	3
TAP	72	288	1
TAP	72	288	7
TAP	72	312	2
TAP	73	0	5
TAP	73	24	4
TAP	73	48	5
TAP	73	72	6
TAP	73	96	5
TAP	73	120	7
TAP	73	144	4
TAP	73	168	0
TAP	73	192	3
TAP	73	216	1
TAP	73	240	2
TAP	73	264	1
TAP	73	288	0
TAP	73	312	2
TAP	73	336	7
TAP	73	360	3
TAP	74	0	6
TAP	74	24	4
TAP	74	48	5
TAP	74	72	3
TAP	74	72	6
TAP	74	120	4
TAP	74	120	7
TAP	74	168	3
TAP	74	168	6
TAP	74	216	0
TAP	74	240	1
TAP	74	264	2
STR	74	288	3
SI_	74	288	3	96	768	0
TAP	74	312	4
TAP	74	336	5
TAP	74	360	6
BRK	75	0	7

T_REC_TAP	469
T_REC_BRK	11
T_REC_XTP	60
T_REC_HLD	46
T_REC_XHO	0
T_REC_STR	72
T_REC_BST	2
T_REC_XST	4
T_REC_TTP	23
T_REC_THO	2
T_REC_SLD	78
T_REC_ALL	767
T_NUM_TAP	628
T_NUM_BRK	13
T_NUM_HLD	48
T_NUM_SLD	78
T_NUM_ALL	767
T_JUDGE_TAP	641
T_JUDGE_HLD	89
T_JUDGE_SLD	78
T_JUDGE_ALL	808
TTM_EACHPAIRS	72
TTM_SCR_TAP	314000
TTM_SCR_BRK	33800
TTM_SCR_HLD	48000
TTM_SCR_SLD	117000
TTM_SCR_ALL	512800
TTM_SCR_S	496200
TTM_SCR_SS	511500
TTM_RAT_ACV	10025

