VERSION	0.00.00	1.03.00
FES_MODE	0
BPM_DEF	137.000	137.000	137.000	137.000
MET_DEF	4	4
RESOLUTION	384
CLK_DEF	384
COMPATIBLE_CODE	MA2

BPM	0	0	137.000
MET	0	0	4	4

XTP	1	288	2
XTP	1	288	5
THO	2	0	0	1056	C	1	M1
XTP	2	0	7
HLD	3	0	6	192
TAP	4	0	7
TAP	4	192	0
STR	4	288	0
SXL	4	288	0	96	264	5
STR	6	0	6
SI_	6	0	6	96	48	4
TAP	6	96	7
STR	6	192	0
SI_	6	192	0	96	48	6
TAP	6	288	1
STR	7	0	2
SI_	7	0	2	96	48	0
TAP	7	96	3
STR	7	192	4
SI_	7	192	4	96	48	2
TAP	7	288	5
STR	8	0	6
SI_	8	0	6	96	48	4
TAP	8	96	7
STR	8	192	0
SI_	8	192	0	96	48	6
TAP	8	288	1
STR	9	0	2
SI_	9	0	2	96	48	0
TAP	9	96	3
TAP	9	192	1
TAP	9	192	4
TAP	9	288	3
TAP	9	288	6
HLD	10	0	6	96
XTP	10	96	5
HLD	10	168	4	72
TAP	10	168	6
TAP	10	240	5
XTP	10	288	3
XTP	10	288	6
HLD	11	0	1	96
XTP	11	96	2
TAP	11	168	1
HLD	11	168	3	72
TAP	11	240	2
XTP	11	288	1
XTP	11	288	4
TAP	12	0	5
TAP	12	48	6
TAP	12	96	7
TAP	12	144	0
TAP	12	192	1
TAP	12	240	2
TAP	12	288	3
STR	12	288	4
SUR	12	288	4	96	192	3
THO	13	0	0	192	C	1	M1
XTP	13	288	1
XTP	13	288	6
HLD	14	0	7	72
HLD	14	72	6	72
HLD	14	144	5	72
TAP	14	216	4
TAP	14	240	5
TAP	14	288	4
TAP	14	288	6
HLD	15	0	0	72
HLD	15	72	1	72
HLD	15	144	2	72
TAP	15	216	3
TAP	15	240	2
TAP	15	288	1
TAP	15	288	3
HLD	16	0	7	72
HLD	16	72	6	72
HLD	16	144	5	72
TAP	16	216	4
TAP	16	240	5
STR	16	288	4
SI_	16	288	4	96	48	0
TAP	16	288	6
STR	17	0	6
SI_	17	0	6	96	48	4
STR	17	96	1
SCL	17	96	1	96	48	6
TAP	17	192	3
XTP	17	288	3
XTP	17	288	4
HLD	18	0	6	72
HLD	18	72	5	72
HLD	18	144	4	72
TAP	18	216	3
TAP	18	240	4
TAP	18	288	3
TAP	18	288	5
HLD	19	0	1	72
HLD	19	72	2	72
HLD	19	144	3	72
TAP	19	216	4
TAP	19	240	3
TAP	19	288	2
TAP	19	288	4
HLD	20	0	6	72
HLD	20	72	5	72
HLD	20	144	4	72
TAP	20	216	3
TAP	20	240	4
STR	20	288	3
SI_	20	288	3	96	48	0
TAP	20	288	5
STR	21	0	6
SI_	21	0	6	96	48	3
STR	21	96	7
SCR	21	96	7	96	96	4
TAP	21	192	4
BRK	21	288	6
XHO	22	0	5	72
TAP	22	72	4
TAP	22	96	5
TAP	22	144	3
TAP	22	144	6
TAP	22	192	5
TAP	22	216	4
TAP	22	288	4
HLD	22	288	6	72
TAP	22	360	7
TAP	23	0	6
TAP	23	72	5
TAP	23	96	4
TAP	23	144	3
TAP	23	144	6
TAP	23	192	5
TAP	23	216	4
TAP	23	288	4
HLD	23	288	6	72
TAP	23	360	7
TAP	24	0	6
TAP	24	72	5
TAP	24	96	4
TAP	24	144	3
TAP	24	144	6
TAP	24	192	5
TAP	24	216	4
TAP	24	288	4
STR	24	288	6
SI_	24	288	6	96	48	1
STR	25	0	2
SI_	25	0	2	96	48	5
STR	25	96	0
SI_	25	96	0	96	48	4
TAP	25	192	3
XTP	25	288	1
XTP	25	336	1
HLD	26	0	2	72
TAP	26	0	4
TAP	26	72	3
TAP	26	96	2
TAP	26	144	1
TAP	26	144	4
TAP	26	192	2
TAP	26	216	3
HLD	26	288	1	72
TAP	26	288	3
TAP	26	360	0
TAP	27	0	1
TAP	27	72	2
TAP	27	96	3
TAP	27	144	1
TAP	27	144	4
TAP	27	192	2
TAP	27	216	3
HLD	27	288	1	72
TAP	27	288	4
TAP	27	360	0
XTP	28	0	1
XTP	28	48	1
XTP	28	96	2
XTP	28	96	3
XTP	28	144	3
XTP	28	144	4
XTP	28	192	3
XTP	28	192	4
XTP	28	240	2
XTP	28	240	5
XTP	28	288	1
XTP	28	288	6
XTP	28	336	0
XTP	28	336	7
TAP	29	0	0
TAP	29	24	7
TAP	29	48	0
TAP	29	72	7
TAP	29	96	0
TAP	29	120	7
TAP	29	144	0
TAP	29	168	7
TAP	29	192	0
TAP	29	216	7
TAP	29	240	0
TAP	29	264	7
TAP	29	288	0
BST	30	0	1
SCR	30	0	1	96	528	7
BST	30	0	6
SCL	30	0	6	96	528	0
XTP	32	0	0
THO	32	0	0	288	C	1	M1
XST	32	288	7
SXR	32	288	7	96	264	2
HLD	34	0	3	48
HLD	34	0	5	48
HLD	34	72	2	48
HLD	34	72	4	48
TAP	34	144	3
TAP	34	144	5
STR	34	192	2
SCL	34	192	2	96	96	5
TAP	34	192	6
XTP	35	0	4
XTP	35	48	4
TAP	35	96	3
TAP	35	96	5
TAP	35	144	2
HLD	35	192	1	96
TTP	35	288	1	B	0	M1
TTP	35	288	2	E	0	M1
TTP	35	336	3	B	0	M1
TTP	35	336	4	E	0	M1
TAP	36	0	5
TAP	36	48	5
STR	36	96	4
SSR	36	96	4	96	96	0
TAP	36	144	3
XST	36	192	2
SCR	36	192	2	96	48	5
TAP	37	0	7
TAP	37	48	6
TAP	37	96	5
STR	37	144	4
SI_	37	144	4	96	96	0
SLL	37	144	4	96	96	0
TAP	37	192	3
HLD	38	0	1	48
HLD	38	0	7	48
HLD	38	72	0	48
HLD	38	72	6	48
TAP	38	144	1
TAP	38	144	5
STR	38	192	4
SI_	38	192	4	96	48	7
STR	38	240	3
SI_	38	240	3	96	48	0
TAP	39	0	6
TAP	39	48	7
TAP	39	96	0
TAP	39	96	6
TAP	39	144	1
TAP	39	192	2
STR	39	192	5
SV_	39	192	5	96	48	2
SV_	39	192	5	96	48	3
XHO	40	0	1	48
XHO	40	0	4	48
HLD	40	72	2	48
HLD	40	72	5	48
TAP	40	144	3
TAP	40	144	6
TTP	40	192	7	E	0	M1
TTP	40	240	5	E	0	M1
TTP	40	288	3	E	0	M1
TTP	40	336	1	E	0	M1
HLD	41	0	5	72
TAP	41	72	4
TAP	41	144	3
TAP	41	144	6
TAP	41	192	3
STR	41	192	6
SV_	41	192	6	96	48	3
HLD	42	0	2	48
HLD	42	0	4	48
HLD	42	72	3	48
HLD	42	72	5	48
TAP	42	144	2
TAP	42	144	4
TAP	42	192	1
STR	42	192	5
SCR	42	192	5	96	96	2
XTP	43	0	3
XTP	43	48	3
TAP	43	96	2
TAP	43	96	4
TAP	43	144	5
STR	43	192	6
SI_	43	192	6	96	48	1
SV_	43	192	6	96	48	1
XHO	44	0	0	48
XHO	44	0	2	48
HLD	44	72	1	48
HLD	44	72	7	48
TAP	44	144	0
TAP	44	144	6
STR	44	192	0
SCR	44	192	0	96	48	3
TAP	44	192	6
STR	44	288	5
SXR	44	288	5	96	144	1
XHO	45	0	2	192
XTP	45	240	0
TAP	45	288	7
TAP	45	336	6
XTP	46	0	4
XTP	46	0	5
TAP	46	48	6
XTP	46	96	0
XTP	46	96	7
TAP	46	144	1
XTP	46	192	2
XTP	46	192	3
TAP	46	240	1
XTP	46	288	0
XTP	46	288	7
TAP	46	336	6
XTP	47	0	4
XTP	47	0	5
TAP	47	48	6
XTP	47	96	0
XTP	47	96	7
TAP	47	144	1
XTP	47	192	2
XTP	47	192	3
TAP	47	240	1
XTP	47	288	0
XTP	47	288	7
TAP	47	336	6
XTP	48	0	4
XTP	48	0	5
XTP	48	48	4
XTP	48	48	5
XTP	48	96	6
XTP	48	96	7
XTP	48	144	6
XTP	48	144	7
XTP	48	192	0
XTP	48	192	1
XTP	48	240	0
XTP	48	240	1
XTP	48	288	2
XTP	48	288	3
XHO	48	336	2	48
XTP	48	336	3
TAP	49	0	3
TAP	49	24	2
TAP	49	48	3
TAP	49	72	2
TAP	49	96	3
TAP	49	120	2
TAP	49	144	3
TAP	49	168	2
TAP	49	192	3
TAP	49	216	2
TAP	49	240	3
TAP	49	264	2
STR	49	288	3
SF_	49	288	3	96	96	7
TTP	50	192	7	E	0	M1
TTP	50	208	6	B	0	M1
TTP	50	224	5	B	0	M1
TTP	50	240	5	E	0	M1
TTP	50	288	1	E	0	M1
TTP	50	304	1	B	0	M1
TTP	50	320	2	B	0	M1
TTP	50	336	3	E	0	M1
TTP	51	0	0	C	1	M1
XTP	51	96	0
XTP	51	96	7
TTP	51	192	6	E	0	M1
TTP	51	208	5	B	0	M1
TTP	51	224	4	B	0	M1
TTP	51	240	4	E	0	M1
TTP	51	288	0	E	0	M1
TTP	51	304	0	B	0	M1
TTP	51	320	1	B	0	M1
TTP	51	336	2	E	0	M1
TTP	52	0	0	C	1	M1
XTP	52	96	0
XTP	52	96	7
TTP	52	192	2	E	0	M1
TTP	52	208	2	B	0	M1
TTP	52	224	3	B	0	M1
TTP	52	240	4	E	0	M1
TTP	52	288	0	E	0	M1
TTP	52	304	7	B	0	M1
TTP	52	320	6	B	0	M1
TTP	52	336	6	E	0	M1
XST	53	0	1
SI_	53	0	1	96	48	3
TAP	53	96	7
STR	53	144	7
SLL	53	144	7	96	96	1
TAP	53	240	4
TAP	53	288	4
TAP	53	336	3
TAP	54	0	2
BRK	54	96	0
BRK	54	96	7
TTP	54	192	1	E	0	M1
TTP	54	208	1	B	0	M1
TTP	54	224	2	B	0	M1
TTP	54	240	3	E	0	M1
TTP	54	288	7	E	0	M1
TTP	54	304	6	B	0	M1
TTP	54	320	5	B	0	M1
TTP	54	336	5	E	0	M1
TTP	55	0	0	C	1	M1
XTP	55	96	0
XTP	55	96	7
TTP	55	192	2	E	0	M1
TTP	55	208	2	B	0	M1
TTP	55	224	3	B	0	M1
TTP	55	240	4	E	0	M1
TTP	55	288	0	E	0	M1
TTP	55	304	7	B	0	M1
TTP	55	320	6	B	0	M1
TTP	55	336	6	E	0	M1
TTP	56	0	0	C	1	M1
XTP	56	96	0
XTP	56	96	7
TTP	56	192	6	E	0	M1
TTP	56	208	5	B	0	M1
TTP	56	224	4	B	0	M1
TTP	56	240	4	E	0	M1
TTP	56	288	0	E	0	M1
TTP	56	304	0	B	0	M1
TTP	56	320	1	B	0	M1
TTP	56	336	2	E	0	M1
XST	57	0	6
SI_	57	0	6	96	48	4
TAP	57	96	0
STR	57	144	0
SLR	57	144	0	96	96	6
TAP	57	240	3
TAP	57	288	3
TAP	57	336	4
TAP	58	0	5
BRK	58	96	2
HLD	58	96	7	288
TTP	58	192	7	E	0	M1
TTP	58	208	6	B	0	M1
TTP	58	224	5	B	0	M1
TTP	58	240	5	E	0	M1
TTP	58	288	3	E	0	M1
TTP	58	304	2	B	0	M1
TTP	58	320	1	B	0	M1
TTP	58	336	1	E	0	M1
TTP	59	0	0	C	1	M1
XHO	59	96	0	288
XTP	59	96	6
TTP	59	192	4	E	0	M1
TTP	59	208	3	B	0	M1
TTP	59	224	2	B	0	M1
TTP	59	240	2	E	0	M1
TTP	59	288	0	E	0	M1
TTP	59	304	7	B	0	M1
TTP	59	320	6	B	0	M1
TTP	59	336	6	E	0	M1
TTP	60	0	0	C	1	M1
XTP	60	96	1
XHO	60	96	7	288
TTP	60	192	4	E	0	M1
TTP	60	208	4	B	0	M1
TTP	60	224	5	B	0	M1
TTP	60	240	6	E	0	M1
TTP	60	288	0	E	0	M1
TTP	60	304	0	B	0	M1
TTP	60	320	1	B	0	M1
TTP	60	336	2	E	0	M1
XST	61	0	4
SI_	61	0	4	96	48	1
TAP	61	96	6
STR	61	144	6
SLL	61	144	6	96	96	0
TAP	61	240	2
TAP	61	288	2
TAP	61	336	3
TAP	62	0	3
TAP	62	0	7
BRK	62	96	0
BRK	62	96	5
TTP	62	192	7	B	0	M1
TTP	62	192	7	E	0	M1
TTP	62	208	6	E	0	M1
TTP	62	224	5	E	0	M1
TTP	62	240	4	E	0	M1
TTP	62	288	0	B	0	M1
TTP	62	288	1	E	0	M1
TTP	62	304	2	E	0	M1
TTP	62	320	3	E	0	M1
TTP	62	336	4	E	0	M1
XHO	63	0	4	48
XHO	63	0	6	48
TAP	63	72	4
TAP	63	72	6
TTP	63	192	0	B	0	M1
TTP	63	192	1	E	0	M1
TTP	63	208	2	E	0	M1
TTP	63	224	3	E	0	M1
TTP	63	240	4	E	0	M1
TTP	63	288	7	B	0	M1
TTP	63	288	7	E	0	M1
TTP	63	304	6	E	0	M1
TTP	63	320	5	E	0	M1
TTP	63	336	4	E	0	M1
XHO	64	0	1	48
XHO	64	0	3	48
TAP	64	72	1
TAP	64	72	3
TAP	64	192	2
TAP	64	192	4
TAP	64	240	5
TAP	64	288	6
TAP	64	336	0
TAP	64	336	7
TAP	65	0	7
TAP	65	24	0
TAP	65	48	7
TAP	65	72	0
TAP	65	96	7
TAP	65	120	0
TAP	65	144	6
TAP	65	168	1
TAP	65	192	6
TAP	65	216	1
TAP	65	240	6
TAP	65	264	1
TAP	65	288	5
TAP	65	312	2
TAP	65	336	5
TAP	65	360	2
BST	66	0	4
SV_	66	0	4	96	96	7
SLL	66	0	4	96	96	7
BRK	66	288	1
BRK	66	288	5
STR	67	0	6
SI_	67	0	6	96	48	4
TAP	67	96	7
STR	67	192	0
SI_	67	192	0	96	48	6
TAP	67	288	1
STR	68	0	2
SI_	68	0	2	96	48	0
TAP	68	96	3
STR	68	192	4
SI_	68	192	4	96	48	2
TAP	68	288	5
STR	69	0	6
SI_	69	0	6	96	48	4
TAP	69	96	7
STR	69	192	0
SI_	69	192	0	96	48	6
TAP	69	288	1
STR	70	0	2
SI_	70	0	2	96	48	0
TAP	70	96	3
TAP	70	192	1
TAP	70	192	4
TAP	70	288	3
TAP	70	288	6
HLD	71	0	1	96
XTP	71	96	2
TAP	71	168	1
HLD	71	168	3	72
TAP	71	240	2
XTP	71	288	1
XTP	71	288	4
HLD	72	0	6	96
XTP	72	96	5
HLD	72	168	4	72
TAP	72	168	6
TAP	72	240	5
XTP	72	288	3
XTP	72	288	6
TAP	73	0	3
TAP	73	0	4
TAP	73	48	3
TAP	73	48	4
TAP	73	96	2
TAP	73	96	5
TAP	73	144	2
TAP	73	144	5
TAP	73	192	1
TAP	73	192	6
TAP	73	240	1
TAP	73	240	6
TAP	73	288	0
TAP	73	288	7
TAP	73	336	0
TAP	73	336	7
TAP	74	0	0
TAP	74	24	7
TAP	74	48	0
TAP	74	72	7
TAP	74	96	0
TAP	74	120	7
TAP	74	144	0
TAP	74	168	7
TAP	74	192	0
TAP	74	216	7
TAP	74	240	0
TAP	74	264	7
TAP	74	288	0
TTP	75	0	0	C	1	M1
TTP	75	0	1	B	0	M1
TTP	75	0	2	B	0	M1
TTP	75	0	2	E	0	M1
TTP	75	0	5	B	0	M1
TTP	75	0	6	B	0	M1
TTP	75	0	6	E	0	M1

T_REC_TAP	249
T_REC_BRK	8
T_REC_XTP	82
T_REC_HLD	51
T_REC_XHO	13
T_REC_STR	40
T_REC_BST	3
T_REC_XST	5
T_REC_TTP	113
T_REC_THO	3
T_REC_SLD	52
T_REC_ALL	619
T_NUM_TAP	489
T_NUM_BRK	11
T_NUM_HLD	67
T_NUM_SLD	52
T_NUM_ALL	619
T_JUDGE_TAP	500
T_JUDGE_HLD	151
T_JUDGE_SLD	52
T_JUDGE_ALL	703
TTM_EACHPAIRS	105
TTM_SCR_TAP	244500
TTM_SCR_BRK	28600
TTM_SCR_HLD	67000
TTM_SCR_SLD	78000
TTM_SCR_ALL	418100
TTM_SCR_S	404500
TTM_SCR_SS	417000
TTM_RAT_ACV	10026

