VERSION	0.00.00	1.03.00
FES_MODE	0
BPM_DEF	137.000	137.000	137.000	137.000
MET_DEF	4	4
RESOLUTION	384
CLK_DEF	384
COMPATIBLE_CODE	MA2

BPM	0	0	137.000
MET	0	0	4	4

THO	2	0	0	1152	C	1	L1
TTP	2	0	2	B	0	L1
TTP	2	0	5	B	0	L1
XTP	6	0	6
TAP	6	96	6
TAP	6	96	7
TAP	6	192	6
TAP	6	288	6
TAP	6	288	7
TAP	7	0	5
TAP	7	96	4
TAP	7	96	5
TAP	7	192	5
TAP	7	288	4
TAP	7	288	5
TAP	8	0	2
TAP	8	96	2
TAP	8	96	3
TAP	8	192	2
TAP	8	288	2
TAP	8	288	3
TAP	9	0	1
TAP	9	96	0
TAP	9	96	1
TAP	9	192	7
TAP	9	288	1
TAP	9	288	6
HLD	10	0	5	96
TAP	10	96	4
XTP	10	192	5
TAP	10	288	4
TAP	10	288	6
HLD	11	0	2	96
TAP	11	96	3
XTP	11	192	2
TAP	11	288	1
TAP	11	288	3
TAP	12	0	3
TAP	12	0	4
TAP	12	96	2
TAP	12	96	5
TAP	12	192	1
TAP	12	192	6
TAP	12	288	0
TAP	12	288	7
BST	13	0	0
SSL	13	0	0	96	192	4
BRK	13	0	7
TAP	14	0	5
TAP	14	96	5
TAP	14	192	4
TAP	14	192	5
TAP	14	288	4
TAP	14	288	5
TAP	15	0	6
TAP	15	96	7
TAP	15	192	0
TAP	15	288	1
TAP	16	0	2
TAP	16	96	2
TAP	16	192	2
TAP	16	192	3
TAP	16	288	2
TAP	16	288	3
XTP	17	0	1
XTP	17	96	0
XTP	17	96	7
XTP	17	192	1
XTP	17	192	6
TAP	18	0	6
TAP	18	96	6
TAP	18	192	6
TAP	18	192	7
TAP	18	288	6
TAP	18	288	7
TAP	19	0	5
TAP	19	96	4
TAP	19	192	3
TAP	19	288	2
TAP	20	0	1
TAP	20	96	1
TAP	20	192	0
TAP	20	192	1
TAP	20	288	0
TAP	20	288	1
TAP	21	0	2
STR	21	0	3
SSR	21	0	3	96	192	7
XTP	22	0	6
TAP	22	96	6
TAP	22	96	7
TAP	22	192	6
TAP	22	288	0
TAP	22	288	5
TAP	23	0	1
TAP	23	96	0
TAP	23	96	1
TAP	23	192	1
TAP	23	288	2
TAP	23	288	7
TAP	24	0	3
TAP	24	96	2
TAP	24	96	3
TAP	24	192	2
TAP	24	288	1
TAP	24	288	4
XTP	25	0	5
XTP	25	96	4
XTP	25	96	5
XTP	25	192	3
XTP	25	192	6
TAP	26	0	2
TAP	26	96	2
TAP	26	96	3
TAP	26	192	2
TAP	26	288	1
TAP	26	288	4
TAP	27	0	5
TAP	27	96	4
TAP	27	96	5
TAP	27	192	5
TAP	27	288	3
TAP	27	288	6
TAP	28	0	7
TAP	28	48	7
TAP	28	96	7
TAP	28	192	0
TAP	28	240	0
TAP	28	288	0
TAP	29	0	1
TAP	29	48	1
TAP	29	96	1
TAP	29	192	2
TAP	29	240	2
TAP	29	288	2
BST	30	0	3
SXR	30	0	3	96	480	0
BST	30	0	4
SXL	30	0	4	96	480	7
THO	32	0	0	384	C	1	L1
STR	34	0	7
SSR	34	0	7	96	192	3
STR	35	0	2
SLL	35	0	2	96	192	4
STR	36	0	5
SCR	36	0	5	96	192	2
TAP	37	0	3
TAP	37	96	3
TAP	37	192	3
TAP	37	192	4
STR	38	0	5
SI_	38	0	5	96	144	0
SI_	38	0	5	96	144	1
STR	39	0	1
SSL	39	0	1	96	192	5
STR	40	0	6
SV_	40	0	6	96	144	4
TTP	41	0	1	B	0	L1
TTP	41	0	2	B	0	L1
TTP	41	0	2	E	0	L1
TTP	41	192	5	B	0	L1
TTP	41	192	6	B	0	L1
TTP	41	192	6	E	0	L1
STR	42	0	3
SSR	42	0	3	96	192	7
STR	43	0	6
SLL	43	0	6	96	192	0
STR	44	0	1
SCR	44	0	1	96	192	6
THO	45	0	0	192	C	1	L1
XTP	46	0	7
TAP	46	96	0
TAP	46	96	7
TAP	46	192	1
TAP	46	288	0
TAP	46	288	1
TAP	47	0	2
TAP	47	96	2
TAP	47	96	3
TAP	47	192	5
TAP	47	288	4
TAP	47	288	5
TAP	48	0	6
TAP	48	48	6
TAP	48	96	6
TAP	48	192	7
TAP	48	240	7
TAP	48	288	7
TAP	49	0	0
TAP	49	0	7
TAP	49	48	0
TAP	49	48	7
TAP	49	96	0
TAP	49	96	7
TAP	49	192	1
TAP	49	192	6
TAP	49	240	1
TAP	49	240	6
STR	49	288	1
SUR	49	288	1	96	144	5
TAP	49	288	6
XTP	50	192	6
XTP	50	240	6
TAP	50	288	0
TAP	50	336	0
TAP	51	0	6
TAP	51	0	7
TAP	51	96	0
TAP	51	96	5
TAP	51	192	1
TAP	51	240	1
TAP	51	288	7
TAP	51	336	7
TAP	52	0	0
TAP	52	0	1
TAP	52	96	2
TAP	52	96	7
TAP	52	192	3
TAP	52	240	3
TAP	52	288	5
TAP	52	336	5
TAP	53	0	3
TAP	53	0	4
TAP	53	96	5
TAP	53	96	6
TAP	53	192	0
TAP	53	192	7
TAP	53	288	1
TAP	53	288	2
TAP	54	0	3
TAP	54	0	4
BRK	54	96	2
BRK	54	96	5
TAP	54	192	1
TAP	54	240	1
TAP	54	288	7
TAP	54	336	7
TAP	55	0	0
TAP	55	0	1
TAP	55	96	2
TAP	55	96	7
TAP	55	192	6
TAP	55	240	6
TAP	55	288	0
TAP	55	336	0
TAP	56	0	6
TAP	56	0	7
TAP	56	96	0
TAP	56	96	5
TAP	56	192	4
TAP	56	240	4
TAP	56	288	2
TAP	56	336	2
TAP	57	0	3
TAP	57	0	4
TAP	57	96	1
TAP	57	96	2
TAP	57	192	0
TAP	57	192	7
TAP	57	288	5
TAP	57	288	6
TAP	58	0	3
TAP	58	0	4
BRK	58	96	2
BRK	58	96	5
TAP	58	192	1
TAP	58	240	0
TAP	58	288	7
TAP	58	336	6
TAP	59	0	4
TAP	59	0	5
TAP	59	96	3
TAP	59	96	6
TAP	59	192	2
TAP	59	240	3
TAP	59	288	4
TAP	59	336	5
TAP	60	0	6
TAP	60	0	7
TAP	60	96	0
TAP	60	96	5
TAP	60	192	6
TAP	60	240	5
TAP	60	288	4
TAP	60	336	3
TAP	61	0	2
TAP	61	0	4
TAP	61	96	0
TAP	61	96	1
TAP	61	192	6
TAP	61	192	7
TAP	61	288	4
TAP	61	288	5
TAP	62	0	2
TAP	62	0	3
TAP	62	96	1
TAP	62	96	4
TAP	62	192	0
TAP	62	240	0
TAP	62	288	0
HLD	63	0	1	96
HLD	63	0	7	96
TAP	63	192	6
TAP	63	240	6
TAP	63	288	6
HLD	64	0	3	96
HLD	64	0	5	96
TAP	64	192	2
TAP	64	240	2
TAP	64	288	2
TAP	65	0	3
TAP	65	0	4
TAP	65	48	3
TAP	65	48	4
TAP	65	96	3
TAP	65	96	4
TAP	65	144	2
TAP	65	144	5
TAP	65	192	2
TAP	65	192	5
TAP	65	240	2
TAP	65	240	5
TAP	65	288	1
TAP	65	288	6
TAP	65	336	1
TAP	65	336	6
BRK	66	0	0
BST	66	0	7
SSR	66	0	7	96	192	3
XTP	67	0	2
TAP	67	96	2
TAP	67	96	3
TAP	67	192	2
TAP	67	288	2
TAP	67	288	3
TAP	68	0	1
TAP	68	96	0
TAP	68	96	1
TAP	68	192	1
TAP	68	288	0
TAP	68	288	1
TAP	69	0	6
TAP	69	96	6
TAP	69	96	7
TAP	69	192	6
TAP	69	288	6
TAP	69	288	7
TAP	70	0	5
TAP	70	96	4
TAP	70	96	5
TAP	70	192	3
TAP	70	288	2
TAP	70	288	5
HLD	71	0	1	96
TAP	71	96	0
XTP	71	192	1
TAP	71	288	0
TAP	71	288	2
HLD	72	0	6	96
TAP	72	96	7
XTP	72	192	6
TAP	72	288	5
TAP	72	288	7
TAP	73	0	6
TAP	73	0	7
TAP	73	48	6
TAP	73	48	7
TAP	73	96	6
TAP	73	96	7
TAP	73	192	4
TAP	73	192	5
TAP	73	240	4
TAP	73	240	5
TAP	73	288	4
TAP	73	288	5
TAP	74	0	2
TAP	74	0	3
TAP	74	48	2
TAP	74	48	3
TAP	74	96	2
TAP	74	96	3
TAP	74	192	0
TAP	74	192	1
TAP	74	240	0
TAP	74	240	1
TAP	74	288	0
TAP	74	288	1
TTP	75	0	0	C	1	L1

T_REC_TAP	311
T_REC_BRK	6
T_REC_XTP	20
T_REC_HLD	8
T_REC_XHO	0
T_REC_STR	11
T_REC_BST	4
T_REC_XST	0
T_REC_TTP	9
T_REC_THO	3
T_REC_SLD	16
T_REC_ALL	388
T_NUM_TAP	351
T_NUM_BRK	10
T_NUM_HLD	11
T_NUM_SLD	16
T_NUM_ALL	388
T_JUDGE_TAP	361
T_JUDGE_HLD	52
T_JUDGE_SLD	16
T_JUDGE_ALL	429
TTM_EACHPAIRS	113
TTM_SCR_TAP	175500
TTM_SCR_BRK	26000
TTM_SCR_HLD	11000
TTM_SCR_SLD	24000
TTM_SCR_ALL	236500
TTM_SCR_S	228450
TTM_SCR_SS	235500
TTM_RAT_ACV	10042

