VERSION	0.00.00	1.03.00
FES_MODE	0
BPM_DEF	137.000	137.000	137.000	137.000
MET_DEF	4	4
RESOLUTION	384
CLK_DEF	384
COMPATIBLE_CODE	MA2

BPM	0	0	137.000
MET	0	0	4	4

XHO	2	0	0	384
XHO	4	0	7	384
STR	6	0	0
SI_	6	0	0	96	288	3
STR	8	0	7
SI_	8	0	7	96	288	4
STR	10	0	0
SI_	10	0	0	96	288	3
HLD	12	0	7	384
TAP	14	0	0
TAP	14	192	0
TAP	15	0	0
TAP	16	0	1
TAP	16	192	1
TAP	17	0	1
TAP	18	0	2
TAP	18	192	2
TAP	19	0	2
TAP	20	0	3
TAP	20	192	3
TAP	21	0	3
TAP	21	0	4
TAP	22	0	4
TAP	22	192	4
TAP	23	0	4
TAP	24	0	5
TAP	24	192	5
TAP	25	0	5
TAP	26	0	6
TAP	26	192	6
TAP	27	0	6
TAP	28	0	7
TAP	28	192	7
TAP	29	0	0
TAP	29	0	7
STR	30	0	0
SI_	30	0	0	96	288	3
STR	30	0	7
SI_	30	0	7	96	288	4
THO	33	0	0	384	C	1	L1
TTP	35	0	6	B	0	L1
TTP	35	0	7	B	0	L1
TTP	36	0	4	B	0	L1
TTP	36	0	5	B	0	L1
TTP	37	0	2	B	0	L1
TTP	37	0	3	B	0	L1
TTP	38	0	0	B	0	L1
TTP	38	0	1	B	0	L1
TTP	39	0	2	B	0	L1
TTP	39	0	3	B	0	L1
TTP	39	0	3	E	0	L1
TTP	40	0	4	B	0	L1
TTP	40	0	5	B	0	L1
TTP	40	0	5	E	0	L1
TTP	41	0	0	C	1	L1
STR	42	0	0
SI_	42	0	0	96	288	4
STR	44	0	6
SI_	44	0	6	96	288	2
STR	46	0	1
SI_	46	0	1	96	288	5
STR	48	0	7
SI_	48	0	7	96	288	3
BRK	50	0	0
HLD	51	0	7	96
TAP	51	192	7
HLD	52	0	6	96
TAP	52	192	6
HLD	53	0	5	96
TAP	53	192	5
HLD	54	0	3	96
HLD	54	0	4	96
TAP	54	192	3
TAP	54	192	4
HLD	55	0	3	96
TAP	55	192	3
HLD	56	0	2	96
TAP	56	192	2
HLD	57	0	1	96
TAP	57	192	1
HLD	58	0	0	96
HLD	58	0	7	96
TAP	58	192	0
TAP	58	192	7
HLD	59	0	0	96
TAP	59	192	0
TAP	59	288	0
HLD	60	0	1	96
TAP	60	192	0
TAP	60	192	1
HLD	61	0	2	96
TAP	61	192	2
TAP	61	288	2
HLD	62	0	3	96
HLD	62	0	4	96
TAP	62	192	3
TAP	62	192	4
HLD	63	0	4	96
TAP	63	192	4
TAP	63	288	4
HLD	64	0	5	96
TAP	64	192	5
TAP	64	288	5
TAP	65	0	6
TAP	65	96	6
TAP	65	192	7
TAP	65	288	7
HLD	66	0	0	96
HLD	66	0	7	96
XTP	66	192	0
XTP	66	192	7
TAP	67	0	7
TAP	67	96	7
TAP	67	192	6
TAP	67	192	7
TAP	68	0	5
TAP	68	96	5
TAP	68	192	4
TAP	68	192	5
TAP	69	0	2
TAP	69	96	2
TAP	69	192	2
TAP	69	192	3
TAP	70	0	1
TAP	70	96	1
TAP	70	192	0
TAP	70	192	1
HLD	71	0	6	96
HLD	71	0	7	96
TAP	71	192	6
TAP	71	192	7
HLD	72	0	0	96
HLD	72	0	1	96
TAP	72	192	0
TAP	72	192	1
HLD	73	0	0	96
HLD	73	0	7	96
TAP	73	192	0
TAP	73	192	7
TAP	74	0	1
TAP	74	0	6
TAP	74	96	1
TAP	74	96	6
TAP	74	192	1
TAP	74	192	6
TTP	75	0	0	C	1	L1

T_REC_TAP	80
T_REC_BRK	1
T_REC_XTP	2
T_REC_HLD	26
T_REC_XHO	2
T_REC_STR	9
T_REC_BST	0
T_REC_XST	0
T_REC_TTP	16
T_REC_THO	1
T_REC_SLD	9
T_REC_ALL	146
T_NUM_TAP	107
T_NUM_BRK	1
T_NUM_HLD	29
T_NUM_SLD	9
T_NUM_ALL	146
T_JUDGE_TAP	108
T_JUDGE_HLD	82
T_JUDGE_SLD	9
T_JUDGE_ALL	199
TTM_EACHPAIRS	25
TTM_SCR_TAP	53500
TTM_SCR_BRK	2600
TTM_SCR_HLD	29000
TTM_SCR_SLD	13500
TTM_SCR_ALL	98600
TTM_SCR_S	95550
TTM_SCR_SS	98500
TTM_RAT_ACV	10010

