VERSION	0.00.00	1.03.00
FES_MODE	0
BPM_DEF	146.000	146.000	146.000	146.000
MET_DEF	4	4
RESOLUTION	384
CLK_DEF	384
COMPATIBLE_CODE	MA2

BPM	0	0	146.000
MET	0	0	4	4

STR	2	0	3
SI_	2	0	3	96	192	0
STR	3	0	4
SI_	3	0	4	96	192	7
STR	4	0	3
SI_	4	0	3	96	192	0
HLD	5	0	4	192
TAP	5	192	3
HLD	6	0	2	288
STR	6	0	3
SI_	6	0	3	96	192	7
STR	7	0	4
SI_	7	0	4	96	192	0
HLD	7	0	5	288
HLD	8	0	2	96
HLD	8	0	3	96
HLD	8	192	6	72
HLD	8	264	5	72
TAP	8	336	4
STR	9	0	3
SCL	9	0	3	96	192	0
STR	9	0	4
SCR	9	0	4	96	192	7
TAP	10	0	2
TAP	10	0	4
TAP	10	48	5
TAP	10	72	3
TAP	10	96	5
TAP	10	144	2
TAP	10	168	4
TAP	10	192	2
BRK	10	288	0
BRK	10	288	7
TAP	11	0	2
TAP	11	0	5
STR	11	48	6
SCL	11	48	6	96	48	3
TAP	11	96	7
TAP	11	144	0
STR	11	240	2
SCL	11	240	2	96	48	7
TAP	11	288	3
TAP	11	336	4
STR	12	48	6
SUL	12	48	6	96	144	5
TAP	12	96	7
TAP	12	144	0
TAP	12	288	2
TAP	12	336	3
TAP	13	0	4
STR	13	48	5
SCL	13	48	5	96	48	2
TAP	13	96	6
TAP	13	144	7
STR	13	240	1
SCL	13	240	1	96	48	6
TAP	13	288	2
TAP	13	336	3
STR	14	48	4
SI_	14	48	4	96	48	0
TAP	14	96	5
TAP	14	144	6
TAP	14	288	3
TAP	14	312	4
TAP	14	336	3
TAP	14	360	4
TAP	15	0	2
STR	15	48	1
SCR	15	48	1	96	48	4
TAP	15	96	0
TAP	15	144	7
STR	15	240	5
SCR	15	240	5	96	48	0
TAP	15	288	4
TAP	15	336	3
STR	16	48	1
SUR	16	48	1	96	144	2
TAP	16	96	0
TAP	16	144	7
TAP	16	288	5
TTP	17	0	2	B	0	M1
TTP	17	0	3	B	0	M1
XHO	17	0	6	96
XHO	17	144	1	96
TTP	17	144	4	B	0	M1
TTP	17	144	5	B	0	M1
TTP	17	288	3	B	0	M1
TTP	17	288	4	B	0	M1
XHO	17	288	7	96
TAP	18	0	1
TAP	18	24	0
TAP	18	48	2
TAP	18	72	0
TAP	18	144	6
TAP	18	168	7
TAP	18	192	5
TAP	18	216	7
BRK	18	288	1
BRK	18	288	6
TAP	19	0	2
TAP	19	48	2
TAP	19	72	4
TAP	19	120	4
TAP	19	144	3
TAP	19	240	5
TAP	19	288	4
TAP	19	288	5
HLD	20	0	6	72
STR	20	72	7
SCL	20	72	7	96	120	2
HLD	20	144	5	144
TAP	21	0	1
TAP	21	48	1
TAP	21	72	3
TAP	21	120	3
TAP	21	144	2
TAP	21	240	5
TAP	21	288	4
TAP	21	288	5
HLD	22	0	7	72
HLD	22	72	6	72
TAP	22	144	5
TAP	22	192	4
TAP	22	288	3
TAP	22	288	6
TAP	23	0	5
TAP	23	48	5
TAP	23	72	3
TAP	23	120	3
TAP	23	144	4
TAP	23	240	2
TAP	23	288	2
TAP	23	288	3
HLD	24	0	1	72
STR	24	72	0
SCR	24	72	0	96	120	5
HLD	24	144	2	144
TAP	24	336	2
STR	25	0	2
SI_	25	0	2	96	48	4
TAP	25	144	6
HLD	25	192	6	72
HLD	25	264	5	72
TAP	25	336	4
TAP	26	0	3
TAP	26	0	4
TAP	26	144	0
TAP	26	144	7
BRK	26	192	2
BRK	26	192	5
TAP	26	336	3
XTP	27	0	2
XTP	27	0	4
TAP	27	96	1
TAP	27	96	3
TAP	27	144	2
TAP	27	192	3
HLD	27	192	4	72
HLD	27	264	5	72
TAP	27	336	6
STR	28	0	7
SCL	28	0	7	96	96	4
TAP	28	96	2
TAP	28	144	1
STR	28	192	0
SCR	28	192	0	96	96	3
TAP	28	288	5
TAP	28	336	6
TAP	29	0	7
TAP	29	96	4
TAP	29	96	6
TAP	29	144	5
HLD	29	192	3	72
TAP	29	192	4
HLD	29	264	2	72
TAP	29	336	1
STR	30	0	0
SI_	30	0	0	96	96	4
TAP	30	192	5
TAP	30	288	4
TAP	31	0	3
HLD	31	0	5	192
TTP	31	192	4	B	0	M1
TTP	31	192	5	B	0	M1
HLD	32	0	2	192
TAP	32	0	3
TTP	32	192	2	B	0	M1
TTP	32	192	3	B	0	M1
TAP	32	336	7
XTP	33	0	2
XTP	33	0	6
XTP	33	72	1
XTP	33	72	5
XTP	33	144	0
XTP	33	144	4
XTP	33	192	1
XTP	33	192	5
XTP	33	264	2
XTP	33	264	6
XTP	33	336	3
XTP	33	336	7
BRK	34	0	1
BRK	34	0	5
STR	34	96	3
SCL	34	96	3	96	48	1
STR	34	96	4
SCR	34	96	4	96	48	6
STR	34	192	3
SI_	34	192	3	96	48	7
STR	34	192	4
SI_	34	192	4	96	48	0
TTP	34	288	0	C	1	M1
XST	35	0	6
SI_	35	0	6	96	48	2
XTP	35	0	7
TAP	35	72	0
TAP	35	96	6
TAP	35	144	1
STR	35	192	2
SI_	35	192	2	96	48	6
TAP	35	192	3
TAP	35	264	4
TAP	35	288	2
TAP	35	336	5
STR	36	0	6
SI_	36	0	6	96	48	2
TAP	36	0	7
TAP	36	72	0
TAP	36	96	6
TAP	36	144	1
BRK	36	192	0
BRK	36	192	4
TAP	36	288	6
TAP	36	336	1
TAP	36	360	0
STR	37	0	2
SI_	37	0	2	96	48	6
TAP	37	96	2
TAP	37	96	4
STR	37	192	6
SI_	37	192	6	96	48	2
TAP	37	192	7
TAP	37	264	0
TAP	37	288	6
TAP	37	336	1
STR	38	0	2
SI_	38	0	2	96	48	6
TAP	38	0	3
TAP	38	72	4
TAP	38	96	2
TAP	38	144	5
BRK	38	192	0
BRK	38	192	4
TAP	38	288	7
TAP	38	336	1
TAP	38	360	0
STR	39	0	1
SCR	39	0	1	96	48	4
TAP	39	72	0
TAP	39	96	1
TAP	39	144	7
STR	39	192	6
SCL	39	192	6	96	48	3
TAP	39	264	7
TAP	39	288	6
TAP	39	336	0
TAP	40	0	1
TAP	40	0	4
TAP	40	96	6
TAP	40	96	7
TAP	40	144	0
TAP	40	192	1
TAP	40	192	3
TAP	40	264	3
TAP	40	264	4
TAP	40	336	4
TAP	40	336	6
HLD	41	0	7	96
STR	41	96	0
SCR	41	96	0	96	144	6
TAP	41	144	1
HLD	41	192	2	192
XTP	42	0	7
XTP	42	72	4
XTP	42	72	6
XTP	42	144	1
XTP	42	144	3
STR	42	192	3
SI_	42	192	3	96	48	7
STR	42	192	4
SI_	42	192	4	96	48	0
TAP	42	288	3
TAP	42	288	4
TTP	42	289	0	C	1	M1
XTP	43	0	0
XST	43	0	1
SI_	43	0	1	96	48	5
TAP	43	72	7
TAP	43	96	1
TAP	43	144	6
TAP	43	192	4
STR	43	192	5
SI_	43	192	5	96	48	1
TAP	43	264	3
TAP	43	288	5
TAP	43	336	2
TAP	44	0	0
STR	44	0	1
SI_	44	0	1	96	48	5
TAP	44	72	7
TAP	44	96	1
TAP	44	144	6
BRK	44	192	3
BRK	44	192	7
TAP	44	288	1
TAP	44	336	6
TAP	44	360	7
STR	45	0	5
SI_	45	0	5	96	48	1
TAP	45	96	3
TAP	45	96	5
TAP	45	192	0
STR	45	192	1
SI_	45	192	1	96	48	5
TAP	45	264	7
TAP	45	288	1
TAP	45	336	6
TAP	46	0	4
STR	46	0	5
SI_	46	0	5	96	48	1
TAP	46	72	3
TAP	46	96	5
TAP	46	144	2
BRK	46	192	3
BRK	46	192	7
TAP	46	336	6
TAP	46	360	7
XTP	47	0	6
XTP	47	72	1
XTP	47	72	3
XTP	47	144	0
XTP	47	144	7
XTP	47	192	4
XHO	47	192	6	96
TAP	47	240	5
BRK	47	288	5
TAP	47	336	1
TAP	47	360	0
XTP	48	0	1
XTP	48	72	4
XTP	48	72	6
XTP	48	144	0
XTP	48	144	7
XHO	48	192	1	96
XTP	48	192	3
TAP	48	240	2
BRK	48	288	2
STR	49	0	6
SI_	49	0	6	96	48	3
TAP	49	0	7
STR	49	96	1
SI_	49	96	1	96	48	4
TAP	49	96	6
TAP	49	192	0
TAP	49	192	1
TAP	49	264	7
TAP	49	336	6
STR	50	0	1
SXL	50	0	1	96	192	4
STR	50	0	5
SXL	50	0	5	96	192	0
XST	51	0	2
SI_	51	0	2	96	48	7
XST	51	0	6
SI_	51	0	6	96	48	3
TAP	51	96	2
TAP	51	96	6
BRK	51	192	1
BRK	51	192	5
BRK	51	264	3
BRK	51	264	7
BRK	51	336	0
BRK	51	336	4
BST	52	0	2
SCL	52	0	2	96	96	7
BST	52	0	6
SCL	52	0	6	96	96	3
TAP	52	288	4
TAP	52	312	3
TAP	52	336	4
TAP	52	360	3
STR	53	0	4
SF_	53	0	4	96	48	0
TTP	53	102	4	B	0	M1
TTP	53	108	0	C	1	M1
TTP	53	114	0	B	0	M1
TTP	53	114	1	B	0	M1
TTP	53	114	7	B	0	M1
TAP	53	288	0
TAP	53	288	1
TAP	53	336	2
HLD	53	336	7	96
TAP	54	48	5
TAP	54	96	4
HLD	54	144	3	96
TAP	54	240	4
TAP	54	288	5
TAP	54	336	6
TAP	55	0	1
TAP	55	24	0
TAP	55	48	1
TAP	55	96	2
TAP	55	96	7
TAP	55	144	6
TAP	55	192	5
TAP	55	240	4
TAP	55	288	3
TAP	55	336	2
HLD	55	336	4	96
STR	56	48	2
SCL	56	48	2	96	144	5
TAP	56	72	3
TAP	56	96	2
TAP	56	120	3
TAP	56	144	2
TAP	57	0	6
TAP	57	24	4
TAP	57	48	5
TAP	57	72	4
TAP	57	96	6
TAP	57	120	3
TAP	57	144	4
TAP	57	168	3
TAP	57	192	5
TAP	57	240	1
TAP	57	264	0
TAP	57	288	1
TAP	57	336	2
HLD	57	336	7	96
TAP	58	48	5
TAP	58	96	4
HLD	58	144	3	96
TAP	58	240	5
TAP	58	264	3
TAP	58	288	4
TAP	58	312	2
TAP	58	336	3
TAP	58	360	1
XTP	59	0	0
XTP	59	0	7
TAP	59	144	3
TAP	59	168	3
TAP	59	192	3
BRK	59	264	2
BRK	59	264	6
BST	59	336	0
SSL	59	336	0	96	336	4
BRK	59	336	4
HLD	62	0	2	1344
TTP	62	192	6	E	0	M1
TTP	62	200	5	B	0	M1
TTP	63	192	4	B	0	M1
TTP	63	200	4	E	0	M1
TTP	64	192	0	C	0	M1
TTP	64	200	2	B	0	M1
TTP	65	0	4	B	0	M1
TTP	65	8	4	E	0	M1
TTP	65	192	2	B	0	M1
TTP	65	192	3	B	0	M1
HLD	66	0	5	768
TTP	66	192	0	C	0	M1
TTP	66	200	5	B	0	M1
TTP	67	192	1	B	0	M1
TTP	67	200	2	B	0	M1
TTP	67	208	3	B	0	M1
THO	68	0	0	288	C	0	M1
XTP	69	0	0
XTP	69	0	7
XTP	69	72	4
XTP	69	72	6
XTP	69	144	1
XTP	69	144	3
STR	69	192	3
SI_	69	192	3	96	48	7
STR	69	192	4
SI_	69	192	4	96	48	0
TAP	69	288	3
TAP	69	288	4
TTP	69	289	0	C	1	M1
XST	70	0	6
SCL	70	0	6	96	48	3
XTP	70	0	7
TAP	70	72	0
TAP	70	96	6
TAP	70	144	1
STR	70	192	2
SCL	70	192	2	96	48	7
TAP	70	192	3
TAP	70	264	4
TAP	70	288	2
TAP	70	336	5
TAP	71	0	6
TAP	71	0	7
TAP	71	72	1
STR	71	96	3
SI_	71	96	3	96	48	0
SI_	71	96	3	96	48	6
TAP	71	144	2
BRK	71	192	3
TAP	71	288	7
TAP	71	336	1
TAP	71	360	0
STR	72	0	2
SCL	72	0	2	96	48	7
TAP	72	96	2
TAP	72	96	4
STR	72	192	6
SCL	72	192	6	96	48	3
TAP	72	192	7
TAP	72	264	0
TAP	72	288	6
TAP	72	336	1
STR	73	0	2
SCL	73	0	2	96	48	7
TAP	73	0	3
TAP	73	72	4
TAP	73	96	2
TAP	73	144	5
BRK	73	192	0
BRK	73	192	4
TAP	73	288	7
TAP	73	336	1
TAP	73	360	0
XTP	74	0	1
XTP	74	72	3
XTP	74	72	6
XTP	74	144	0
XTP	74	144	4
XTP	74	192	3
XST	74	192	7
SI_	74	192	7	96	48	3
BRK	74	288	0
BRK	74	288	7
XHO	75	0	1	72
XHO	75	0	4	72
XHO	75	96	3	72
XHO	75	96	6	72
TAP	75	192	5
TAP	75	216	4
TAP	75	240	5
TAP	75	264	4
TAP	75	288	5
TAP	75	336	3
TAP	75	336	4
HLD	76	0	2	96
TAP	76	48	3
TAP	76	96	4
TAP	76	144	5
HLD	76	192	6	96
TAP	76	240	7
TAP	76	288	0
TAP	76	336	1
TAP	76	360	3
STR	77	0	1
SCL	77	0	1	96	48	6
TAP	77	96	6
TAP	77	144	5
XTP	77	192	3
XTP	77	192	4
XTP	77	264	0
XTP	77	264	2
BRK	77	336	5
BRK	77	336	7
BRK	78	0	3
BRK	78	0	4
TAP	78	144	2
TAP	78	168	3
TAP	78	192	1
TAP	78	192	4
TAP	78	264	3
TAP	78	264	6
TAP	78	336	2
TAP	78	336	5
HLD	79	0	0	96
BRK	79	96	7
BRK	79	192	6
BRK	79	288	5
TAP	79	336	3
BST	80	0	3
SI_	80	0	3	96	192	0
TAP	80	336	4
BST	81	0	4
SI_	81	0	4	96	192	7
TAP	81	192	0
TAP	81	264	1
TAP	81	336	2
XTP	82	0	3
XTP	82	0	6
TAP	82	48	3
TAP	82	48	6
TAP	82	96	2
TAP	82	96	5
TAP	82	144	2
TAP	82	144	5
TAP	82	192	1
TAP	82	192	4
TAP	82	240	1
TAP	82	240	4
TAP	82	288	0
TAP	82	312	7
TAP	82	336	0
TAP	82	360	7
XST	83	0	0
SCR	83	0	0	96	120	7
XST	83	0	7
SUR	83	0	7	96	120	0
BRK	83	288	2
BRK	83	288	5
TAP	84	0	3
TAP	84	0	4
STR	84	48	1
SCR	84	48	1	96	48	4
TAP	84	96	0
TAP	84	144	7
STR	84	240	5
SCR	84	240	5	96	48	0
TAP	84	288	4
TAP	84	336	3
STR	85	48	1
SUR	85	48	1	96	144	2
TAP	85	96	0
TAP	85	144	7
TAP	85	288	5
TAP	85	336	4
TAP	86	0	3
STR	86	48	2
SCR	86	48	2	96	48	5
TAP	86	96	1
TAP	86	144	0
STR	86	240	6
SCR	86	240	6	96	48	1
TAP	86	288	5
TAP	86	336	4
STR	87	48	3
SI_	87	48	3	96	48	7
TAP	87	96	2
TAP	87	144	1
TAP	87	288	4
TAP	87	312	3
TAP	87	336	4
TAP	87	360	3
TAP	88	0	5
STR	88	48	6
SCL	88	48	6	96	48	3
TAP	88	96	7
TAP	88	144	0
STR	88	240	2
SCL	88	240	2	96	48	7
TAP	88	288	3
TAP	88	336	4
STR	89	48	6
SUL	89	48	6	96	144	5
TAP	89	96	7
TAP	89	144	0
TAP	89	288	2
XHO	90	0	1	96
TTP	90	0	4	B	0	M1
TTP	90	0	5	B	0	M1
TTP	90	144	2	B	0	M1
TTP	90	144	3	B	0	M1
XHO	90	144	6	96
XHO	90	288	0	96
TTP	90	288	3	B	0	M1
TTP	90	288	4	B	0	M1
TAP	91	0	6
TAP	91	24	7
TAP	91	48	5
TAP	91	72	7
TAP	91	144	1
TAP	91	168	0
TAP	91	192	2
TAP	91	216	0
BST	91	288	2
SI_	91	288	2	96	48	7
BST	91	288	6
SI_	91	288	6	96	48	3
TAP	92	0	2
STR	92	0	6
SCR	92	0	6	96	672	5
TTP	92	97	0	C	1	M1

T_REC_TAP	348
T_REC_BRK	41
T_REC_XTP	54
T_REC_HLD	33
T_REC_XHO	12
T_REC_STR	65
T_REC_BST	7
T_REC_XST	8
T_REC_TTP	40
T_REC_THO	1
T_REC_SLD	81
T_REC_ALL	690
T_NUM_TAP	515
T_NUM_BRK	48
T_NUM_HLD	46
T_NUM_SLD	81
T_NUM_ALL	690
T_JUDGE_TAP	563
T_JUDGE_HLD	154
T_JUDGE_SLD	81
T_JUDGE_ALL	798
TTM_EACHPAIRS	117
TTM_SCR_TAP	257500
TTM_SCR_BRK	124800
TTM_SCR_HLD	46000
TTM_SCR_SLD	121500
TTM_SCR_ALL	549800
TTM_SCR_S	528650
TTM_SCR_SS	545000
TTM_RAT_ACV	10088

