VERSION	0.00.00	1.03.00
FES_MODE	0
BPM_DEF	146.000	146.000	146.000	146.000
MET_DEF	4	4
RESOLUTION	384
CLK_DEF	384
COMPATIBLE_CODE	MA2

BPM	0	0	146.000
MET	0	0	4	4

STR	2	0	3
SI_	2	0	3	96	288	0
STR	3	0	4
SI_	3	0	4	96	288	7
STR	4	0	0
SI_	4	0	0	96	288	3
STR	5	0	7
SI_	5	0	7	96	288	4
HLD	6	0	2	384
HLD	7	0	3	384
TAP	8	0	4
TAP	8	192	6
HLD	9	0	7	384
TAP	10	0	0
TAP	10	96	2
TAP	10	192	3
TAP	10	192	4
BRK	10	288	1
BRK	10	288	6
TAP	11	0	2
TAP	11	96	3
TAP	11	192	5
TAP	11	288	4
TAP	11	288	6
TAP	12	0	5
TAP	12	96	4
TAP	12	192	2
TAP	12	288	1
TAP	12	288	3
TAP	13	0	2
TAP	13	96	3
TAP	13	192	5
TAP	13	288	4
TAP	13	288	6
TAP	14	0	4
TAP	14	0	6
TAP	14	96	3
TAP	14	96	7
TAP	14	192	3
HLD	14	192	7	96
XTP	14	288	0
TAP	15	0	1
TAP	15	96	2
TAP	15	96	3
TAP	15	192	4
TAP	15	288	3
TAP	15	288	5
TAP	16	0	6
TAP	16	96	4
TAP	16	96	5
TAP	16	192	3
TAP	16	288	2
TAP	16	288	4
XTP	17	0	1
XTP	17	0	5
XTP	17	144	2
XTP	17	144	6
XTP	17	288	1
XTP	17	288	5
XTP	18	0	2
XTP	18	48	2
XTP	18	48	3
XTP	18	144	5
XTP	18	192	4
XTP	18	192	5
BRK	18	288	1
BRK	18	288	6
XHO	19	0	2	576
XTP	19	0	4
TAP	19	96	4
TAP	19	192	3
TAP	19	288	4
TAP	20	0	3
TAP	20	96	3
TAP	20	192	4
XTP	20	288	3
XTP	20	288	4
XTP	21	0	3
HLD	21	0	5	384
TAP	21	96	3
TAP	21	192	4
TAP	21	288	3
TAP	22	0	4
TAP	22	96	3
TAP	22	96	5
XTP	22	192	3
XTP	22	192	5
TAP	22	288	3
TAP	22	288	4
HLD	23	0	2	480
BRK	23	0	4
TAP	23	96	4
TAP	23	192	3
TAP	23	288	4
TAP	24	0	3
TAP	24	96	3
TAP	24	192	2
TAP	24	192	4
TAP	24	288	2
TAP	24	288	4
TAP	25	0	5
TAP	25	96	3
TAP	25	96	5
TAP	25	192	2
TAP	25	288	2
TAP	25	288	4
THO	26	0	0	192	C	1	M1
TTP	26	0	1	B	0	M1
TTP	26	0	5	B	0	M1
XST	27	0	0
SCR	27	0	0	96	96	3
STR	27	192	7
SCL	27	192	7	96	96	4
HLD	28	0	2	96
HLD	28	96	1	96
TAP	28	192	0
TAP	28	288	7
STR	29	0	6
SCL	29	0	6	96	96	3
STR	29	192	2
SCL	29	192	2	96	96	7
HLD	30	0	5	96
HLD	30	96	4	96
HLD	30	192	3	96
STR	30	288	2
SSL	30	288	2	96	192	6
STR	31	288	7
SCR	31	288	7	96	192	4
XTP	32	336	3
XTP	32	336	6
XHO	33	0	3	72
XHO	33	0	6	72
XTP	33	144	1
XTP	33	144	4
XHO	33	192	1	72
XHO	33	192	4	72
XTP	33	336	0
XTP	33	336	7
BRK	34	0	1
BRK	34	0	6
TAP	34	192	3
TAP	34	192	4
BRK	34	288	0
BRK	34	288	7
HLD	35	0	1	72
TAP	35	72	0
TAP	35	144	2
TAP	35	144	7
HLD	35	192	6	72
TAP	35	264	7
TAP	35	336	0
TAP	35	336	5
HLD	36	0	1	72
TAP	36	72	7
TAP	36	144	2
TAP	36	144	6
XST	36	192	2
SI_	36	192	2	96	48	6
XTP	36	192	6
XST	37	0	7
SI_	37	0	7	96	48	3
HLD	37	192	2	72
TAP	37	264	3
TAP	37	336	1
TAP	37	336	4
HLD	38	0	5	72
TAP	38	72	4
TAP	38	144	3
TAP	38	144	6
TAP	38	192	3
TAP	38	192	6
STR	38	288	7
SCL	38	288	7	96	144	1
XTP	39	144	0
XTP	39	192	0
TAP	39	288	1
STR	39	288	7
SCL	39	288	7	96	144	1
XTP	40	144	0
XTP	40	192	0
XST	40	288	0
SXL	40	288	0	96	192	3
XST	40	288	7
SXR	40	288	7	96	192	4
XST	41	288	3
SI_	41	288	3	96	48	0
XST	41	288	4
SI_	41	288	4	96	48	7
XST	42	192	3
SI_	42	192	3	96	48	7
BRK	42	288	5
HLD	43	0	6	72
TAP	43	72	7
TAP	43	144	0
TAP	43	144	5
HLD	43	192	1	72
TAP	43	264	0
TAP	43	336	2
TAP	43	336	7
HLD	44	0	6	72
TAP	44	72	0
TAP	44	144	1
TAP	44	144	5
XTP	44	192	1
XTP	44	192	5
XTP	44	288	6
STR	45	0	6
SI_	45	0	6	96	48	2
STR	45	0	7
SI_	45	0	7	96	48	3
STR	45	192	0
SI_	45	192	0	96	48	4
STR	45	192	1
SI_	45	192	1	96	48	5
STR	46	0	6
SI_	46	0	6	96	48	2
STR	46	0	7
SI_	46	0	7	96	48	3
BRK	46	192	0
BRK	46	192	5
XTP	46	336	1
XTP	46	336	6
XTP	47	0	1
XTP	47	0	6
XTP	47	72	3
XTP	47	72	5
XTP	47	144	2
XTP	47	144	4
XTP	47	192	2
XTP	47	192	4
BRK	47	288	0
XTP	48	0	1
XTP	48	0	6
XTP	48	72	2
XTP	48	72	4
XTP	48	144	3
XTP	48	144	5
XTP	48	192	3
XTP	48	192	5
BST	48	288	7
SCL	48	288	7	96	144	1
XTP	49	192	0
XTP	49	264	1
XTP	49	264	7
XTP	49	336	2
XTP	49	336	6
XTP	50	0	2
XST	50	0	6
SI_	50	0	6	96	48	2
TAP	50	192	1
STR	50	288	0
SI_	50	288	0	96	48	4
TAP	50	288	4
BRK	51	0	7
XTP	51	192	3
XTP	51	192	5
XTP	51	264	2
XTP	51	264	4
XTP	51	336	0
XTP	51	336	6
BRK	52	0	0
BST	52	0	6
SLL	52	0	6	96	144	0
TAP	52	288	3
TAP	53	0	2
STR	53	0	4
SI_	53	0	4	96	48	0
BRK	53	96	3
TAP	53	288	2
TAP	53	288	4
TAP	53	336	2
TAP	53	336	4
TAP	54	48	5
TAP	54	96	5
TAP	54	144	4
TAP	54	240	3
TAP	54	240	6
TAP	54	288	3
TAP	54	288	6
TAP	55	0	2
TAP	55	48	2
TAP	55	96	3
TAP	55	192	1
TAP	55	192	4
TAP	55	288	0
TAP	55	288	5
TAP	55	336	0
TAP	55	336	5
TAP	56	48	6
TAP	56	48	7
TAP	56	96	6
TAP	56	96	7
TAP	56	192	4
TAP	56	192	5
TAP	56	288	3
TAP	56	288	6
TAP	57	0	5
TAP	57	48	5
TAP	57	96	4
TAP	57	192	6
TAP	57	192	7
TAP	57	288	0
TAP	57	288	1
TAP	58	0	2
TAP	58	48	2
TAP	58	96	3
TAP	58	192	0
TAP	58	192	1
TAP	58	288	2
TAP	58	288	7
TTP	59	0	0	C	1	M1
TTP	59	0	3	B	0	M1
TTP	59	0	4	B	0	M1
XTP	59	192	0
XTP	59	192	7
XTP	59	264	1
XTP	59	264	6
TTP	59	336	0	C	1	M1
TTP	59	336	2	B	0	M1
TTP	59	336	5	B	0	M1
HLD	62	0	2	768
TTP	63	0	3	B	0	M1
TTP	63	192	4	B	0	M1
HLD	64	0	5	768
TTP	65	0	5	B	0	M1
TTP	65	0	5	E	0	M1
TTP	65	192	2	B	0	M1
TTP	65	192	3	E	0	M1
HLD	66	0	4	384
TTP	66	192	5	B	0	M1
HLD	67	0	3	384
TTP	67	192	2	B	0	M1
THO	68	0	0	192	C	0	M1
XTP	69	0	0
XTP	69	0	7
XTP	69	72	1
XTP	69	72	6
XTP	69	144	2
XTP	69	144	5
XTP	69	192	2
XTP	69	192	5
BRK	69	288	0
BRK	69	288	7
HLD	70	0	6	72
TAP	70	72	7
TAP	70	144	0
TAP	70	144	5
HLD	70	192	1	72
TAP	70	264	0
TAP	70	336	2
TAP	70	336	7
HLD	71	0	6	72
TAP	71	72	0
BRK	71	144	1
BRK	71	144	5
BRK	71	192	1
BRK	71	192	5
STR	71	288	2
SI_	71	288	2	96	48	5
TAP	71	288	7
TAP	72	96	3
STR	72	96	6
SI_	72	96	6	96	48	1
TAP	72	288	3
TAP	72	288	7
XST	73	0	1
SI_	73	0	1	96	48	4
XST	73	0	5
SI_	73	0	5	96	48	0
BRK	73	192	3
BRK	73	192	7
XTP	73	336	0
XTP	73	336	6
XTP	74	0	0
XTP	74	0	6
XTP	74	72	2
XTP	74	72	4
XTP	74	144	3
XTP	74	144	5
XTP	74	192	3
XTP	74	192	5
BRK	74	288	0
BRK	74	288	7
TTP	75	0	2	B	0	M1
TTP	75	0	2	E	0	M1
TTP	75	0	3	B	0	M1
TTP	75	96	4	B	0	M1
TTP	75	96	5	B	0	M1
TTP	75	96	6	E	0	M1
TTP	75	192	0	C	1	M1
TTP	75	192	1	B	0	M1
TTP	75	192	6	B	0	M1
STR	76	0	0
SCR	76	0	0	96	96	3
STR	76	192	5
SCR	76	192	5	96	96	0
BST	77	0	4
SF_	77	0	4	96	96	0
BST	77	288	2
SXR	77	288	2	96	240	7
BST	77	288	6
SXR	77	288	6	96	240	3
TAP	79	0	0
TAP	79	96	1
TAP	79	192	2
TAP	79	288	3
TAP	79	288	5
TAP	79	336	2
TAP	79	336	6
HLD	80	0	2	288
HLD	80	0	6	288
TAP	80	336	1
TAP	80	336	5
HLD	81	0	1	192
TAP	81	0	5
XTP	81	192	4
XTP	81	264	2
XTP	81	264	5
XTP	81	336	0
XTP	81	336	7
BST	82	0	1
SXR	82	0	1	96	288	4
BST	82	0	6
SXL	82	0	6	96	288	3
TAP	83	192	3
TAP	83	192	4
BRK	83	288	1
BRK	83	288	6
TAP	84	0	2
TAP	84	0	5
TAP	84	96	4
TAP	84	144	3
TAP	84	192	2
HLD	84	288	2	96
TAP	84	288	4
TAP	85	0	3
TAP	85	96	1
TAP	85	96	4
TAP	85	192	4
HLD	85	192	5	96
TAP	85	288	3
TAP	86	0	2
TAP	86	0	5
TAP	86	96	3
TAP	86	144	4
TAP	86	192	5
STR	86	288	1
SXR	86	288	1	96	192	4
XTP	87	288	7
TAP	88	0	2
TAP	88	0	5
TAP	88	96	4
TAP	88	144	3
TAP	88	192	2
HLD	88	288	2	96
TAP	88	288	4
TAP	89	0	3
TAP	89	96	1
TAP	89	96	4
TAP	89	192	4
HLD	89	192	5	96
TAP	89	288	3
BRK	90	0	2
BRK	90	0	6
BRK	90	144	1
BRK	90	144	5
BRK	90	288	2
BRK	90	288	6
XTP	91	0	5
XTP	91	24	4
XTP	91	48	5
XTP	91	72	4
XTP	91	144	2
XTP	91	168	3
XTP	91	192	2
XTP	91	216	3
XTP	91	288	3
XTP	91	288	4
TAP	92	0	1
STR	92	0	6
SCL	92	0	6	96	576	1
TTP	92	96	0	C	1	M1

T_REC_TAP	195
T_REC_BRK	34
T_REC_XTP	101
T_REC_HLD	33
T_REC_XHO	5
T_REC_STR	25
T_REC_BST	7
T_REC_XST	11
T_REC_TTP	26
T_REC_THO	2
T_REC_SLD	43
T_REC_ALL	482
T_NUM_TAP	358
T_NUM_BRK	41
T_NUM_HLD	40
T_NUM_SLD	43
T_NUM_ALL	482
T_JUDGE_TAP	399
T_JUDGE_HLD	176
T_JUDGE_SLD	43
T_JUDGE_ALL	618
TTM_EACHPAIRS	135
TTM_SCR_TAP	179000
TTM_SCR_BRK	106600
TTM_SCR_HLD	40000
TTM_SCR_SLD	64500
TTM_SCR_ALL	390100
TTM_SCR_S	374450
TTM_SCR_SS	386000
TTM_RAT_ACV	10106

