VERSION	0.00.00	1.03.00
FES_MODE	0
BPM_DEF	146.000	146.000	146.000	146.000
MET_DEF	4	4
RESOLUTION	384
CLK_DEF	384
COMPATIBLE_CODE	MA2

BPM	0	0	146.000
MET	0	0	4	4

HLD	2	0	2	384
HLD	3	0	3	384
HLD	4	0	4	384
TAP	5	0	5
HLD	6	0	6	384
HLD	7	0	7	384
HLD	8	0	0	384
TAP	9	0	1
STR	10	0	7
SF_	10	0	7	96	144	3
TAP	11	0	2
TAP	11	96	2
TAP	11	192	3
TAP	11	288	3
TAP	12	0	4
TAP	12	96	4
TAP	12	192	3
TAP	12	192	5
TAP	13	0	6
TAP	13	96	6
TAP	13	192	7
TAP	13	288	7
TAP	14	0	0
TAP	14	96	0
TAP	14	96	7
TAP	14	192	1
TAP	14	192	6
TAP	15	0	6
TAP	15	96	6
TAP	15	192	5
TAP	15	288	5
TAP	16	0	4
TAP	16	96	4
TAP	16	192	3
TAP	16	192	5
XHO	17	0	2	144
XTP	17	144	3
XTP	17	288	3
XTP	17	288	4
XHO	18	0	5	144
XTP	18	144	4
XTP	18	288	3
XTP	18	288	4
TAP	19	0	2
TAP	19	96	2
TAP	19	192	2
TAP	19	192	3
TAP	20	0	5
TAP	20	96	5
TAP	20	192	4
TAP	20	192	5
TAP	21	0	2
TAP	21	96	2
TAP	21	192	2
TAP	21	192	3
TAP	22	0	4
TAP	22	96	4
TAP	22	192	3
TAP	22	192	5
TAP	23	0	6
TAP	23	96	6
TAP	23	192	6
TAP	23	192	7
TAP	24	0	1
TAP	24	96	1
TAP	24	192	0
TAP	24	192	1
TAP	25	0	2
TAP	25	96	2
TAP	25	192	3
TAP	25	288	4
XST	26	0	3
SCL	26	0	3	96	144	0
XTP	26	0	4
TAP	27	0	7
TAP	27	96	7
TAP	27	192	6
TAP	27	288	6
TAP	28	0	5
TAP	28	96	5
TAP	28	192	4
TAP	28	192	6
TAP	29	0	3
TAP	29	96	3
TAP	29	192	2
TAP	29	288	2
STR	30	0	1
SUR	30	0	1	96	144	5
STR	31	0	6
SCL	31	0	6	96	144	3
STR	32	0	2
SCL	32	0	2	96	144	7
XTP	33	0	6
XTP	33	96	5
XTP	33	192	4
XTP	33	288	3
STR	34	0	3
SI_	34	0	3	96	144	0
STR	34	0	4
SI_	34	0	4	96	144	7
BRK	35	0	6
TAP	35	96	6
TAP	35	192	6
TAP	35	192	7
TAP	35	288	6
TAP	35	288	7
TAP	36	0	5
TAP	36	96	4
TAP	36	192	3
TAP	36	192	5
TAP	37	0	2
TAP	37	96	2
TAP	37	192	2
TAP	37	192	3
TAP	37	288	2
TAP	37	288	3
TAP	38	0	1
TAP	38	96	0
TAP	38	192	1
TAP	38	192	7
TAP	39	0	2
TAP	39	96	2
TAP	39	192	1
TAP	39	192	3
TAP	39	288	2
TAP	40	0	4
TAP	40	96	5
TAP	40	192	4
TAP	40	192	6
TAP	40	288	5
STR	41	0	3
SCL	41	0	3	96	144	0
STR	41	0	4
SCR	41	0	4	96	144	7
XTP	42	0	0
XTP	42	0	7
XTP	42	96	0
XTP	42	96	7
XTP	42	192	1
XTP	42	192	6
BRK	43	0	5
TAP	43	96	5
TAP	43	192	4
TAP	43	192	5
TAP	43	288	4
TAP	43	288	5
TAP	44	0	6
TAP	44	96	7
TAP	44	192	0
TAP	44	192	6
TAP	45	0	1
TAP	45	96	1
TAP	45	192	0
TAP	45	192	1
TAP	45	288	0
TAP	45	288	1
TAP	46	0	2
TAP	46	96	3
TAP	46	192	2
TAP	46	192	4
STR	47	0	0
SI_	47	0	0	96	144	4
STR	47	0	1
SI_	47	0	1	96	144	4
STR	48	0	6
SI_	48	0	6	96	144	3
STR	48	0	7
SI_	48	0	7	96	144	3
TAP	49	0	2
TAP	49	96	2
TAP	49	96	3
TAP	49	192	5
TAP	49	288	4
STR	49	288	5
SCR	49	288	5	96	240	2
XTP	51	0	3
XTP	51	0	4
XTP	51	192	1
XTP	51	192	6
XTP	51	288	1
XTP	51	288	6
BST	52	0	0
SI_	52	0	0	96	144	4
BST	52	0	7
SI_	52	0	7	96	144	3
XTP	53	0	3
XTP	53	0	4
BRK	53	96	2
BRK	53	96	5
STR	54	0	6
SI_	54	0	6	96	144	2
STR	55	0	1
SI_	55	0	1	96	144	4
STR	56	0	5
SV_	56	0	5	96	144	0
STR	57	0	1
SI_	57	0	1	96	144	5
STR	58	0	6
SV_	58	0	6	96	144	4
XHO	59	0	3	192
XTP	59	192	4
XTP	59	264	4
XST	59	336	4
SCR	59	336	4	96	432	3
TTP	62	0	4	E	0	L1
TTP	63	0	5	E	0	L1
TTP	64	0	6	E	0	L1
TTP	65	0	7	E	0	L1
TTP	66	0	0	E	0	L1
TTP	67	0	1	E	0	L1
THO	68	0	0	384	C	1	L1
BRK	70	0	1
TAP	70	96	0
TAP	70	96	1
TAP	70	192	1
TAP	70	288	0
TAP	70	288	1
TAP	71	0	2
TAP	71	96	3
TAP	71	192	2
TAP	71	192	4
TAP	72	0	5
TAP	72	96	4
TAP	72	96	5
TAP	72	192	5
TAP	72	288	4
TAP	72	288	5
TAP	73	0	6
TAP	73	96	7
TAP	73	192	0
TAP	73	192	6
STR	74	0	0
SI_	74	0	0	96	144	4
STR	74	0	1
SI_	74	0	1	96	144	3
TAP	75	0	5
TAP	75	96	5
TAP	75	192	6
TAP	75	288	6
STR	76	0	7
SUL	76	0	7	96	144	2
TAP	77	0	1
TAP	77	96	0
TAP	77	192	7
TAP	77	288	6
BST	78	0	0
SXL	78	0	0	96	432	3
BST	78	0	7
SXR	78	0	7	96	432	4
TTP	80	0	0	C	1	L1
TTP	80	0	2	B	0	L1
TTP	80	0	5	B	0	L1
HLD	81	0	0	96
HLD	81	0	7	96
TAP	81	192	1
TAP	81	192	6
TAP	81	288	2
TAP	81	288	5
BST	82	0	3
SI_	82	0	3	96	144	0
BST	82	0	4
SI_	82	0	4	96	144	7
TAP	83	0	0
TAP	83	0	7
TAP	83	96	0
TAP	83	96	7
TAP	83	192	1
TAP	83	192	6
TAP	84	0	5
TAP	84	96	5
TAP	84	192	4
TAP	84	288	4
TAP	85	0	3
TAP	85	96	3
TAP	85	192	2
TAP	85	192	4
TAP	86	0	1
TAP	86	96	1
TAP	86	192	0
TAP	86	288	0
TAP	87	0	7
TAP	87	96	0
TAP	87	96	7
TAP	87	192	1
TAP	87	192	6
TAP	88	0	1
TAP	88	96	1
TAP	88	192	2
TAP	88	288	2
TAP	89	0	3
TAP	89	96	3
TAP	89	192	2
TAP	89	192	4
XHO	90	0	5	144
XTP	90	144	4
XTP	90	288	3
XTP	90	288	4
XHO	91	0	2	144
XTP	91	144	3
XTP	91	288	3
XTP	91	288	4
THO	92	96	0	672	C	1	L1

T_REC_TAP	182
T_REC_BRK	5
T_REC_XTP	33
T_REC_HLD	8
T_REC_XHO	5
T_REC_STR	21
T_REC_BST	6
T_REC_XST	2
T_REC_TTP	9
T_REC_THO	2
T_REC_SLD	29
T_REC_ALL	302
T_NUM_TAP	247
T_NUM_BRK	11
T_NUM_HLD	15
T_NUM_SLD	29
T_NUM_ALL	302
T_JUDGE_TAP	258
T_JUDGE_HLD	90
T_JUDGE_SLD	29
T_JUDGE_ALL	377
TTM_EACHPAIRS	64
TTM_SCR_TAP	123500
TTM_SCR_BRK	28600
TTM_SCR_HLD	15000
TTM_SCR_SLD	43500
TTM_SCR_ALL	210600
TTM_SCR_S	203250
TTM_SCR_SS	209500
TTM_RAT_ACV	10052

