VERSION	0.00.00	1.03.00
FES_MODE	0
BPM_DEF	146.000	146.000	146.000	146.000
MET_DEF	4	4
RESOLUTION	384
CLK_DEF	384
COMPATIBLE_CODE	MA2

BPM	0	0	146.000
MET	0	0	4	4

XTP	2	0	0
TAP	4	0	0
TAP	6	0	7
TAP	8	0	7
BRK	10	0	0
TAP	11	0	0
TAP	12	0	0
TAP	13	0	1
TAP	14	0	1
TAP	15	0	2
TAP	16	0	2
TAP	17	0	3
XTP	18	0	3
XTP	18	0	4
TAP	19	0	4
TAP	20	0	4
TAP	21	0	5
TAP	22	0	5
TAP	23	0	6
TAP	24	0	6
TAP	25	0	7
XTP	26	0	0
XTP	26	0	7
STR	27	0	7
SI_	27	0	7	96	288	4
STR	29	0	0
SI_	29	0	0	96	288	3
STR	31	0	7
SI_	31	0	7	96	288	4
TAP	33	0	0
BRK	34	0	0
TAP	35	0	7
TAP	35	192	7
TAP	36	0	7
TAP	37	0	6
TAP	37	192	6
TAP	38	0	6
TAP	39	0	5
TAP	39	192	5
TAP	40	0	5
TAP	41	0	4
TAP	41	192	4
TAP	42	0	3
TAP	42	0	4
TAP	43	0	3
TAP	43	192	3
TAP	44	0	3
TAP	45	0	2
TAP	45	192	2
TAP	46	0	2
TAP	47	0	1
TAP	47	192	1
TAP	48	0	1
TAP	49	0	0
TAP	49	192	0
TAP	50	0	0
TAP	51	0	0
TAP	51	0	7
TAP	51	192	0
TAP	51	192	7
BRK	52	0	0
BRK	52	0	7
TAP	53	0	0
TAP	53	192	0
TAP	54	0	0
TAP	54	0	1
TAP	55	0	2
TAP	55	192	2
TAP	56	0	2
TAP	56	0	3
TAP	57	0	4
TAP	57	192	4
TAP	58	0	4
TAP	58	0	5
HLD	59	0	6	384
HLD	59	0	7	384
TTP	62	0	7	B	0	L1
TTP	63	0	6	B	0	L1
TTP	64	0	5	B	0	L1
TTP	65	0	4	B	0	L1
TTP	66	0	3	B	0	L1
TTP	67	0	2	B	0	L1
TTP	68	0	1	B	0	L1
TTP	69	0	0	C	1	L1
XTP	70	0	0
TAP	70	192	0
TAP	71	0	1
TAP	71	96	1
TAP	71	192	1
TAP	72	0	2
TAP	72	192	2
TAP	73	0	3
TAP	73	96	3
TAP	73	192	3
TAP	73	192	4
TAP	74	0	4
TAP	74	192	4
TAP	75	0	5
TAP	75	96	5
TAP	75	192	5
TAP	76	0	6
TAP	76	192	6
TAP	77	0	7
TAP	77	96	7
TAP	77	192	7
BRK	78	0	0
BRK	78	0	7
TAP	78	192	0
TAP	78	192	7
HLD	79	0	1	384
HLD	79	0	6	384
THO	81	0	0	384	C	1	L1
XTP	83	0	0
XTP	83	0	7
TAP	84	0	7
TAP	84	192	7
TAP	85	0	6
TAP	85	192	6
TAP	86	0	5
TAP	86	192	5
TAP	87	0	3
TAP	87	0	4
TAP	87	192	3
TAP	87	192	4
TAP	88	0	2
TAP	88	192	2
TAP	89	0	1
TAP	89	192	1
HLD	90	0	0	192
HLD	90	0	7	192
TAP	91	0	0
TAP	91	0	7
TAP	91	96	0
TAP	91	96	7
TAP	91	192	0
TAP	91	192	7
HLD	91	288	1	192
HLD	91	288	6	192

T_REC_TAP	101
T_REC_BRK	6
T_REC_XTP	8
T_REC_HLD	8
T_REC_XHO	0
T_REC_STR	3
T_REC_BST	0
T_REC_XST	0
T_REC_TTP	8
T_REC_THO	1
T_REC_SLD	3
T_REC_ALL	138
T_NUM_TAP	120
T_NUM_BRK	6
T_NUM_HLD	9
T_NUM_SLD	3
T_NUM_ALL	138
T_JUDGE_TAP	126
T_JUDGE_HLD	56
T_JUDGE_SLD	3
T_JUDGE_ALL	185
TTM_EACHPAIRS	22
TTM_SCR_TAP	60000
TTM_SCR_BRK	15600
TTM_SCR_HLD	9000
TTM_SCR_SLD	4500
TTM_SCR_ALL	89100
TTM_SCR_S	85850
TTM_SCR_SS	88500
TTM_RAT_ACV	10067

