VERSION	0.00.00	1.03.00
FES_MODE	0
BPM_DEF	121.000	121.000	121.000	121.000
MET_DEF	4	4
RESOLUTION	384
CLK_DEF	384
COMPATIBLE_CODE	MA2

BPM	0	0	121.000
MET	0	0	4	4

TAP	1	48	4
TAP	1	96	4
TAP	1	144	4
TAP	1	192	4
TAP	1	240	3
TAP	1	288	2
TAP	2	0	1
TAP	2	48	2
TAP	2	96	3
HLD	2	96	4	48
TTP	2	144	4	E	0	M1
TAP	2	192	5
TAP	2	240	6
HLD	2	288	0	48
TAP	2	288	7
TTP	2	336	0	E	0	M1
TAP	3	0	1
TAP	3	48	2
TAP	3	96	3
HLD	3	96	4	48
TTP	3	144	4	E	0	M1
BRK	3	192	5
BRK	3	192	6
BRK	3	240	5
BRK	3	240	6
BRK	3	288	5
BRK	3	288	6
TAP	4	0	7
TAP	4	48	0
TAP	4	96	1
HLD	4	96	2	48
TTP	4	144	2	E	0	M1
TAP	4	192	3
TAP	4	240	4
TAP	4	288	5
HLD	4	288	6	48
TTP	4	336	6	E	0	M1
TAP	5	0	7
TAP	5	48	0
TAP	5	96	1
HLD	5	96	2	48
TTP	5	144	2	E	0	M1
TAP	5	192	3
TAP	5	192	4
TAP	5	240	3
TAP	5	240	4
TAP	5	288	2
TAP	5	288	5
TAP	6	0	1
TAP	6	48	0
HLD	6	96	6	48
TAP	6	96	7
TTP	6	144	7	E	0	M1
TAP	6	192	5
TAP	6	240	4
HLD	6	288	2	48
TAP	6	288	3
TTP	6	336	3	E	0	M1
TAP	7	0	1
TAP	7	48	0
HLD	7	96	6	48
TAP	7	96	7
TTP	7	144	7	E	0	M1
HLD	7	192	4	8
HLD	7	192	5	8
HLD	7	240	4	8
HLD	7	240	5	8
HLD	7	288	4	8
HLD	7	288	5	8
TAP	8	0	3
TAP	8	48	2
HLD	8	96	0	48
TAP	8	96	1
TTP	8	144	1	E	0	M1
TAP	8	192	7
TAP	8	240	6
BRK	8	288	4
TAP	8	288	5
TAP	8	336	4
BRK	8	336	5
XTP	9	48	0
XTP	9	48	7
TTP	9	96	0	C	0	M1
TTP	9	96	3	B	0	M1
TTP	9	96	4	B	0	M1
XTP	9	168	0
XTP	9	168	7
TTP	9	216	2	B	0	M1
TTP	9	216	5	B	0	M1
XTP	9	264	0
XTP	9	264	7
TTP	9	288	1	B	0	M1
TTP	9	288	6	B	0	M1
XTP	10	0	7
XTP	10	48	7
TAP	10	96	4
TAP	10	96	5
TAP	10	144	4
TAP	10	144	5
TAP	10	192	2
TAP	10	216	3
TAP	10	240	2
TAP	10	288	1
HLD	10	288	4	96
XTP	11	0	5
XTP	11	24	6
XTP	11	48	7
XTP	11	72	0
XTP	11	96	1
XTP	11	120	2
XTP	11	144	3
XTP	11	168	4
XST	11	192	5
SF_	11	192	5	96	48	1
TTP	11	288	5	B	0	M1
TTP	11	300	0	C	0	M1
TTP	11	312	1	B	0	M1
BRK	12	0	0
BRK	12	48	1
TAP	12	96	2
TAP	12	96	3
TAP	12	144	2
TAP	12	144	3
TAP	12	192	5
TAP	12	216	4
TAP	12	240	5
TAP	12	288	3
TAP	12	288	6
TAP	13	0	1
TAP	13	0	5
TAP	13	48	1
TAP	13	48	5
TAP	13	96	2
TAP	13	96	6
TAP	13	144	2
TAP	13	144	6
BST	13	192	3
SV_	13	192	3	96	48	1
BST	13	192	7
SV_	13	192	7	96	48	5
TAP	13	240	1
TAP	13	240	5
TAP	13	288	3
TAP	13	288	7
BRK	14	0	1
BRK	14	0	6
STR	14	96	4
SI_	14	96	4	96	96	7
SXR	14	96	4	96	96	4
TAP	14	120	3
TAP	14	144	4
TAP	14	168	3
TAP	14	192	4
TAP	15	0	2
TAP	15	24	3
TAP	15	48	2
TAP	15	72	5
TAP	15	96	4
TAP	15	120	5
TAP	15	144	2
BST	15	192	3
SI_	15	192	3	96	48	0
BST	15	192	4
SI_	15	192	4	96	48	7
TAP	15	240	3
TAP	15	240	4
TAP	16	0	6
TAP	16	24	6
TAP	16	48	6
TAP	16	96	0
TAP	16	120	0
XHO	16	144	0	48
XHO	16	192	7	48
XHO	16	240	6	48
XTP	16	288	5
XTP	16	312	4
XTP	16	336	3
XTP	16	360	2
XTP	17	0	3
XTP	17	32	4
XTP	17	64	5
XTP	17	104	4
XTP	17	144	3
TAP	17	216	3
TAP	17	216	4
TAP	17	264	1
TAP	17	264	6
TAP	17	288	1
TAP	17	288	6
STR	18	0	2
SUR	18	0	2	96	144	4
HLD	18	0	4	48
TAP	18	96	5
TAP	18	120	5
TAP	18	168	6
TAP	18	216	6
TAP	18	264	7
XTP	18	288	4
XTP	18	288	7
HLD	19	0	3	48
STR	19	0	5
SUL	19	0	5	96	144	3
TAP	19	96	2
TAP	19	120	2
TAP	19	168	1
TAP	19	216	1
TAP	19	264	0
XTP	19	288	0
XTP	19	288	3
TAP	19	336	1
TAP	19	336	4
BRK	20	0	0
BRK	20	0	5
BRK	20	48	5
BRK	20	96	2
BRK	20	96	5
BRK	20	144	5
BRK	20	192	4
BRK	20	192	5
BRK	20	240	5
BRK	20	288	5
BRK	20	288	6
BRK	21	0	2
BRK	21	0	7
BRK	21	48	2
BRK	21	96	2
BRK	21	96	5
BRK	21	144	2
BRK	21	192	2
BRK	21	192	3
BRK	21	240	2
BRK	21	288	1
BRK	21	288	2
STR	22	0	2
SUR	22	0	2	96	144	4
HLD	22	0	4	48
TAP	22	96	5
TAP	22	120	5
TAP	22	168	6
TAP	22	216	6
TAP	22	264	7
XTP	22	288	4
XTP	22	288	7
HLD	23	0	3	48
STR	23	0	5
SUL	23	0	5	96	144	3
TAP	23	96	2
TAP	23	120	2
TAP	23	168	1
TAP	23	216	1
TAP	23	264	0
XTP	23	288	0
XTP	23	288	3
TAP	23	336	1
TAP	23	336	4
XTP	24	0	1
XHO	24	0	5	48
XTP	24	12	2
XTP	24	24	3
XTP	24	72	1
XHO	24	72	6	48
XTP	24	84	2
XTP	24	96	3
XTP	24	144	1
XHO	24	144	7	48
XTP	24	156	2
XTP	24	168	3
XTP	24	180	4
XTP	24	192	5
XTP	24	204	6
XTP	24	216	7
XTP	24	228	0
XTP	24	240	1
XTP	24	252	2
XTP	24	264	3
XTP	24	276	4
XTP	24	288	5
XTP	24	288	6
XHO	25	0	2	48
XTP	25	0	6
XTP	25	12	5
XTP	25	24	4
XHO	25	72	1	48
XTP	25	72	6
XTP	25	84	5
XTP	25	96	4
XHO	25	144	0	48
XTP	25	144	6
XTP	25	156	5
XTP	25	168	4
XTP	25	180	3
XTP	25	192	2
XTP	25	204	1
XTP	25	216	0
XTP	25	228	7
XTP	25	240	6
XTP	25	252	5
XTP	25	264	4
XTP	25	276	3
XTP	25	288	1
XTP	25	288	2
HLD	26	0	0	48
TAP	26	0	6
TTP	26	48	0	E	0	M1
HLD	26	96	1	48
TAP	26	96	7
TTP	26	144	1	E	0	M1
TAP	26	192	0
HLD	26	192	2	48
TTP	26	240	2	E	0	M1
TAP	26	288	1
HLD	26	288	3	48
TTP	26	336	3	E	0	M1
TAP	27	0	2
HLD	27	0	4	48
TTP	27	48	4	E	0	M1
TAP	27	96	3
HLD	27	96	5	48
TTP	27	144	5	E	0	M1
TAP	27	192	4
HLD	27	192	6	48
TTP	27	240	6	E	0	M1
TAP	27	288	5
HLD	27	288	7	48
TTP	27	336	7	E	0	M1
XHO	28	0	0	48
XHO	28	0	1	48
XHO	28	72	2	48
XHO	28	72	3	48
XHO	28	144	4	48
XHO	28	144	5	48
XHO	28	216	6	48
XHO	28	216	7	48
XHO	28	288	0	48
XHO	28	288	1	48
TAP	29	48	4
TAP	29	96	4
TAP	29	144	4
TAP	29	192	4
TAP	29	240	3
TAP	29	288	2
STR	30	0	2
SCR	30	0	2	96	48	5
BRK	30	0	7
TAP	30	48	1
TAP	30	72	0
TAP	30	96	2
TAP	30	144	6
STR	30	192	2
SCR	30	192	2	96	48	5
TAP	30	192	7
TAP	30	240	1
TAP	30	264	0
TAP	30	288	2
TAP	30	336	6
TAP	31	0	1
STR	31	0	7
SI_	31	0	7	96	48	3
TAP	31	48	6
STR	31	96	1
SV_	31	96	1	96	48	4
TAP	31	96	7
TTP	31	108	0	C	0	M1
TAP	31	144	2
TAP	31	192	1
STR	31	192	7
SI_	31	192	7	96	48	3
TTP	31	204	0	C	0	M1
TAP	31	240	6
TAP	31	288	1
TAP	31	288	7
TTP	31	300	0	C	0	M1
TAP	31	336	2
STR	32	0	2
SCR	32	0	2	96	48	5
BRK	32	0	7
TAP	32	48	1
TAP	32	72	0
TAP	32	96	2
TAP	32	144	6
STR	32	192	2
SCR	32	192	2	96	48	5
TAP	32	192	7
TAP	32	240	1
TAP	32	264	0
TAP	32	288	2
TAP	32	336	6
TAP	33	0	3
TAP	33	0	5
TAP	33	48	3
TAP	33	48	5
STR	33	96	2
SCR	33	96	2	96	48	5
STR	33	96	6
SCR	33	96	6	96	48	1
TAP	33	144	0
TAP	33	144	4
TAP	33	192	2
TAP	33	192	6
BRK	33	288	2
BRK	33	288	6
TAP	34	0	4
TAP	34	0	5
TAP	34	48	5
TAP	34	72	4
TAP	34	120	2
STR	34	144	3
SXR	34	144	3	96	48	1
TAP	34	192	3
STR	34	192	4
SXL	34	192	4	96	48	6
TAP	35	0	0
TAP	35	0	5
TAP	35	48	6
TAP	35	72	7
TAP	35	120	1
STR	35	144	0
SXL	35	144	0	96	48	2
TAP	35	192	0
STR	35	192	7
SXR	35	192	7	96	48	5
TAP	36	0	5
TAP	36	24	4
TAP	36	48	6
TAP	36	96	2
TAP	36	120	3
TAP	36	144	1
STR	36	192	4
SXL	36	192	4	96	48	4
SXR	36	192	4	96	48	4
TAP	36	240	4
TAP	37	0	1
TAP	37	24	0
TAP	37	48	2
TAP	37	96	5
TAP	37	120	4
TAP	37	144	6
TAP	37	192	2
TAP	37	216	3
TAP	37	240	2
TAP	37	264	3
TAP	37	288	1
TAP	37	288	4
BRK	38	0	0
STR	38	0	5
SCL	38	0	5	96	48	2
TAP	38	48	6
TAP	38	72	7
TAP	38	96	5
TAP	38	144	1
TAP	38	192	0
STR	38	192	5
SCL	38	192	5	96	48	2
TAP	38	240	6
TAP	38	264	7
TAP	38	288	5
TAP	38	336	1
STR	39	0	0
SI_	39	0	0	96	48	4
TAP	39	0	6
TAP	39	48	1
TAP	39	96	0
STR	39	96	6
SV_	39	96	6	96	48	3
TTP	39	108	0	C	0	M1
TAP	39	144	5
STR	39	192	0
SI_	39	192	0	96	48	4
TAP	39	192	6
TTP	39	204	0	C	0	M1
TAP	39	240	1
TAP	39	288	0
TAP	39	288	6
TTP	39	300	0	C	0	M1
TAP	39	336	5
BRK	40	0	0
STR	40	0	5
SCL	40	0	5	96	48	2
TAP	40	48	6
TAP	40	72	7
TAP	40	96	5
TAP	40	144	1
TAP	40	192	0
STR	40	192	5
SCL	40	192	5	96	48	2
TAP	40	240	6
TAP	40	264	7
TAP	40	288	5
TAP	40	336	1
TAP	41	0	2
TAP	41	0	4
TAP	41	48	2
TAP	41	48	4
STR	41	96	1
SCL	41	96	1	96	48	6
STR	41	96	5
SCL	41	96	5	96	48	2
TAP	41	144	3
TAP	41	144	7
TAP	41	192	1
TAP	41	192	5
BRK	41	288	1
BRK	41	288	5
TAP	42	0	2
TAP	42	0	3
TAP	42	48	2
TAP	42	72	3
TAP	42	120	5
STR	42	144	4
SUR	42	144	4	96	48	0
STR	42	192	3
SXR	42	192	3	96	48	1
TAP	42	192	4
TAP	43	0	2
TAP	43	0	7
TAP	43	48	1
TAP	43	72	0
TAP	43	120	6
STR	43	144	7
SUL	43	144	7	96	48	3
STR	43	192	0
SXL	43	192	0	96	48	2
TAP	43	192	7
STR	43	336	7
SI_	43	336	7	96	48	3
STR	44	0	1
SI_	44	0	1	96	48	5
TAP	44	48	7
TTP	44	60	0	C	1	M1
TAP	44	96	1
TTP	44	108	0	C	1	M1
TAP	44	144	4
TAP	44	192	3
TAP	44	192	5
TAP	44	240	2
TAP	44	240	6
STR	44	288	1
SLR	44	288	1	96	48	0
STR	44	288	7
SLL	44	288	7	96	48	0
TAP	44	336	0
XTP	45	96	0
XTP	45	96	1
TAP	45	144	3
TAP	45	144	5
TAP	45	192	6
TAP	45	192	7
TAP	45	240	2
TAP	45	240	4
BRK	45	288	1
BRK	45	288	6
TAP	46	0	2
TAP	46	0	4
TAP	46	72	4
TAP	46	96	2
TAP	46	144	5
TAP	46	192	2
TAP	46	240	4
TAP	46	288	2
TAP	46	336	5
TAP	47	0	2
TAP	47	72	3
TAP	47	96	2
TAP	47	144	4
TAP	47	192	2
TAP	47	240	5
TAP	47	288	3
TAP	47	288	4
TAP	48	0	3
TAP	48	0	5
TAP	48	72	3
TAP	48	96	5
TAP	48	144	2
TAP	48	192	5
TAP	48	240	3
TAP	48	288	5
TAP	48	336	2
TAP	49	0	5
TAP	49	72	4
TAP	49	96	5
TAP	49	144	3
TAP	49	192	5
TAP	49	240	2
TAP	49	288	3
TAP	49	288	4
BRK	50	0	0
HLD	50	0	2	72
HLD	50	72	3	72
TAP	50	144	4
BRK	50	192	1
HLD	50	192	2	72
HLD	50	264	3	72
TAP	50	336	4
BRK	51	0	0
HLD	51	0	2	72
HLD	51	72	3	72
TAP	51	144	4
TAP	51	192	5
TAP	51	240	5
TAP	51	288	4
TAP	51	288	6
BRK	52	0	0
HLD	52	0	2	72
HLD	52	72	3	72
TAP	52	144	4
BRK	52	192	1
HLD	52	192	2	72
HLD	52	264	3	72
TAP	52	336	4
XTP	53	0	5
XTP	53	0	6
XTP	53	32	5
XTP	53	32	6
XTP	53	64	5
XTP	53	64	6
XTP	53	96	1
XTP	53	96	2
XTP	53	128	1
XTP	53	128	2
XTP	53	160	1
XTP	53	160	2
XST	53	192	3
SUR	53	192	3	96	48	0
XST	53	192	4
SUL	53	192	4	96	48	7
XTP	53	240	2
XTP	53	240	5
XTP	53	288	3
XTP	53	288	4
XTP	54	0	0
XHO	54	0	7	672
TTP	54	96	0	B	0	M1
TTP	54	96	0	C	0	M1
TAP	54	192	1
TTP	54	288	0	C	0	M1
TTP	54	288	1	B	0	M1
TAP	55	0	2
TTP	55	96	0	C	0	M1
TTP	55	96	2	B	0	M1
TAP	55	192	3
TTP	55	288	0	C	0	M1
TTP	55	288	3	B	0	M1
HLD	56	0	0	672
TAP	56	0	7
TTP	56	96	0	C	0	M1
TTP	56	96	7	B	0	M1
TAP	56	192	6
TTP	56	288	0	C	0	M1
TTP	56	288	6	B	0	M1
TAP	57	0	5
TTP	57	96	0	C	0	M1
TTP	57	96	5	B	0	M1
TAP	57	192	4
TTP	57	288	0	C	0	M1
TTP	57	288	4	B	0	M1
TAP	58	0	6
TAP	58	0	7
TAP	58	48	6
TAP	58	72	7
TAP	58	120	1
STR	58	144	0
SXL	58	144	0	96	48	2
TAP	58	192	0
STR	58	192	7
SUR	58	192	7	96	48	5
TAP	59	0	3
TAP	59	0	4
TAP	59	48	5
TAP	59	72	4
TAP	59	120	2
STR	59	144	3
SXR	59	144	3	96	48	1
TAP	59	192	3
STR	59	192	4
SXL	59	192	4	96	48	6
TAP	60	0	1
TAP	60	48	2
HLD	60	96	3	192
TTP	60	144	4	E	0	M1
TAP	60	192	4
TAP	60	240	5
HLD	60	288	6	192
TTP	60	336	6	E	0	M1
TAP	61	0	7
TAP	61	48	0
HLD	61	96	1	192
TTP	61	144	1	E	0	M1
TAP	61	192	2
TAP	61	240	3
HLD	61	288	4	96
TTP	61	336	4	E	0	M1
HLD	62	0	5	96
TTP	62	48	6	B	0	M1
HLD	62	96	7	96
TTP	62	144	0	B	0	M1
HLD	62	192	1	96
TTP	62	240	2	B	0	M1
HLD	62	288	3	96
TTP	62	336	4	B	0	M1
XTP	63	0	5
XTP	63	12	6
XTP	63	24	7
XTP	63	36	0
XTP	63	48	1
XTP	63	60	2
XTP	63	72	3
XTP	63	84	4
XTP	63	96	5
XTP	63	108	6
XTP	63	120	7
XTP	63	132	0
XTP	63	144	1
XTP	63	156	2
XTP	63	168	3
XTP	63	180	4
TTP	63	192	5	E	0	M1
TTP	63	204	6	E	0	M1
TTP	63	216	7	E	0	M1
TTP	63	228	0	E	0	M1
TTP	63	240	1	E	0	M1
TTP	63	252	2	E	0	M1
TTP	63	264	3	E	0	M1
TTP	63	276	4	E	0	M1
TTP	63	288	5	B	0	M1
TTP	63	300	6	B	0	M1
TTP	63	312	7	B	0	M1
TTP	63	324	0	B	0	M1
TTP	63	336	1	B	0	M1
TTP	63	336	2	B	0	M1
TAP	64	48	4
TAP	64	96	4
TAP	64	144	4
TAP	64	192	4
TAP	64	240	3
TAP	64	288	2
TTP	65	48	0	C	1	M1
TAP	65	48	3
TTP	65	96	0	C	1	M1
TAP	65	96	3
TTP	65	144	0	C	1	M1
TAP	65	144	3
TTP	65	192	0	C	1	M1
TAP	65	192	3
TTP	65	240	0	C	1	M1
TAP	65	240	2
TTP	65	288	0	C	1	M1
TAP	65	288	1
STR	66	0	2
SCR	66	0	2	96	48	5
BRK	66	0	7
TAP	66	48	1
TAP	66	72	0
BRK	66	96	2
TAP	66	144	6
STR	66	192	2
SCR	66	192	2	96	48	5
BRK	66	192	7
TAP	66	240	1
TAP	66	264	0
BRK	66	288	2
TAP	66	336	6
BRK	67	0	3
STR	67	0	7
SI_	67	0	7	96	48	3
TAP	67	48	6
STR	67	96	1
SV_	67	96	1	96	48	4
BRK	67	96	7
TTP	67	108	0	C	1	M1
TAP	67	144	0
BRK	67	192	1
STR	67	192	7
SI_	67	192	7	96	48	3
TTP	67	204	0	C	1	M1
TAP	67	240	6
TAP	67	288	3
BRK	67	288	7
TTP	67	300	0	C	1	M1
TAP	67	336	1
STR	68	0	2
SCR	68	0	2	96	48	5
BRK	68	0	7
TAP	68	48	1
TAP	68	72	0
BRK	68	96	2
TAP	68	144	6
STR	68	192	2
SCR	68	192	2	96	48	5
BRK	68	192	7
TAP	68	240	1
TAP	68	264	0
BRK	68	288	2
TAP	68	336	6
BRK	69	0	3
BRK	69	0	5
TAP	69	48	3
TAP	69	48	5
BST	69	96	2
SCR	69	96	2	96	48	5
BST	69	96	6
SCR	69	96	6	96	48	1
TAP	69	144	0
TAP	69	144	4
BRK	69	192	2
BRK	69	192	6
BRK	69	288	2
BRK	69	288	6
TAP	70	0	0
TAP	70	0	1
TAP	70	48	1
TAP	70	72	3
TAP	70	120	6
STR	70	144	4
SUR	70	144	4	96	48	0
STR	70	192	3
SXR	70	192	3	96	48	1
TAP	70	192	4
TAP	71	0	2
TAP	71	0	7
TAP	71	48	2
TAP	71	72	0
TAP	71	120	5
STR	71	144	7
SUL	71	144	7	96	48	3
STR	71	192	0
SXL	71	192	0	96	48	2
TAP	71	192	7
STR	71	336	6
SI_	71	336	6	96	48	2
STR	72	0	0
SI_	72	0	0	96	48	4
TAP	72	48	6
TTP	72	60	0	C	1	M1
TAP	72	96	0
TTP	72	108	0	C	1	M1
TAP	72	144	3
TAP	72	192	2
TAP	72	192	4
TAP	72	240	1
TAP	72	240	5
STR	72	288	0
SLR	72	288	0	96	48	7
STR	72	288	6
SLL	72	288	6	96	48	7
TAP	72	336	7
TTP	73	24	0	C	1	M1
XTP	73	96	6
XTP	73	96	7
TAP	73	144	3
TAP	73	144	4
TAP	73	192	0
TAP	73	192	1
TAP	73	240	3
TAP	73	240	4
BRK	73	288	1
BRK	73	288	6
XTP	74	0	3
XTP	74	0	4
XTP	74	24	3
XTP	74	24	4
XTP	74	48	3
XTP	74	48	4
XHO	74	72	3	120
XHO	74	72	4	120
TTP	74	198	3	B	0	M1
TTP	74	198	3	E	0	M1
TTP	74	198	4	B	0	M1
TTP	74	198	5	E	0	M1
TTP	74	204	2	B	0	M1
TTP	74	204	5	B	0	M1
TTP	74	210	0	C	1	M1
TTP	74	216	1	B	0	M1
TTP	74	216	6	B	0	M1
TTP	74	222	1	E	0	M1
TTP	74	222	7	E	0	M1
XTP	75	0	1
XTP	75	0	2
XTP	75	24	1
XTP	75	24	2
XTP	75	48	1
XTP	75	48	2
XHO	75	72	1	120
XHO	75	72	2	120
TTP	75	198	1	B	0	M1
TTP	75	198	2	B	0	M1
TTP	75	198	2	E	0	M1
TTP	75	204	0	B	0	M1
TTP	75	204	3	B	0	M1
TTP	75	210	0	C	1	M1
TTP	75	216	4	B	0	M1
TTP	75	216	7	B	0	M1
TTP	75	222	5	B	0	M1
TTP	75	222	6	B	0	M1
TTP	75	222	6	E	0	M1
XTP	76	0	5
XTP	76	0	6
XTP	76	24	5
XTP	76	24	6
XTP	76	48	5
XTP	76	48	6
XHO	76	72	5	120
XHO	76	72	6	120
TTP	76	198	5	B	0	M1
TTP	76	198	6	E	0	M1
TTP	76	204	3	B	0	M1
TTP	76	204	4	B	0	M1
TTP	76	204	4	E	0	M1
TTP	76	210	0	C	1	M1
TTP	76	216	2	B	0	M1
TTP	76	216	2	E	0	M1
TAP	77	0	0
TAP	77	0	2
TAP	77	48	1
TAP	77	96	5
TAP	77	96	7
TAP	77	144	6
XTP	77	192	0
XTP	77	192	7
TTP	77	240	0	B	0	M1
TTP	77	240	0	C	0	M1
TTP	77	240	7	B	0	M1
XTP	77	288	0
XTP	77	288	7
TTP	77	336	0	B	0	M1
TTP	77	336	0	C	0	M1
TTP	77	336	7	B	0	M1
XTP	78	0	3
XTP	78	0	4
XTP	78	24	3
XTP	78	24	4
XTP	78	48	3
XTP	78	48	4
XHO	78	72	3	120
XHO	78	72	4	120
TTP	78	198	3	B	0	M1
TTP	78	198	4	B	0	M1
TTP	78	204	3	E	0	M1
TTP	78	204	5	E	0	M1
TTP	78	210	2	E	0	M1
TTP	78	210	6	E	0	M1
TTP	78	216	0	C	1	M1
TTP	78	222	1	E	0	M1
TTP	78	222	7	B	0	M1
TTP	78	222	7	E	0	M1
TTP	78	228	0	B	0	M1
TTP	78	228	0	E	0	M1
XTP	79	0	1
XTP	79	0	2
XTP	79	24	1
XTP	79	24	2
XTP	79	48	1
XTP	79	48	2
XHO	79	72	1	120
XHO	79	72	2	120
TTP	79	198	1	B	0	M1
TTP	79	198	2	B	0	M1
TTP	79	204	0	B	0	M1
TTP	79	204	3	B	0	M1
TTP	79	210	0	C	1	M1
TTP	79	216	4	B	0	M1
TTP	79	216	7	B	0	M1
TTP	79	222	5	B	0	M1
TTP	79	222	6	B	0	M1
XTP	80	0	5
XTP	80	0	6
XTP	80	24	5
XTP	80	24	6
XTP	80	48	5
XTP	80	48	6
XHO	80	72	5	120
XHO	80	72	6	120
TTP	80	198	5	B	0	M1
TTP	80	198	6	E	0	M1
TTP	80	204	4	B	0	M1
TTP	80	204	5	E	0	M1
TTP	80	210	3	B	0	M1
TTP	80	210	4	E	0	M1
TTP	80	216	0	C	1	M1
TTP	80	222	2	B	0	M1
TTP	80	222	2	E	0	M1
TTP	80	222	3	E	0	M1
XTP	81	48	0
XTP	81	48	7
TTP	81	96	0	C	1	M1
TTP	81	96	2	B	0	M1
TTP	81	96	3	B	0	M1
TTP	81	96	4	B	0	M1
TTP	81	96	5	B	0	M1
XTP	81	168	0
XTP	81	168	7
TTP	81	216	0	C	1	M1
TTP	81	216	1	B	0	M1
TTP	81	216	6	B	0	M1
XTP	81	264	0
XTP	81	264	7
TTP	81	288	0	B	0	M1
TTP	81	288	0	C	1	M1
TTP	81	288	7	B	0	M1

T_REC_TAP	399
T_REC_BRK	69
T_REC_XTP	156
T_REC_HLD	48
T_REC_XHO	32
T_REC_STR	55
T_REC_BST	6
T_REC_XST	3
T_REC_TTP	164
T_REC_THO	0
T_REC_SLD	66
T_REC_ALL	998
T_NUM_TAP	777
T_NUM_BRK	75
T_NUM_HLD	80
T_NUM_SLD	66
T_NUM_ALL	998
T_JUDGE_TAP	852
T_JUDGE_HLD	155
T_JUDGE_SLD	66
T_JUDGE_ALL	1073
TTM_EACHPAIRS	209
TTM_SCR_TAP	388500
TTM_SCR_BRK	195000
TTM_SCR_HLD	80000
TTM_SCR_SLD	99000
TTM_SCR_ALL	762500
TTM_SCR_S	732350
TTM_SCR_SS	755000
TTM_RAT_ACV	10099

