VERSION	0.00.00	1.03.00
FES_MODE	0
BPM_DEF	121.000	121.000	121.000	121.000
MET_DEF	4	4
RESOLUTION	384
CLK_DEF	384
COMPATIBLE_CODE	MA2

BPM	0	0	121.000
MET	0	0	4	4

TAP	1	48	3
TAP	1	96	3
TAP	1	144	3
TAP	1	192	4
TAP	1	240	4
TAP	1	288	4
TAP	2	0	2
TAP	2	48	1
TAP	2	48	3
TAP	2	96	0
TAP	2	144	0
BRK	2	192	5
TAP	2	240	4
TAP	2	240	6
TAP	2	288	7
TAP	2	336	7
TAP	3	0	2
TAP	3	48	1
TAP	3	48	3
TAP	3	96	0
TAP	3	144	0
BRK	3	192	7
BRK	3	240	7
BRK	3	288	0
BRK	3	288	6
TAP	4	0	5
TAP	4	48	4
TAP	4	48	6
XTP	4	96	7
TAP	4	144	7
TAP	4	192	2
XTP	4	240	1
XTP	4	240	3
XTP	4	288	0
TAP	4	336	0
TAP	5	0	7
TAP	5	48	7
TAP	5	96	0
TAP	5	96	6
TAP	5	144	0
TAP	5	144	6
XTP	5	192	1
XTP	5	240	1
XTP	5	288	2
XTP	5	336	2
TAP	6	0	4
TAP	6	48	3
TAP	6	48	5
TAP	6	96	6
TAP	6	144	6
TAP	6	192	2
TAP	6	240	1
TAP	6	240	3
TAP	6	288	0
TAP	6	336	0
TAP	7	0	5
TAP	7	48	4
TAP	7	48	6
TAP	7	96	7
TAP	7	144	7
XTP	7	192	0
XTP	7	240	0
XTP	7	288	1
XTP	7	288	7
TAP	8	0	2
TAP	8	48	2
TAP	8	48	3
TAP	8	96	5
TAP	8	144	4
TAP	8	144	5
TAP	8	192	3
TAP	8	240	3
TAP	8	240	4
BRK	8	288	2
BRK	8	288	5
BRK	8	336	2
BRK	8	336	5
TTP	9	48	2	B	0	M1
TTP	9	48	3	B	0	M1
TTP	9	48	4	B	0	M1
TTP	9	48	5	B	0	M1
TTP	9	96	0	C	0	M1
TTP	9	96	1	B	0	M1
TTP	9	96	6	B	0	M1
XTP	9	168	0
XTP	9	168	7
XTP	9	264	1
XTP	9	264	6
XTP	9	288	1
XTP	9	288	6
XHO	10	0	2	96
TAP	10	96	3
TAP	10	144	3
TAP	10	192	2
TAP	10	240	2
TAP	10	288	1
TAP	10	288	4
TAP	11	0	5
TAP	11	48	5
TAP	11	96	4
TAP	11	144	4
TAP	11	192	5
TAP	11	240	5
TAP	11	288	3
TAP	11	288	6
BRK	12	0	2
BRK	12	48	2
TAP	12	96	1
TAP	12	96	3
TAP	12	144	1
TAP	12	144	3
TAP	12	192	4
TAP	12	240	3
TAP	12	240	5
TAP	12	288	3
TAP	12	288	5
TAP	13	0	4
TAP	13	48	5
TAP	13	96	3
TAP	13	144	2
XTP	13	192	3
XTP	13	192	4
XTP	13	240	2
XTP	13	240	5
XTP	13	288	1
XTP	13	288	6
XTP	13	336	1
XTP	13	336	6
BRK	14	0	0
BRK	14	48	0
TAP	14	96	5
TAP	14	144	5
TAP	14	192	4
TAP	14	192	6
TAP	14	240	3
TAP	14	240	7
TAP	14	288	3
TAP	14	288	7
TAP	15	0	6
TAP	15	48	6
TAP	15	96	2
TAP	15	144	2
TAP	15	192	1
TAP	15	192	3
TAP	15	240	0
TAP	15	240	4
TAP	15	288	0
TAP	15	288	4
TAP	16	0	1
TAP	16	0	6
TAP	16	48	1
TAP	16	48	6
STR	16	96	2
SCL	16	96	2	96	240	4
STR	16	96	5
SCR	16	96	5	96	240	3
XHO	17	168	3	48
XHO	17	168	4	48
XTP	17	264	2
XTP	17	264	5
XTP	17	288	2
XTP	17	288	5
STR	18	0	6
SI_	18	0	6	96	96	3
STR	18	192	1
SI_	18	192	1	96	96	4
HLD	19	0	6	96
HLD	19	96	4	96
HLD	19	192	3	96
TAP	19	288	1
BRK	20	0	1
BRK	20	0	3
BRK	20	48	1
BRK	20	48	3
BRK	20	96	3
BRK	20	96	4
BRK	20	144	3
BRK	20	144	4
BRK	20	192	4
BRK	20	192	6
BRK	20	240	4
BRK	20	240	6
BRK	20	288	3
BRK	20	288	7
BRK	21	0	4
BRK	21	0	6
BRK	21	48	4
BRK	21	48	6
BRK	21	96	3
BRK	21	96	4
BRK	21	144	3
BRK	21	144	4
BRK	21	192	1
BRK	21	192	3
BRK	21	240	1
BRK	21	240	3
BRK	21	288	0
BRK	21	288	4
STR	22	0	5
SI_	22	0	5	96	96	0
STR	22	192	2
SI_	22	192	2	96	96	7
HLD	23	0	5	96
HLD	23	96	7	96
HLD	23	192	0	96
TAP	23	288	1
TAP	23	336	1
XST	24	0	0
SUR	24	0	0	96	96	5
XST	24	0	1
SCR	24	0	1	96	96	4
XTP	24	288	6
XTP	24	288	7
XST	25	0	4
SUR	25	0	4	96	96	1
XST	25	0	5
SCR	25	0	5	96	96	0
XTP	25	288	2
XTP	25	288	3
HLD	26	0	1	48
HLD	26	0	4	48
HLD	26	96	2	48
HLD	26	96	5	48
HLD	26	192	3	48
HLD	26	192	6	48
HLD	26	288	3	48
HLD	26	288	6	48
HLD	27	0	3	48
HLD	27	0	6	48
HLD	27	96	2	48
HLD	27	96	5	48
HLD	27	192	1	48
HLD	27	192	4	48
HLD	27	288	1	48
HLD	27	288	4	48
TAP	28	0	2
STR	28	0	3
SF_	28	0	3	96	192	7
TAP	29	48	0
TAP	29	96	0
TAP	29	144	0
TAP	29	192	7
TAP	29	240	7
TAP	29	288	7
STR	30	0	2
SCR	30	0	2	96	48	5
TAP	30	48	2
TAP	30	96	6
STR	30	192	2
SCR	30	192	2	96	48	5
TAP	30	240	2
TAP	30	288	7
HLD	31	0	0	48
HLD	31	0	6	48
HLD	31	96	1	48
HLD	31	96	7	48
HLD	31	192	0	48
HLD	31	192	6	48
XTP	31	288	1
XTP	31	288	7
STR	32	0	2
SCR	32	0	2	96	48	5
TAP	32	48	2
XTP	32	96	6
STR	32	192	2
SCR	32	192	2	96	48	5
TAP	32	240	2
XTP	32	288	7
STR	33	0	6
SI_	33	0	6	96	48	3
TAP	33	48	6
STR	33	96	7
SI_	33	96	7	96	48	2
TAP	33	144	7
TAP	33	192	4
TAP	33	240	5
XTP	33	288	3
XTP	33	288	6
HLD	34	0	2	72
HLD	34	72	1	72
TAP	34	144	0
XTP	34	192	7
XTP	34	240	0
XTP	34	240	6
XTP	34	288	0
XTP	34	288	6
HLD	35	0	5	72
HLD	35	72	6	72
TAP	35	144	7
XTP	35	192	0
XTP	35	240	1
XTP	35	240	7
XTP	35	288	1
XTP	35	288	7
TAP	36	0	2
TAP	36	48	1
TAP	36	48	3
TAP	36	96	5
TAP	36	144	4
TAP	36	144	6
XTP	36	192	3
XTP	36	240	1
XTP	36	240	5
XTP	36	288	1
XTP	36	288	5
TAP	37	0	2
TAP	37	24	3
TAP	37	48	2
TAP	37	96	5
TAP	37	120	4
TAP	37	144	5
TAP	37	192	3
TAP	37	192	4
TAP	37	240	1
TAP	37	240	6
BRK	37	288	1
BRK	37	288	6
STR	38	0	5
SCL	38	0	5	96	48	2
TAP	38	48	5
TAP	38	96	1
STR	38	192	5
SCL	38	192	5	96	48	2
TAP	38	240	5
TAP	38	288	0
HLD	39	0	1	48
HLD	39	0	7	48
HLD	39	96	0	48
HLD	39	96	6	48
HLD	39	192	1	48
HLD	39	192	7	48
XTP	39	288	0
XTP	39	288	6
STR	40	0	5
SCL	40	0	5	96	48	2
TAP	40	48	5
XTP	40	96	1
STR	40	192	5
SCL	40	192	5	96	48	2
TAP	40	240	5
XTP	40	288	0
STR	41	0	1
SI_	41	0	1	96	48	4
TAP	41	48	1
STR	41	96	0
SI_	41	96	0	96	48	5
TAP	41	144	0
TAP	41	192	3
TAP	41	240	2
XTP	41	288	1
XTP	41	288	4
HLD	42	0	5	72
HLD	42	72	6	72
TAP	42	144	7
XTP	42	192	0
XTP	42	240	1
XTP	42	240	7
XTP	42	288	1
XTP	42	288	7
HLD	43	0	2	72
HLD	43	72	1	72
TAP	43	144	0
XTP	43	192	7
XTP	43	240	0
XTP	43	240	6
XTP	43	288	0
XTP	43	288	6
STR	43	336	7
SI_	43	336	7	96	48	3
TAP	44	0	7
XTP	44	48	1
XTP	44	96	1
TAP	44	144	2
STR	44	192	2
SV_	44	192	2	96	96	7
STR	44	192	4
SV_	44	192	4	96	96	7
BRK	45	96	7
XTP	45	192	6
XTP	45	288	5
TAP	46	0	3
HLD	46	0	4	384
TTP	46	192	4	E	0	M1
TTP	46	288	0	C	0	M1
HLD	47	0	0	384
TTP	47	192	0	E	0	M1
TTP	47	288	0	C	0	M1
HLD	48	0	5	384
TTP	48	192	4	E	0	M1
TTP	48	288	0	C	0	M1
HLD	49	0	1	384
TTP	49	192	0	E	0	M1
TTP	49	288	0	C	0	M1
HLD	50	0	5	192
TTP	50	96	4	B	0	M1
HLD	50	192	2	192
TTP	50	288	3	B	0	M1
HLD	51	0	6	192
TTP	51	96	4	B	0	M1
TTP	51	96	5	B	0	M1
HLD	51	192	1	192
TTP	51	288	2	B	0	M1
TTP	51	288	3	B	0	M1
HLD	52	0	5	192
TTP	52	96	4	B	0	M1
TTP	52	96	5	B	0	M1
HLD	52	192	2	192
TTP	52	288	2	B	0	M1
TTP	52	288	3	B	0	M1
XTP	53	0	4
XTP	53	32	4
XTP	53	64	4
XTP	53	96	3
XTP	53	128	3
XTP	53	160	3
XTP	53	192	2
XTP	53	192	4
XTP	53	240	2
XTP	53	240	4
XTP	53	288	1
XTP	53	288	5
STR	54	0	0
SCR	54	0	0	96	288	3
STR	55	0	5
SCR	55	0	5	96	288	0
STR	56	0	2
SCR	56	0	2	96	288	5
TAP	57	0	7
TAP	57	96	6
TAP	57	192	5
TAP	57	288	3
TAP	57	288	4
HLD	58	0	2	72
TAP	58	72	3
TAP	58	144	1
TAP	58	144	4
TAP	58	192	1
TAP	58	192	4
XTP	58	240	0
XTP	58	288	0
HLD	59	0	5	72
TAP	59	72	4
TAP	59	144	3
TAP	59	144	6
TAP	59	192	3
TAP	59	192	6
XTP	59	240	7
XTP	59	288	7
TAP	59	336	0
STR	60	0	0
SCR	60	0	0	96	96	3
STR	60	192	4
SCR	60	192	4	96	96	7
STR	61	0	0
SI_	61	0	0	96	96	4
STR	61	192	7
SI_	61	192	7	96	96	3
TAP	62	0	1
TAP	62	48	1
TAP	62	96	3
TAP	62	144	4
TAP	62	192	6
TAP	62	240	6
STR	62	288	7
SCL	62	288	7	96	288	0
TTP	63	0	0	C	1	M1
HLD	64	0	1	288
HLD	64	0	6	288
XTP	64	336	2
XTP	64	336	5
XHO	65	0	3	240
XHO	65	0	4	240
XTP	65	288	2
XTP	65	288	5
BST	66	0	6
SCR	66	0	6	96	48	1
TAP	66	48	6
XTP	66	96	2
STR	66	192	6
SCR	66	192	6	96	48	1
TAP	66	240	6
XTP	66	288	3
HLD	67	0	2	48
HLD	67	0	3	48
HLD	67	96	0	48
HLD	67	96	7	48
HLD	67	192	4	48
HLD	67	192	5	48
XTP	67	288	3
XTP	67	288	6
STR	68	0	1
SCL	68	0	1	96	48	6
TAP	68	48	1
BRK	68	96	5
STR	68	192	1
SCL	68	192	1	96	48	6
TAP	68	240	1
BRK	68	288	4
HLD	69	0	4	48
HLD	69	0	5	48
HLD	69	96	0	48
HLD	69	96	7	48
HLD	69	192	2	48
HLD	69	192	3	48
XTP	69	288	1
XTP	69	288	4
HLD	70	0	5	72
HLD	70	72	6	72
TAP	70	144	7
XTP	70	192	0
XTP	70	240	1
XTP	70	240	6
XTP	70	288	1
XTP	70	288	6
HLD	71	0	2	72
HLD	71	72	1	72
TAP	71	144	0
XTP	71	192	7
XTP	71	240	1
XTP	71	240	6
XTP	71	288	1
XTP	71	288	6
STR	71	336	0
SI_	71	336	0	96	48	4
TAP	72	0	0
XTP	72	48	7
XTP	72	96	7
TAP	72	144	6
STR	72	192	3
SV_	72	192	3	96	96	0
STR	72	192	5
SV_	72	192	5	96	96	0
BRK	73	96	0
TAP	73	192	1
TAP	73	288	2
STR	74	0	3
SCL	74	0	3	96	48	0
STR	74	0	4
SCR	74	0	4	96	48	7
TTP	74	192	0	C	1	M1
TTP	74	192	2	B	0	M1
TTP	74	192	3	B	0	M1
TTP	74	192	4	B	0	M1
TTP	74	192	5	B	0	M1
TTP	74	192	6	B	0	M1
TTP	74	192	7	B	0	M1
STR	75	0	0
SCL	75	0	0	96	48	5
STR	75	0	1
SCR	75	0	1	96	48	4
TTP	75	192	0	B	0	M1
TTP	75	192	0	C	1	M1
TTP	75	192	1	B	0	M1
TTP	75	192	2	B	0	M1
TTP	75	192	3	B	0	M1
TTP	75	192	4	B	0	M1
TTP	75	192	5	B	0	M1
STR	76	0	6
SCL	76	0	6	96	48	3
STR	76	0	7
SCR	76	0	7	96	48	2
TTP	76	192	0	B	0	M1
TTP	76	192	0	C	1	M1
TTP	76	192	1	B	0	M1
TTP	76	192	3	B	0	M1
TTP	76	192	4	B	0	M1
TTP	76	192	5	B	0	M1
TTP	76	192	6	B	0	M1
TAP	77	0	7
TAP	77	48	6
TAP	77	96	0
TAP	77	96	5
TAP	77	144	1
HLD	77	192	2	48
HLD	77	192	7	48
HLD	77	288	0	48
HLD	77	288	5	48
STR	78	0	1
SCL	78	0	1	96	48	6
STR	78	0	2
SCR	78	0	2	96	48	5
TTP	78	192	0	B	0	M1
TTP	78	192	0	C	1	M1
TTP	78	192	1	B	0	M1
TTP	78	192	2	B	0	M1
TTP	78	192	3	B	0	M1
TTP	78	192	4	B	0	M1
TTP	78	192	7	B	0	M1
STR	79	0	5
SCL	79	0	5	96	48	2
STR	79	0	6
SCR	79	0	6	96	48	1
TTP	79	192	0	B	0	M1
TTP	79	192	0	C	1	M1
TTP	79	192	1	B	0	M1
TTP	79	192	3	B	0	M1
TTP	79	192	4	B	0	M1
TTP	79	192	5	B	0	M1
TTP	79	192	7	B	0	M1
STR	80	0	2
SCR	80	0	2	96	48	5
STR	80	0	6
SCR	80	0	6	96	48	1
TTP	80	192	0	B	0	M1
TTP	80	192	0	C	1	M1
TTP	80	192	1	B	0	M1
TTP	80	192	2	B	0	M1
TTP	80	192	3	B	0	M1
TTP	80	192	4	B	0	M1
TTP	80	192	5	B	0	M1
TTP	80	192	6	B	0	M1
TTP	80	192	7	B	0	M1
XTP	81	48	0
XTP	81	72	7
XTP	81	96	0
XTP	81	120	7
XTP	81	168	1
XTP	81	168	6
XTP	81	216	1
XTP	81	216	6
XTP	81	264	2
XTP	81	264	5
BRK	81	288	2
BRK	81	288	5

T_REC_TAP	195
T_REC_BRK	49
T_REC_XTP	123
T_REC_HLD	76
T_REC_XHO	5
T_REC_STR	48
T_REC_BST	1
T_REC_XST	4
T_REC_TTP	70
T_REC_THO	0
T_REC_SLD	53
T_REC_ALL	624
T_NUM_TAP	440
T_NUM_BRK	50
T_NUM_HLD	81
T_NUM_SLD	53
T_NUM_ALL	624
T_JUDGE_TAP	490
T_JUDGE_HLD	166
T_JUDGE_SLD	53
T_JUDGE_ALL	709
TTM_EACHPAIRS	134
TTM_SCR_TAP	220000
TTM_SCR_BRK	130000
TTM_SCR_HLD	81000
TTM_SCR_SLD	79500
TTM_SCR_ALL	510500
TTM_SCR_S	490350
TTM_SCR_SS	505500
TTM_RAT_ACV	10098

