VERSION	0.00.00	1.03.00
FES_MODE	0
BPM_DEF	121.000	121.000	121.000	121.000
MET_DEF	4	4
RESOLUTION	384
CLK_DEF	384
COMPATIBLE_CODE	MA2

BPM	0	0	121.000
MET	0	0	4	4

XTP	1	192	3
XTP	1	192	4
XTP	1	288	3
XTP	1	288	4
TAP	2	0	5
TAP	2	96	5
TAP	2	192	4
TAP	2	192	5
TAP	2	288	4
TAP	2	288	5
TAP	3	0	6
TAP	3	96	7
TAP	3	192	0
TAP	3	192	6
TAP	4	0	1
TAP	4	96	1
TAP	4	192	0
TAP	4	192	1
TAP	4	288	0
TAP	4	288	1
TAP	5	0	2
TAP	5	96	3
TAP	5	192	3
TAP	5	192	4
TAP	6	0	2
TAP	6	96	2
TAP	6	192	2
TAP	6	192	3
TAP	6	288	2
TAP	6	288	3
TAP	7	0	1
TAP	7	96	0
TAP	7	192	1
TAP	7	192	7
TAP	8	0	6
TAP	8	96	6
TAP	8	192	6
TAP	8	192	7
TAP	8	288	6
TAP	8	288	7
XTP	9	0	5
XTP	9	96	3
XTP	9	96	4
XTP	9	192	2
XTP	9	192	5
BRK	9	288	1
BRK	9	288	6
HLD	10	0	5	192
TAP	10	192	4
TAP	10	288	3
HLD	11	0	2	192
TAP	11	192	3
TAP	11	288	4
TAP	12	0	5
TAP	12	96	4
TAP	12	192	3
TAP	12	192	5
TAP	13	0	2
TAP	13	96	3
XTP	13	192	2
XTP	13	192	4
XTP	13	288	1
XTP	13	288	5
TAP	14	0	6
TAP	14	96	6
TAP	14	192	6
TAP	14	192	7
TAP	15	0	1
TAP	15	96	1
TAP	15	192	0
TAP	15	192	1
TAP	16	0	6
TAP	16	96	6
TAP	16	192	7
TAP	16	288	7
STR	17	0	0
SI_	17	0	0	96	144	4
STR	17	0	7
SI_	17	0	7	96	144	3
STR	18	0	2
SCL	18	0	2	96	144	7
STR	19	0	6
SCL	19	0	6	96	144	3
TTP	20	0	2	B	0	L1
TTP	20	96	1	B	0	L1
TTP	20	192	1	E	0	L1
TTP	21	0	5	B	0	L1
TTP	21	96	6	B	0	L1
TTP	21	192	7	E	0	L1
XST	22	0	5
SI_	22	0	5	96	144	0
STR	23	0	1
SI_	23	0	1	96	144	4
TTP	24	0	5	B	0	L1
TTP	24	96	6	B	0	L1
TTP	24	192	7	E	0	L1
TTP	25	0	2	B	0	L1
TTP	25	96	1	B	0	L1
TTP	25	192	1	E	0	L1
HLD	26	0	6	192
HLD	26	192	7	192
HLD	27	0	0	192
TAP	27	192	1
TAP	27	288	0
STR	27	288	1
SCR	27	288	1	96	192	6
TTP	29	0	0	C	1	L1
TAP	30	0	6
TAP	30	96	6
TAP	30	96	7
TAP	30	192	6
TAP	30	288	6
TAP	30	288	7
TAP	31	0	5
TAP	31	96	4
TAP	31	192	3
TAP	31	288	2
TAP	32	0	1
TAP	32	96	0
TAP	32	96	1
TAP	32	192	1
TAP	32	288	0
TAP	32	288	1
TAP	33	0	2
TAP	33	96	3
TAP	33	192	4
TAP	33	288	5
TAP	34	0	6
TAP	34	0	7
TAP	34	96	6
TAP	34	96	7
XHO	34	192	0	96
XHO	34	192	5	96
TAP	35	0	0
TAP	35	0	1
TAP	35	96	0
TAP	35	96	1
XHO	35	192	2	96
XHO	35	192	7	96
TAP	36	0	0
TAP	36	0	1
TAP	36	96	2
TAP	36	96	3
XTP	36	192	1
XTP	36	192	4
TAP	37	0	4
TAP	37	0	5
TAP	37	96	6
TAP	37	96	7
XTP	37	192	0
XTP	37	192	5
BRK	38	0	5
TAP	38	96	4
TAP	38	96	5
TAP	38	192	5
TAP	38	288	4
TAP	38	288	5
TAP	39	0	6
TAP	39	96	7
TAP	39	192	0
TAP	39	288	1
TAP	40	0	2
TAP	40	96	2
TAP	40	96	3
TAP	40	192	2
TAP	40	288	2
TAP	40	288	3
TAP	41	0	1
TAP	41	96	0
TAP	41	192	7
TAP	41	288	6
TAP	42	0	4
TAP	42	0	5
TAP	42	96	4
TAP	42	96	5
XHO	42	192	3	96
XHO	42	192	6	96
TAP	43	0	2
TAP	43	0	3
TAP	43	96	2
TAP	43	96	3
XHO	43	192	1	96
XHO	43	192	4	96
TAP	44	0	0
TAP	44	96	0
TAP	44	192	7
TAP	44	288	7
XTP	45	0	6
XTP	45	0	7
XTP	45	96	4
XTP	45	96	5
XTP	45	192	2
XTP	45	192	3
XTP	45	288	0
XTP	45	288	1
BST	46	0	0
SXL	46	0	0	96	384	3
BST	46	0	7
SXR	46	0	7	96	384	4
TTP	48	0	6	B	0	L1
TTP	48	96	5	B	0	L1
TTP	48	192	4	B	0	L1
TTP	48	288	3	B	0	L1
TTP	49	0	2	B	0	L1
TTP	49	96	1	B	0	L1
TTP	49	192	0	C	0	L1
XHO	50	0	0	72
XHO	50	0	7	72
XHO	50	192	0	72
XHO	50	192	1	72
XST	51	0	2
SI_	51	0	2	96	144	7
XTP	51	0	3
XHO	52	0	6	72
XHO	52	0	7	72
XHO	52	192	4	72
XHO	52	192	5	72
XTP	53	0	3
XTP	53	0	4
XTP	53	96	3
XTP	53	96	4
BRK	53	192	2
BRK	53	192	5
HLD	54	0	2	384
HLD	55	0	3	384
HLD	56	0	4	384
HLD	57	0	5	192
TAP	58	0	2
TAP	58	96	2
TAP	58	192	2
TAP	58	192	3
TAP	59	0	5
TAP	59	96	5
TAP	59	192	4
TAP	59	192	5
TAP	60	0	6
TAP	60	96	6
TAP	60	192	7
TAP	60	288	7
TAP	61	0	0
TAP	61	96	0
TAP	61	192	1
TAP	61	288	1
TAP	62	0	2
TAP	62	96	3
TAP	62	192	4
TAP	62	288	5
BST	63	0	3
SCL	63	0	3	96	144	0
BST	63	0	4
SCR	63	0	4	96	144	7
TTP	64	0	0	C	1	L1
TTP	65	0	0	C	1	L1
TTP	65	0	2	B	0	L1
TTP	65	0	6	B	0	L1
TAP	66	0	1
TAP	66	96	0
TAP	66	96	1
TAP	66	192	1
TAP	66	288	0
TAP	66	288	1
TAP	67	0	2
TAP	67	96	3
TAP	67	192	4
TAP	67	288	5
TAP	68	0	6
TAP	68	96	6
TAP	68	96	7
TAP	68	192	6
TAP	68	288	6
TAP	68	288	7
TAP	69	0	5
TAP	69	96	4
TAP	69	192	3
TAP	69	288	2
STR	70	0	0
SI_	70	0	0	96	144	5
STR	70	0	1
SI_	70	0	1	96	144	4
STR	71	0	6
SI_	71	0	6	96	144	3
STR	71	0	7
SI_	71	0	7	96	144	2
TAP	72	0	1
TAP	72	96	1
TAP	72	192	0
TAP	72	288	0
XTP	73	0	0
XTP	73	0	7
XTP	73	96	1
XTP	73	96	6
XTP	73	192	2
XTP	73	192	5
TTP	74	0	5	B	0	L1
TTP	74	0	5	E	0	L1
TTP	74	192	2	B	0	L1
TTP	74	192	3	E	0	L1
TTP	75	0	7	B	0	L1
TTP	75	0	7	E	0	L1
TTP	75	192	0	B	0	L1
TTP	75	192	1	E	0	L1
TTP	76	0	4	B	0	L1
TTP	76	0	5	B	0	L1
TTP	76	192	2	B	0	L1
TTP	76	192	3	B	0	L1
XTP	77	0	5
XTP	77	96	5
XTP	77	192	4
XTP	77	192	6
TTP	78	0	6	B	0	L1
TTP	78	0	7	E	0	L1
TTP	78	192	1	B	0	L1
TTP	78	192	1	E	0	L1
TTP	79	0	4	B	0	L1
TTP	79	0	5	B	0	L1
TTP	79	192	2	B	0	L1
TTP	79	192	3	B	0	L1
TTP	80	0	5	B	0	L1
TTP	80	0	6	B	0	L1
TTP	80	0	7	E	0	L1
TTP	80	192	1	B	0	L1
TTP	80	192	1	E	0	L1
TTP	80	192	2	B	0	L1
XTP	81	0	0
XTP	81	0	7
XTP	81	96	1
XTP	81	96	6
TAP	81	192	2
TAP	81	192	5
BRK	81	288	3
BRK	81	288	4

T_REC_TAP	173
T_REC_BRK	7
T_REC_XTP	44
T_REC_HLD	9
T_REC_XHO	16
T_REC_STR	10
T_REC_BST	4
T_REC_XST	2
T_REC_TTP	50
T_REC_THO	0
T_REC_SLD	16
T_REC_ALL	331
T_NUM_TAP	279
T_NUM_BRK	11
T_NUM_HLD	25
T_NUM_SLD	16
T_NUM_ALL	331
T_JUDGE_TAP	290
T_JUDGE_HLD	80
T_JUDGE_SLD	16
T_JUDGE_ALL	386
TTM_EACHPAIRS	79
TTM_SCR_TAP	139500
TTM_SCR_BRK	28600
TTM_SCR_HLD	25000
TTM_SCR_SLD	24000
TTM_SCR_ALL	217100
TTM_SCR_S	209550
TTM_SCR_SS	216000
TTM_RAT_ACV	10050

