VERSION	0.00.00	1.03.00
FES_MODE	0
BPM_DEF	121.000	121.000	121.000	121.000
MET_DEF	4	4
RESOLUTION	384
CLK_DEF	384
COMPATIBLE_CODE	MA2

BPM	0	0	121.000
MET	0	0	4	4

TAP	2	0	0
TAP	2	192	0
TAP	3	0	0
TAP	4	0	1
TAP	4	192	1
TAP	5	0	1
TAP	6	0	2
TAP	6	192	2
TAP	7	0	2
TAP	8	0	3
TAP	8	192	3
XTP	9	0	3
XTP	9	0	4
HLD	10	0	4	192
HLD	11	0	5	192
HLD	12	0	6	192
HLD	13	0	7	192
BRK	14	0	7
TAP	14	192	6
TAP	15	0	5
TAP	15	192	3
TAP	15	192	4
TAP	16	0	2
XHO	16	192	0	252
XHO	16	192	1	252
STR	18	0	7
SI_	18	0	7	96	288	3
TAP	19	192	0
BRK	20	0	1
BRK	20	192	0
BRK	21	0	7
BRK	21	192	6
STR	22	0	0
SI_	22	0	0	96	288	4
TAP	23	192	7
XTP	24	0	6
XTP	24	192	7
XTP	25	0	0
XTP	25	192	1
XTP	25	192	6
TTP	26	0	7	B	0	L1
TTP	26	192	0	B	0	L1
TTP	27	0	6	B	0	L1
TTP	27	192	1	B	0	L1
THO	28	0	0	384	C	0	L1
XTP	30	0	7
TAP	30	96	7
TAP	30	192	7
TAP	31	0	6
TAP	31	0	7
TAP	31	192	6
TAP	31	192	7
TAP	32	0	5
TAP	32	96	5
TAP	32	192	5
TAP	33	0	4
TAP	33	0	5
TAP	33	192	4
TAP	33	192	5
XTP	34	0	3
XTP	34	0	4
XTP	34	96	3
XTP	34	96	4
XTP	34	192	2
XTP	34	192	5
XTP	35	0	3
XTP	35	0	4
XTP	35	96	3
XTP	35	96	4
XTP	35	192	2
XTP	35	192	5
TAP	36	0	1
TAP	36	192	0
TAP	36	192	1
TAP	37	0	6
TAP	37	192	6
TAP	37	192	7
XTP	38	0	0
TAP	38	96	0
TAP	38	192	0
TAP	39	0	0
TAP	39	0	1
TAP	39	192	0
TAP	39	192	1
TAP	40	0	2
TAP	40	96	2
TAP	40	192	2
TAP	41	0	2
TAP	41	0	3
TAP	41	192	2
TAP	41	192	3
TAP	42	0	3
TAP	42	0	4
TAP	42	96	3
TAP	42	96	4
TAP	42	192	2
TAP	42	192	5
TAP	43	0	3
TAP	43	0	4
TAP	43	96	3
TAP	43	96	4
TAP	43	192	2
TAP	43	192	5
TAP	44	0	6
TAP	44	96	6
TAP	44	192	6
HLD	45	0	0	192
HLD	45	0	7	192
STR	46	0	0
SI_	46	0	0	96	288	3
STR	46	0	7
SI_	46	0	7	96	288	4
TTP	48	0	4	E	0	L1
TTP	48	192	5	E	0	L1
TTP	49	0	6	E	0	L1
TTP	49	192	7	E	0	L1
TTP	50	0	0	E	0	L1
TTP	50	192	1	E	0	L1
TTP	51	0	2	E	0	L1
TTP	51	192	3	E	0	L1
TTP	52	0	4	E	0	L1
TTP	52	192	3	E	0	L1
TTP	52	192	5	E	0	L1
TTP	53	0	0	C	1	L1
HLD	54	0	0	192
TAP	55	0	0
TAP	55	0	1
HLD	56	0	7	192
TAP	57	0	6
TAP	57	0	7
XHO	58	0	4	192
XHO	58	0	5	192
XHO	59	0	2	192
XHO	59	0	3	192
TTP	60	0	2	B	0	L1
TTP	60	0	3	B	0	L1
TTP	60	192	4	B	0	L1
TTP	60	192	5	B	0	L1
TTP	61	0	6	B	0	L1
TTP	61	0	7	B	0	L1
TTP	61	192	0	B	0	L1
TTP	61	192	1	B	0	L1
TTP	62	0	2	B	0	L1
TTP	62	0	3	B	0	L1
TTP	62	0	3	E	0	L1
TTP	63	0	4	B	0	L1
TTP	63	0	5	B	0	L1
TTP	63	0	5	E	0	L1
THO	64	0	0	384	C	1	L1
BRK	66	0	7
TAP	66	96	7
TAP	66	192	7
TAP	67	0	6
TAP	67	0	7
TAP	67	96	6
TAP	67	96	7
TAP	67	192	6
TAP	67	192	7
BRK	68	0	5
TAP	68	96	5
TAP	68	192	5
TAP	69	0	4
TAP	69	0	5
TAP	69	96	4
TAP	69	96	5
TAP	69	192	4
TAP	69	192	5
TAP	70	0	3
TAP	70	0	4
TAP	70	96	3
TAP	70	96	4
TAP	70	192	2
TAP	70	192	5
TAP	71	0	3
TAP	71	0	4
TAP	71	96	3
TAP	71	96	4
TAP	71	192	2
TAP	71	192	5
TAP	72	0	1
TAP	72	96	1
TAP	72	192	0
TAP	72	192	1
TAP	73	0	6
TAP	73	96	6
TAP	73	192	6
TAP	73	192	7
BRK	74	0	0
BRK	74	0	1
BRK	74	192	0
BRK	74	192	1
BRK	75	0	2
BRK	75	0	3
BRK	75	192	2
BRK	75	192	3
BRK	76	0	4
BRK	76	0	5
BRK	76	192	4
BRK	76	192	5
TAP	77	0	6
TAP	77	96	6
TAP	77	192	6
TAP	77	192	7
BRK	78	0	6
BRK	78	0	7
BRK	78	192	4
BRK	78	192	5
BRK	79	0	2
BRK	79	0	3
BRK	79	192	0
BRK	79	192	1
BRK	80	0	0
BRK	80	0	7
BRK	80	192	1
BRK	80	192	6
THO	81	0	0	288	C	1	L1

T_REC_TAP	109
T_REC_BRK	31
T_REC_XTP	21
T_REC_HLD	8
T_REC_XHO	6
T_REC_STR	4
T_REC_BST	0
T_REC_XST	0
T_REC_TTP	30
T_REC_THO	3
T_REC_SLD	4
T_REC_ALL	216
T_NUM_TAP	164
T_NUM_BRK	31
T_NUM_HLD	17
T_NUM_SLD	4
T_NUM_ALL	216
T_JUDGE_TAP	195
T_JUDGE_HLD	82
T_JUDGE_SLD	4
T_JUDGE_ALL	281
TTM_EACHPAIRS	59
TTM_SCR_TAP	82000
TTM_SCR_BRK	80600
TTM_SCR_HLD	17000
TTM_SCR_SLD	6000
TTM_SCR_ALL	185600
TTM_SCR_S	177050
TTM_SCR_SS	182500
TTM_RAT_ACV	10169

