VERSION	0.00.00	1.03.00
FES_MODE	0
BPM_DEF	211.000	211.000	211.000	 26.375
MET_DEF	4	4
RESOLUTION	384
CLK_DEF	384
COMPATIBLE_CODE	MA2

BPM	0	0	211.000
BPM	2	0	211.000
BPM	12	0	211.000
BPM	22	0	211.000
BPM	38	0	211.000
BPM	46	0	211.000
BPM	50	192	211.000
BPM	53	192	211.000
BPM	57	192	211.000
BPM	60	192	 26.375
BPM	60	240	211.000
BPM	61	144	211.000
BPM	69	240	211.000
BPM	77	240	211.000
BPM	85	240	211.000
BPM	96	240	211.000
BPM	98	240	211.000
BPM	104	240	211.000
MET	0	0	4	4
MET	46	0	4	3
MET	53	192	4	4
MET	60	192	8	7
MET	61	144	4	4

HLD	2	0	3	48
HLD	2	0	4	48
TAP	3	192	3
TAP	3	192	4
TAP	4	0	3
HLD	4	0	5	96
TAP	4	96	4
TAP	4	192	3
TAP	4	192	4
TAP	4	288	2
TAP	4	352	2
TAP	5	0	3
TAP	5	64	3
TAP	5	96	1
TAP	5	192	0
HLD	5	192	4	96
TAP	5	288	1
HLD	6	0	2	96
TAP	6	0	3
TAP	6	96	3
TAP	6	192	3
TAP	6	192	4
TAP	6	288	5
TAP	6	352	5
TAP	7	0	4
TAP	7	64	4
TAP	7	96	6
TAP	7	192	4
TAP	7	192	5
XTP	7	240	6
TAP	8	0	3
HLD	8	0	5	96
TAP	8	96	4
TAP	8	192	3
TAP	8	192	4
TAP	8	288	2
TAP	8	352	2
TAP	9	0	3
TAP	9	64	3
TAP	9	96	1
TAP	9	192	0
HLD	9	192	4	96
STR	9	288	1
SCR	9	288	1	96	288	6
THO	10	0	0	384	C	0	M1
TAP	11	0	7
TAP	11	192	1
TAP	11	192	6
HLD	12	0	5	96
TAP	12	0	7
HLD	12	96	0	48
TAP	12	144	7
TAP	12	192	1
TAP	12	192	7
TAP	12	288	1
STR	12	336	1
SI_	12	336	1	96	48	3
TAP	12	336	3
TAP	13	48	4
STR	13	96	4
SI_	13	96	4	96	48	7
TAP	13	192	3
HLD	13	288	4	96
TAP	14	0	6
TAP	14	48	3
TAP	14	48	5
TAP	14	96	2
TAP	14	144	4
HLD	14	192	1	48
HLD	14	192	3	48
HLD	14	264	1	48
HLD	14	264	3	48
TAP	14	336	2
HLD	14	336	4	96
TAP	15	48	3
TAP	15	96	3
STR	15	96	4
SI_	15	96	4	96	48	7
TAP	15	192	4
HLD	15	192	5	192
TAP	16	0	0
TAP	16	48	1
TAP	16	96	6
TAP	16	144	5
HLD	16	192	0	144
TAP	16	192	4
TAP	16	288	1
HLD	16	336	1	168
TAP	17	48	2
HLD	17	96	2	48
TAP	17	192	0
TAP	17	192	3
TAP	17	240	4
HLD	17	240	7	96
TAP	17	336	0
TAP	18	0	0
TAP	18	0	6
TAP	18	96	6
TAP	18	120	7
TAP	18	144	6
TAP	18	168	7
HLD	18	192	0	48
HLD	18	192	6	48
HLD	18	264	1	48
HLD	18	264	5	48
TAP	18	336	2
TAP	18	336	4
TAP	19	0	1
TAP	19	24	3
TAP	19	48	1
TAP	19	72	3
TAP	19	96	0
TAP	19	120	2
TAP	19	144	0
TAP	19	168	2
TAP	19	192	7
TAP	19	216	1
TAP	19	240	7
TAP	19	264	1
STR	19	288	7
SI_	19	288	7	96	480	3
TAP	20	0	2
TAP	20	144	4
TAP	20	288	2
TAP	21	0	5
TAP	21	48	5
TAP	21	96	5
TAP	21	192	3
TAP	21	192	4
STR	21	288	1
SI_	21	288	1	96	48	4
TAP	21	288	6
BRK	22	0	5
TAP	22	96	3
TAP	22	96	6
TAP	22	144	3
HLD	22	144	6	96
STR	22	240	4
SCR	22	240	4	96	48	7
TAP	22	288	3
TAP	22	336	3
TAP	23	48	1
HLD	23	96	1	48
STR	23	144	0
SCR	23	144	0	96	48	3
TAP	23	240	7
TAP	23	288	7
TAP	24	0	4
TAP	24	0	6
TAP	24	48	5
TAP	24	96	4
TAP	24	144	3
TAP	24	144	5
STR	24	240	2
SCL	24	240	2	96	48	0
TAP	24	288	3
HLD	24	336	4	144
TAP	25	48	7
STR	25	96	7
SI_	25	96	7	96	48	4
TAP	25	192	0
TAP	25	288	1
TAP	26	0	2
STR	26	0	5
SI_	26	0	5	96	48	1
TAP	26	96	3
STR	26	144	3
SI_	26	144	3	96	48	0
TAP	26	240	7
TAP	26	288	7
STR	27	0	1
SI_	27	0	1	96	48	4
STR	27	48	6
SI_	27	48	6	96	48	3
TAP	27	96	1
TAP	27	144	6
TAP	27	240	1
TAP	27	288	1
BST	28	0	0
SI_	28	0	0	96	24	3
BST	28	72	4
SI_	28	72	4	96	24	7
BST	28	144	2
SI_	28	144	2	96	24	5
BST	28	216	6
SI_	28	216	6	96	24	1
TAP	28	288	3
TAP	28	336	3
TAP	29	0	7
TAP	29	48	7
TAP	29	96	0
HLD	29	96	6	288
TAP	29	192	1
TAP	29	216	2
TAP	29	240	3
TAP	29	264	4
TAP	29	288	3
TAP	29	312	2
TAP	29	336	1
TAP	29	360	0
BST	30	0	7
SCL	30	0	7	96	48	4
TAP	30	96	1
HLD	30	144	1	96
STR	30	240	3
SCL	30	240	3	96	48	0
TAP	30	288	4
TAP	30	336	4
TAP	31	48	6
HLD	31	96	6	48
STR	31	144	7
SCL	31	144	7	96	48	4
TAP	31	240	0
TAP	31	288	0
TAP	32	0	1
TAP	32	0	3
TAP	32	48	2
TAP	32	96	3
TAP	32	144	2
TAP	32	144	4
STR	32	240	5
SI_	32	240	5	96	48	1
TAP	32	288	4
TAP	32	336	3
STR	33	48	3
SI_	33	48	3	96	48	0
TAP	33	96	4
TAP	33	144	5
TAP	33	240	7
TAP	33	264	0
BRK	33	288	1
BRK	33	288	6
TAP	34	144	3
TAP	34	144	4
STR	34	240	1
SI_	34	240	1	96	48	5
TAP	34	240	6
TAP	34	336	2
TAP	35	0	3
STR	35	48	4
SI_	35	48	4	96	48	0
TAP	35	96	5
TAP	35	144	6
STR	35	192	7
SI_	35	192	7	96	48	3
XTP	35	240	0
TAP	35	288	1
STR	35	336	2
SI_	35	336	2	96	48	6
XTP	36	0	3
TAP	36	48	4
TAP	36	96	5
XTP	36	144	6
TAP	36	192	7
TAP	36	240	0
TAP	36	240	7
TAP	36	288	1
TAP	36	288	6
TAP	36	336	2
TAP	36	336	5
STR	37	0	3
SI_	37	0	3	96	48	0
STR	37	0	4
SI_	37	0	4	96	48	7
BRK	37	192	1
BRK	37	192	6
BRK	37	240	1
BRK	37	240	6
TAP	38	0	3
HLD	38	0	4	96
TTP	38	192	4	E	0	M1
TAP	38	192	5
TTP	38	208	3	E	0	M1
TTP	38	224	2	E	0	M1
HLD	38	336	5	144
TAP	39	48	4
TAP	39	96	4
TTP	39	192	5	E	0	M1
TAP	39	192	6
TTP	39	208	4	E	0	M1
TTP	39	224	3	E	0	M1
TAP	40	0	2
HLD	40	0	4	96
TAP	40	96	3
TTP	40	192	4	E	0	M1
TAP	40	192	5
TTP	40	208	3	E	0	M1
TTP	40	224	2	E	0	M1
HLD	40	336	5	144
TAP	41	48	4
TAP	41	96	4
TTP	41	192	5	E	0	M1
TAP	41	192	6
TTP	41	208	4	E	0	M1
TTP	41	224	3	E	0	M1
HLD	42	0	3	96
TAP	42	0	5
TAP	42	96	4
TAP	42	192	2
TTP	42	192	4	E	0	M1
TTP	42	208	5	E	0	M1
TTP	42	224	6	E	0	M1
HLD	42	336	2	144
TAP	43	48	3
TAP	43	96	3
TAP	43	192	1
TTP	43	192	3	E	0	M1
TTP	43	208	4	E	0	M1
TTP	43	224	5	E	0	M1
HLD	44	0	3	96
TAP	44	0	5
TAP	44	96	4
TAP	44	192	2
TTP	44	192	4	E	0	M1
TTP	44	208	5	E	0	M1
TTP	44	224	6	E	0	M1
TAP	44	336	2
TAP	44	336	3
TAP	45	48	2
TAP	45	48	3
TAP	45	144	3
TAP	45	144	4
TAP	45	240	2
TAP	45	240	5
TAP	45	256	4
TAP	45	272	3
BST	45	288	2
SV_	45	288	2	96	1344	5
BST	45	288	5
SV_	45	288	5	96	1344	2
XTP	49	288	2
XTP	49	288	5
TAP	50	96	6
TAP	50	120	7
TAP	50	144	6
TAP	50	168	7
TAP	50	192	6
BRK	50	240	0
TAP	50	240	5
TAP	50	288	1
BRK	50	288	4
BRK	50	336	2
TAP	50	336	5
TAP	51	0	3
BRK	51	0	4
TAP	51	96	2
BRK	51	96	7
BRK	51	144	3
TAP	51	144	6
TAP	51	192	2
BRK	51	192	5
BRK	51	240	3
TAP	51	240	4
BRK	52	48	3
TAP	52	48	6
TAP	52	96	2
BRK	52	96	7
BRK	52	144	1
TAP	52	144	6
TAP	52	192	0
BRK	52	192	7
BRK	52	288	4
TAP	52	288	6
TAP	52	360	1
BRK	52	360	3
TAP	53	48	0
BRK	53	48	7
BST	53	96	0
SCR	53	96	0	96	192	7
STR	53	96	7
SCL	53	96	7	96	192	0
BRK	53	192	0
BRK	53	192	7
STR	54	48	1
SI_	54	48	1	96	48	4
STR	54	144	6
SI_	54	144	6	96	48	2
STR	54	240	3
SI_	54	240	3	96	48	7
STR	54	336	5
SCR	54	336	5	96	144	2
TAP	55	48	0
TAP	55	192	4
TAP	55	240	4
TAP	55	288	3
STR	55	336	2
SI_	55	336	2	96	48	7
STR	56	48	6
SI_	56	48	6	96	48	3
STR	56	144	0
SI_	56	144	0	96	48	4
STR	56	240	5
SUR	56	240	5	96	144	7
TAP	56	336	0
TAP	57	0	1
TAP	57	48	2
TAP	57	96	3
TAP	57	144	3
TAP	57	192	6
TAP	57	240	6
TAP	57	288	3
TAP	57	336	3
TAP	58	0	5
TAP	58	48	5
TAP	58	72	4
TAP	58	120	2
TAP	58	144	3
TAP	58	192	1
STR	58	192	4
SI_	58	192	4	96	48	0
TAP	58	240	2
TAP	58	240	5
TAP	58	288	3
TAP	59	0	1
TAP	59	0	7
TAP	59	48	2
TAP	59	48	6
TAP	59	96	3
TAP	59	96	5
HLD	59	192	4	48
HLD	59	192	6	48
HLD	59	264	1	48
HLD	59	264	3	48
HLD	59	336	5	48
HLD	59	336	7	48
HLD	60	24	0	48
HLD	60	24	2	48
BRK	60	96	3
BRK	60	96	4
BRK	60	144	3
BST	60	144	4
SF_	60	144	4	96	72	0
TAP	61	48	0
HLD	61	48	7	96
TAP	61	144	6
TAP	61	160	5
TAP	61	176	4
TAP	61	192	3
TAP	61	208	2
TAP	61	224	1
TAP	61	240	0
BST	61	240	6
SI_	61	240	6	96	48	2
TAP	61	336	7
TAP	62	0	7
TAP	62	48	0
TAP	62	48	3
TAP	62	72	4
TAP	62	96	5
TAP	62	120	6
TAP	62	144	1
TAP	62	144	7
TAP	62	168	2
TAP	62	192	3
TAP	62	216	4
TAP	62	240	5
STR	62	240	7
SI_	62	240	7	96	48	3
TAP	62	288	7
TAP	62	336	1
TAP	63	0	1
TAP	63	48	2
TAP	63	48	4
TAP	63	72	5
TAP	63	96	6
TAP	63	120	7
TAP	63	144	0
TAP	63	144	1
TAP	63	168	2
TAP	63	192	3
TAP	63	216	4
STR	63	240	6
SI_	63	240	6	96	48	3
TAP	63	288	6
TAP	63	336	7
TAP	64	0	0
STR	64	48	1
SI_	64	48	1	96	48	5
TAP	64	96	1
TAP	64	144	0
HLD	64	192	7	48
TAP	64	240	4
TAP	64	264	3
TAP	64	288	2
TAP	64	312	1
TAP	64	336	0
TAP	64	336	7
TAP	64	360	6
TAP	65	0	5
TAP	65	24	4
TAP	65	48	3
TAP	65	48	7
TAP	65	72	6
TAP	65	96	5
TAP	65	120	4
TAP	65	144	0
TAP	65	168	7
TAP	65	192	6
TAP	65	216	5
TAP	65	240	1
TAP	65	240	4
TAP	65	288	2
TAP	65	312	3
TAP	65	336	2
TAP	65	360	3
TAP	66	0	2
TAP	66	48	1
TAP	66	48	4
TAP	66	96	2
TAP	66	96	5
TAP	66	144	3
TAP	66	144	6
TAP	66	192	5
TAP	66	208	4
TAP	66	224	5
TAP	66	240	4
TAP	66	288	3
STR	66	336	7
SI_	66	336	7	96	48	3
STR	67	0	2
SI_	67	0	2	96	48	7
TAP	67	48	7
TAP	67	96	2
TAP	67	144	5
HLD	67	192	5	96
TAP	67	288	7
TAP	67	312	6
TAP	67	336	0
TAP	67	360	5
TAP	68	0	1
TAP	68	24	4
TAP	68	48	2
TAP	68	72	3
STR	68	96	1
SCL	68	96	1	96	144	3
TAP	68	120	0
TAP	68	144	2
TAP	68	168	7
TAP	68	192	1
TAP	69	48	0
BST	69	48	6
SI_	69	48	6	96	48	3
BRK	69	144	2
STR	69	240	1
SI_	69	240	1	96	48	3
TAP	69	240	7
STR	69	336	1
SI_	69	336	1	96	48	5
TAP	69	336	5
TAP	70	48	1
TAP	70	96	4
TAP	70	120	3
TAP	70	144	2
TAP	70	168	1
TAP	70	192	0
TAP	70	216	7
TAP	70	240	0
STR	70	240	6
SI_	70	240	6	96	48	4
TAP	70	288	0
TAP	70	336	1
STR	70	336	6
SI_	70	336	6	96	48	2
TAP	71	0	1
TAP	71	48	6
TAP	71	96	3
TAP	71	120	4
TAP	71	144	5
TAP	71	168	6
TAP	71	192	7
TAP	71	216	0
TAP	71	240	1
TAP	71	240	4
TAP	71	288	5
TAP	71	336	2
TAP	71	336	6
HLD	72	0	2	144
STR	72	48	5
SI_	72	48	5	96	48	0
TAP	72	72	4
STR	72	96	3
SI_	72	96	3	96	48	7
TAP	72	144	5
TAP	72	192	3
TAP	72	288	6
TAP	72	312	7
TAP	72	336	6
HLD	73	0	0	96
TAP	73	0	5
TAP	73	96	7
TAP	73	120	0
TAP	73	144	1
TAP	73	144	6
HLD	73	240	2	112
TAP	73	240	4
TAP	73	256	3
TAP	73	288	1
TAP	73	304	0
TAP	73	320	7
TAP	73	336	6
TAP	73	352	5
BRK	74	0	1
STR	74	0	3
SCR	74	0	3	96	72	1
TAP	74	96	2
TAP	74	144	2
TAP	74	240	3
HLD	74	240	5	112
TAP	74	256	4
TAP	74	288	6
TAP	74	304	7
TAP	74	320	0
TAP	74	336	1
TAP	74	352	2
STR	75	0	4
SCL	75	0	4	96	72	6
BRK	75	0	6
TAP	75	96	5
TAP	75	144	5
HLD	75	240	0	48
HLD	75	240	6	48
HLD	75	312	1	48
HLD	75	312	3	48
HLD	76	0	4	48
HLD	76	0	6	48
HLD	76	72	3	48
HLD	76	72	7	48
TAP	76	144	2
TAP	76	144	6
TAP	76	160	1
TAP	76	160	5
TAP	76	176	0
TAP	76	176	4
TAP	76	240	1
TAP	76	240	5
TAP	76	288	1
TAP	76	288	5
TAP	76	336	3
TAP	76	336	7
TAP	77	0	3
TAP	77	0	7
TAP	77	48	0
TAP	77	72	7
TAP	77	96	0
TAP	77	120	7
BRK	77	144	1
BRK	77	144	6
HLD	77	240	1	48
HLD	77	240	3	48
HLD	77	312	2	48
HLD	77	312	3	48
HLD	78	0	4	48
HLD	78	0	6	48
HLD	78	72	4	48
HLD	78	72	5	48
TAP	78	144	3
STR	78	192	2
SV_	78	192	2	96	48	5
STR	78	192	4
SV_	78	192	4	96	48	1
STR	78	240	1
SLR	78	240	1	96	72	7
STR	78	240	5
SLL	78	240	5	96	72	7
TAP	79	96	0
TAP	79	96	6
TAP	79	120	1
TAP	79	120	5
TAP	79	144	2
TAP	79	144	4
STR	79	240	7
SI_	79	240	7	96	48	3
STR	79	288	3
SI_	79	288	3	96	48	6
TAP	79	336	2
TAP	79	336	7
STR	80	48	0
SI_	80	48	0	96	48	4
TAP	80	96	7
TAP	80	144	0
STR	80	192	7
SI_	80	192	7	96	48	2
TAP	80	240	3
TAP	80	288	7
STR	80	336	3
SI_	80	336	3	96	48	7
TAP	81	0	4
TAP	81	48	3
TAP	81	96	5
STR	81	144	0
SI_	81	144	0	96	48	5
STR	81	192	5
SCR	81	192	5	96	48	0
BST	81	240	0
SCR	81	240	0	96	48	3
TAP	81	336	4
TAP	82	0	5
STR	82	48	6
SI_	82	48	6	96	48	2
HLD	82	144	4	96
TAP	82	144	6
TAP	82	240	1
TAP	82	264	3
TAP	82	288	1
TAP	82	312	3
STR	82	336	0
SI_	82	336	0	96	48	4
TAP	83	48	0
TAP	83	48	6
TAP	83	144	2
TAP	83	192	1
TAP	83	192	3
TAP	83	240	0
TAP	83	272	6
TAP	83	304	4
TAP	83	336	0
TAP	83	368	2
TAP	84	16	4
TAP	84	48	0
TAP	84	72	1
TAP	84	96	2
TAP	84	120	3
TAP	84	144	1
TAP	84	168	2
TAP	84	192	3
TAP	84	216	4
HLD	84	240	0	48
TAP	84	288	5
HLD	84	312	1	48
TAP	84	360	6
HLD	85	0	2	48
TAP	85	48	7
TAP	85	96	0
TAP	85	96	3
TAP	85	144	0
TAP	85	144	2
TAP	85	192	0
TAP	85	192	1
STR	85	240	0
SUL	85	240	0	96	48	3
SUR	85	240	0	96	48	5
TAP	85	240	1
TAP	85	252	2
TAP	85	252	7
TAP	85	264	3
TAP	85	264	6
TAP	85	276	4
TAP	85	276	5
TAP	86	48	2
TAP	86	48	6
TAP	86	96	2
STR	86	96	6
SLL	86	96	6	96	144	0
STR	86	192	1
SI_	86	192	1	96	48	3
STR	86	288	1
SI_	86	288	1	96	48	5
STR	87	0	7
SCR	87	0	7	96	96	6
TAP	87	96	4
TAP	87	96	7
TAP	87	240	3
TAP	87	288	2
TAP	87	288	6
TAP	87	336	1
TAP	87	336	5
STR	88	0	0
SV_	88	0	0	96	48	3
STR	88	0	4
SI_	88	0	4	96	48	7
TAP	88	96	0
TAP	88	96	4
STR	88	192	2
SI_	88	192	2	96	24	5
STR	88	192	6
SI_	88	192	6	96	24	1
BRK	88	288	2
BRK	88	288	6
BRK	88	360	3
BRK	88	360	7
BRK	89	48	1
BRK	89	48	5
TAP	89	144	0
TAP	89	144	7
STR	89	240	6
SCL	89	240	6	96	48	3
TAP	89	288	4
STR	89	336	6
SI_	89	336	6	96	48	2
TAP	90	0	0
TAP	90	48	6
STR	90	96	4
SI_	90	96	4	96	48	1
SI_	90	96	4	96	48	7
TAP	90	192	4
TAP	90	288	2
TAP	90	288	6
TAP	91	0	1
TAP	91	24	0
STR	91	48	1
SI_	91	48	1	96	48	6
STR	91	144	3
SCL	91	144	3	96	288	4
BRK	91	240	4
TAP	91	336	3
TAP	92	0	3
TAP	92	48	2
TAP	92	96	2
TAP	92	144	2
TAP	92	192	2
TAP	92	216	3
TAP	92	240	1
TAP	92	288	0
TAP	92	336	0
TAP	93	0	6
TAP	93	24	7
TAP	93	48	6
TAP	93	96	4
TAP	93	96	5
TAP	93	144	3
TAP	93	144	4
TAP	93	192	2
TAP	93	192	3
TAP	93	240	1
TAP	93	256	2
TAP	93	272	3
TAP	93	288	4
TAP	93	336	6
TAP	93	352	5
TAP	93	368	4
TAP	94	0	3
TAP	94	48	0
HLD	94	48	6	48
TAP	94	64	1
TAP	94	80	2
TAP	94	96	3
HLD	94	144	1	48
TAP	94	144	7
TAP	94	160	6
TAP	94	176	5
TAP	94	192	4
TAP	94	240	0
TAP	94	264	5
TAP	94	288	0
TAP	94	312	6
STR	94	336	0
SSR	94	336	0	96	480	4
TAP	94	352	7
TAP	94	368	0
TAP	95	0	7
TAP	95	16	0
TAP	95	32	7
BST	95	48	0
SSL	95	48	0	96	384	4
TAP	98	192	0
TAP	98	192	4
TAP	98	204	1
TAP	98	204	5
TAP	98	216	2
TAP	98	216	6
TAP	98	228	3
TAP	98	228	7
HLD	98	240	0	336
BRK	98	240	4
TAP	98	252	5
TAP	98	264	6
TAP	98	276	7
TAP	98	300	1
TAP	98	312	2
TAP	98	324	3
TAP	98	336	4
TAP	98	348	5
TAP	98	360	6
TAP	98	372	7
TAP	99	12	1
TAP	99	24	2
TAP	99	36	3
TAP	99	48	4
TAP	99	60	5
TAP	99	72	6
TAP	99	84	7
TAP	99	108	1
TAP	99	120	2
TAP	99	132	3
TAP	99	144	4
TAP	99	156	5
TAP	99	168	6
TAP	99	180	7
TAP	99	204	1
TAP	99	216	2
TAP	99	228	3
TTP	99	240	0	C	1	M1
TAP	99	240	4
TAP	100	48	0
TAP	100	48	1
TAP	100	96	0
TAP	100	96	7
TAP	100	144	6
STR	100	144	7
SLR	100	144	7	96	96	4
STR	100	240	4
SLL	100	240	4	96	72	0
TAP	100	288	5
TAP	100	336	6
HLD	101	0	7	96
TAP	101	96	0
STR	101	144	0
SLL	101	144	0	96	96	3
STR	101	240	3
SLR	101	240	3	96	72	7
TAP	101	288	2
TAP	101	336	1
HLD	102	0	0	96
TAP	102	96	7
TAP	102	144	0
TAP	102	144	6
TAP	102	192	1
TAP	102	192	5
TAP	102	240	2
TAP	102	240	4
TAP	102	288	3
TAP	102	336	4
TAP	102	336	5
TAP	103	0	5
STR	103	0	6
SI_	103	0	6	96	48	2
TAP	103	96	6
TAP	103	96	7
TAP	103	144	0
STR	103	192	1
SI_	103	192	1	96	48	4
SI_	103	192	1	96	48	6
STR	103	288	1
SCL	103	288	1	96	96	2
TTP	104	0	0	C	1	M1
STR	104	144	7
SI_	104	144	7	96	48	3
TAP	104	240	0
TAP	104	240	7
STR	104	336	4
SCR	104	336	4	96	96	0
STR	105	48	0
SUL	105	48	0	96	96	2
TAP	105	48	4
TAP	105	96	1
TAP	105	144	2
HLD	105	192	3	144
TAP	105	288	1
STR	105	336	1
SCL	105	336	1	96	48	6
TAP	106	48	1
TAP	106	48	2
STR	106	144	0
SI_	106	144	0	96	48	4
TAP	106	240	0
TAP	106	240	7
STR	106	336	3
SCL	106	336	3	96	96	7
TAP	107	48	3
STR	107	48	7
SUR	107	48	7	96	96	5
TAP	107	96	6
TAP	107	144	5
HLD	107	192	4	144
TAP	107	288	6
STR	107	336	6
SCR	107	336	6	96	48	1
TAP	108	48	5
TAP	108	48	6
STR	108	144	7
SCL	108	144	7	96	96	1
BRK	108	240	1
TAP	109	48	0
TAP	109	48	6
TAP	109	96	4
TAP	109	96	6
TAP	109	144	2
TAP	109	144	4
TAP	109	192	0
STR	109	192	2
SI_	109	192	2	96	48	6
TAP	109	288	2
STR	109	288	3
SI_	109	288	3	96	48	0
STR	110	0	3
SCL	110	0	3	96	96	5
TAP	110	0	4
TAP	110	96	1
TAP	110	96	3
TAP	110	192	2
TAP	110	216	3
STR	110	240	4
SI_	110	240	4	96	48	7
TAP	110	336	3
TAP	110	360	2
STR	111	0	1
SI_	111	0	1	96	48	4
TAP	111	96	1
TAP	111	96	4
TAP	111	192	6
TAP	111	216	2
TAP	111	240	7
TAP	111	264	3
TAP	111	288	0
TAP	111	312	4
TAP	111	336	1
TAP	111	352	5
TAP	111	368	1
TAP	112	0	5
TAP	112	16	1
TAP	112	32	5
TAP	112	48	0
TAP	112	48	4
TAP	112	64	3
TAP	112	64	7
TAP	112	80	2
TAP	112	80	6
TAP	112	96	1
TAP	112	96	5
TAP	112	112	0
TAP	112	112	4
TAP	112	128	3
TAP	112	128	7
BST	112	144	2
SI_	112	144	2	96	24	6
TAP	112	144	6
TAP	112	156	1
TAP	112	168	0
TAP	112	180	7
TAP	112	192	6
TAP	112	204	5
TAP	112	216	4
TAP	112	228	3
BST	112	240	0
TTP	112	240	0	C	1	M1
SCR	112	240	0	96	1392	7
BST	112	240	2
SCR	112	240	2	96	1392	7

T_REC_TAP	658
T_REC_BRK	41
T_REC_XTP	6
T_REC_HLD	79
T_REC_XHO	0
T_REC_STR	97
T_REC_BST	16
T_REC_XST	0
T_REC_TTP	24
T_REC_THO	1
T_REC_SLD	116
T_REC_ALL	1038
T_NUM_TAP	785
T_NUM_BRK	57
T_NUM_HLD	80
T_NUM_SLD	116
T_NUM_ALL	1038
T_JUDGE_TAP	842
T_JUDGE_HLD	145
T_JUDGE_SLD	116
T_JUDGE_ALL	1103
TTM_EACHPAIRS	197
TTM_SCR_TAP	392500
TTM_SCR_BRK	148200
TTM_SCR_HLD	80000
TTM_SCR_SLD	174000
TTM_SCR_ALL	794700
TTM_SCR_S	765350
TTM_SCR_SS	789000
TTM_RAT_ACV	10072

