VERSION	0.00.00	1.03.00
FES_MODE	0
BPM_DEF	211.000	211.000	211.000	211.000
MET_DEF	4	4
RESOLUTION	384
CLK_DEF	384
COMPATIBLE_CODE	MA2

BPM	0	0	211.000
MET	0	0	4	4
MET	46	0	4	3
MET	53	192	4	4

TTP	2	0	0	C	0	M1
TTP	3	192	0	C	0	M1
STR	4	0	7
SCL	4	0	7	96	480	1
TTP	5	0	5	E	0	M1
TTP	5	192	4	E	0	M1
STR	6	0	7
SCL	6	0	7	96	480	1
TTP	7	0	5	E	0	M1
TTP	7	192	4	E	0	M1
STR	8	0	7
SCL	8	0	7	96	480	1
TTP	9	0	5	E	0	M1
TTP	9	192	4	E	0	M1
HLD	10	0	7	384
STR	11	0	0
SCR	11	0	0	96	96	4
HLD	11	192	5	192
TAP	12	0	4
TAP	12	48	4
TAP	12	144	3
HLD	12	192	2	96
TAP	12	192	4
TAP	12	288	3
TAP	12	336	3
TAP	13	48	1
TAP	13	48	4
TAP	13	144	2
TAP	13	144	5
TAP	13	240	3
TAP	13	240	6
TAP	13	288	3
HLD	13	288	6	96
TAP	14	0	4
TAP	14	48	4
TAP	14	144	0
TAP	14	192	1
TAP	14	192	7
TAP	14	264	2
TAP	14	264	6
TAP	14	336	3
STR	14	336	5
SUL	14	336	5	96	240	3
TAP	15	48	2
HLD	15	96	2	288
XTP	16	0	3
XTP	16	48	3
TAP	16	144	4
TAP	16	192	3
HLD	16	192	5	96
TAP	16	288	4
TAP	16	336	4
TAP	17	48	3
TAP	17	48	6
TAP	17	144	2
TAP	17	144	5
TAP	17	240	1
TAP	17	240	4
HLD	17	288	1	96
TAP	17	288	4
TAP	18	0	3
TAP	18	48	3
TAP	18	144	7
TAP	18	192	0
TAP	18	192	6
TAP	18	264	1
TAP	18	264	5
TAP	18	336	2
TAP	18	336	4
TAP	19	48	4
TAP	19	48	5
TAP	19	96	4
TAP	19	96	5
TAP	19	192	6
TAP	19	192	7
STR	19	288	0
SI_	19	288	0	96	48	5
STR	19	288	1
SI_	19	288	1	96	48	4
TTP	20	144	2	E	0	M1
TTP	20	144	3	E	0	M1
TTP	20	288	5	E	0	M1
TTP	20	288	6	E	0	M1
TAP	21	0	1
TAP	21	48	1
TAP	21	96	7
TAP	21	144	7
STR	21	192	0
SI_	21	192	0	96	48	4
XTP	21	288	5
HLD	22	0	6	96
TAP	22	96	4
TAP	22	144	4
TAP	22	240	3
TAP	22	240	4
TAP	22	336	1
TAP	22	336	3
TAP	23	48	0
TAP	23	96	0
HLD	23	144	7	96
TTP	23	240	1	E	0	M1
TTP	23	264	0	E	0	M1
TTP	23	288	7	E	0	M1
TTP	23	312	6	E	0	M1
TTP	23	336	5	E	0	M1
TTP	23	360	4	E	0	M1
TTP	24	0	3	E	0	M1
TAP	24	96	0
TAP	24	96	6
TAP	24	144	0
TAP	24	144	6
TAP	24	240	7
TAP	24	288	7
HLD	24	336	1	96
TAP	25	48	3
STR	25	96	2
SI_	25	96	2	96	48	5
TAP	25	96	4
STR	25	192	6
SI_	25	192	6	96	48	3
TAP	25	288	2
HLD	26	0	1	96
TAP	26	96	3
TAP	26	144	3
TAP	26	240	2
TAP	26	240	4
TAP	26	288	2
TAP	26	288	4
TAP	27	0	3
TAP	27	48	3
TAP	27	96	7
STR	27	144	7
SCL	27	144	7	96	96	3
TAP	27	240	2
TAP	27	288	1
TAP	27	336	0
XTP	28	0	0
XTP	28	72	1
XTP	28	72	3
XTP	28	144	3
XTP	28	144	4
XTP	28	216	4
XTP	28	216	6
XTP	28	288	7
XTP	28	336	7
XTP	29	0	0
TAP	29	96	1
TAP	29	96	6
TAP	29	192	3
TAP	29	216	4
TAP	29	240	3
TAP	29	264	4
XTP	29	288	2
XTP	29	288	5
HLD	30	0	1	96
TAP	30	96	3
TAP	30	144	3
TAP	30	240	3
TAP	30	240	4
TAP	30	288	2
TAP	30	288	5
HLD	30	336	1	96
HLD	30	336	6	96
TAP	31	96	0
HLD	31	144	0	96
TTP	31	240	7	E	0	M1
TTP	31	264	0	E	0	M1
TTP	31	288	1	E	0	M1
TTP	31	312	2	E	0	M1
TTP	31	336	3	E	0	M1
TTP	31	360	4	E	0	M1
TTP	32	0	5	E	0	M1
TAP	32	96	1
TAP	32	96	7
TAP	32	144	1
TAP	32	144	7
TAP	32	240	0
TAP	32	288	0
HLD	32	336	6	96
TAP	33	48	4
TAP	33	96	3
STR	33	96	5
SI_	33	96	5	96	48	2
STR	33	192	1
SI_	33	192	1	96	48	4
HLD	33	288	6	240
BRK	34	144	4
TAP	34	240	3
TAP	34	240	4
TAP	34	288	3
TAP	34	288	4
TAP	35	0	6
TAP	35	48	6
TAP	35	96	0
STR	35	144	0
SCR	35	144	0	96	96	4
TAP	35	240	5
TAP	35	288	6
TAP	35	336	7
STR	36	0	7
SI_	36	0	7	96	48	3
TAP	36	72	2
TAP	36	144	0
STR	36	192	0
SI_	36	192	0	96	48	4
TAP	36	264	5
HLD	36	336	7	96
TAP	37	48	0
TAP	37	96	0
BRK	37	192	2
BRK	37	192	5
BRK	37	240	2
BRK	37	240	5
HLD	38	0	1	720
TAP	38	0	6
TAP	38	192	3
TAP	38	240	3
TAP	38	336	5
TAP	39	48	2
TAP	39	144	6
TAP	39	240	0
TAP	39	336	7
HLD	40	0	7	192
HLD	40	192	5	192
HLD	41	0	4	96
TAP	41	96	2
TAP	41	192	1
TAP	41	192	5
TAP	42	0	2
HLD	42	0	6	720
TAP	42	192	4
TAP	42	240	4
TAP	42	336	2
TAP	43	48	5
TAP	43	144	1
TAP	43	240	7
TAP	43	336	0
HLD	44	0	0	192
HLD	44	192	2	192
HLD	45	0	3	96
TAP	45	96	4
TAP	45	192	2
HLD	45	192	5	96
STR	45	288	3
SCL	45	288	3	96	1152	4
TTP	46	0	0	C	1	M1
STR	49	288	3
SI_	49	288	3	96	48	7
STR	49	288	4
SI_	49	288	4	96	48	0
XTP	50	240	3
XTP	50	240	6
TAP	50	288	3
TAP	50	288	6
TAP	50	336	3
TAP	50	336	6
TAP	51	0	3
TAP	51	0	6
XTP	51	96	2
XTP	51	96	5
TAP	51	144	2
TAP	51	144	5
TAP	51	192	2
TAP	51	192	5
TAP	51	240	2
TAP	51	240	5
XTP	52	48	1
XTP	52	48	4
TAP	52	96	1
TAP	52	96	4
TAP	52	144	1
TAP	52	144	4
TAP	52	192	1
TAP	52	192	4
TAP	52	288	3
TAP	52	288	5
TAP	52	360	2
TAP	52	360	6
HLD	53	48	1	96
HLD	53	48	7	96
XHO	53	192	0	768
TAP	53	288	3
TAP	54	96	3
TAP	54	288	3
XTP	55	0	5
XTP	55	96	1
XHO	55	192	7	480
TAP	55	288	4
TAP	56	96	4
TAP	56	288	4
TAP	57	0	3
TAP	57	72	2
TAP	57	72	4
TAP	57	144	1
TAP	57	144	5
TAP	57	192	0
TAP	57	240	0
TAP	57	288	7
TAP	57	336	7
TAP	58	0	1
TAP	58	48	1
TAP	58	96	3
TAP	58	144	3
TAP	58	192	4
TAP	58	240	4
TAP	58	288	6
TAP	58	336	6
TAP	59	0	2
TAP	59	48	2
HLD	59	96	5	96
TAP	59	192	4
TAP	59	264	6
TAP	59	264	7
TAP	59	336	0
TAP	59	336	1
TAP	60	24	2
TAP	60	24	3
TAP	60	96	3
TAP	60	96	4
HLD	60	144	2	432
HLD	60	144	5	432
TTP	61	288	2	E	0	M1
TTP	61	288	6	E	0	M1
STR	62	0	3
SI_	62	0	3	96	48	1
STR	62	0	4
SI_	62	0	4	96	48	6
XTP	62	192	0
XTP	62	192	7
XTP	62	240	0
XTP	62	240	7
XTP	62	288	1
XHO	62	288	6	192
TTP	63	0	4	E	0	M1
TTP	63	24	5	E	0	M1
TTP	63	48	6	E	0	M1
TTP	63	72	7	E	0	M1
TTP	63	96	0	E	0	M1
TAP	63	192	2
TAP	63	192	4
TAP	63	240	2
TAP	63	240	4
XHO	63	288	1	192
XTP	63	288	5
TTP	64	0	4	E	0	M1
TTP	64	24	3	E	0	M1
TTP	64	48	2	E	0	M1
TTP	64	72	1	E	0	M1
TTP	64	96	0	E	0	M1
TAP	64	192	5
TAP	64	240	5
TAP	64	288	3
TAP	64	336	3
TAP	65	0	7
TAP	65	48	7
STR	65	96	1
SI_	65	96	1	96	48	4
STR	65	192	6
SI_	65	192	6	96	48	3
STR	65	288	0
SI_	65	288	0	96	48	4
HLD	66	0	7	96
TAP	66	96	1
TAP	66	192	6
TAP	66	240	6
TAP	66	288	3
TAP	66	288	5
TAP	66	336	2
TAP	67	0	2
TAP	67	48	3
TAP	67	48	4
TAP	67	96	5
TAP	67	144	5
TAP	67	192	2
TAP	67	192	4
TAP	67	240	1
TAP	67	288	1
TAP	67	336	2
TAP	67	336	4
TAP	68	0	5
TAP	68	48	5
TAP	68	96	3
TAP	68	96	4
TAP	68	144	3
TAP	68	144	4
TAP	68	192	2
HLD	68	240	2	48
TAP	68	288	0
HLD	68	336	0	48
TAP	69	0	7
HLD	69	48	7	48
TAP	69	96	5
HLD	69	144	5	48
STR	69	192	3
SI_	69	192	3	96	48	7
BRK	70	0	0
BRK	70	0	6
BRK	70	96	1
BRK	70	96	5
TAP	70	192	3
TAP	70	192	4
TAP	70	240	2
TAP	70	240	5
XHO	70	288	1	192
XTP	70	288	6
TTP	71	0	4	E	0	M1
TTP	71	24	3	E	0	M1
TTP	71	48	2	E	0	M1
TTP	71	72	1	E	0	M1
TTP	71	96	0	E	0	M1
TAP	71	192	3
TAP	71	192	5
TAP	71	240	3
TAP	71	240	5
XTP	71	288	2
XHO	71	288	6	192
TTP	72	0	4	E	0	M1
TTP	72	24	5	E	0	M1
TTP	72	48	6	E	0	M1
TTP	72	72	7	E	0	M1
TTP	72	96	0	E	0	M1
TAP	72	192	2
TAP	72	240	2
TAP	72	288	4
TAP	72	336	4
TAP	73	0	0
TAP	73	48	0
STR	73	96	6
SI_	73	96	6	96	48	3
STR	73	192	1
SI_	73	192	1	96	48	4
STR	73	288	7
SI_	73	288	7	96	48	3
HLD	74	0	0	96
TAP	74	96	6
TAP	74	192	1
TAP	74	192	5
TAP	74	240	2
TAP	74	288	3
HLD	74	336	4	96
HLD	74	336	6	96
TAP	75	96	4
TAP	75	96	6
TAP	75	144	3
TAP	75	192	2
TAP	75	192	4
TAP	75	240	5
TAP	75	288	4
TAP	75	288	6
TAP	75	336	3
HLD	75	336	7	96
TAP	76	48	4
TAP	76	96	3
TAP	76	96	6
XTP	76	192	2
XTP	76	192	4
XTP	76	264	0
XTP	76	264	1
XTP	76	336	6
XTP	76	336	7
XTP	77	24	3
XTP	77	24	5
XTP	77	96	2
TAP	77	144	2
TAP	77	192	4
TAP	77	240	4
STR	77	288	1
SI_	77	288	1	96	48	5
TAP	77	336	1
TAP	78	0	6
TAP	78	96	4
TAP	78	96	7
HLD	78	192	6	72
HLD	78	264	5	72
HLD	78	336	4	72
HLD	79	24	3	72
TAP	79	96	2
STR	79	192	0
SCR	79	192	0	96	48	3
STR	79	192	1
SI_	79	192	1	96	48	4
XTP	80	48	3
XTP	80	48	5
XTP	80	96	3
XTP	80	96	5
TAP	80	192	2
HLD	80	240	2	96
TAP	80	288	4
TAP	80	336	4
HLD	81	0	5	144
TAP	81	48	3
TAP	81	96	3
HLD	81	144	2	144
TAP	81	192	7
TAP	81	240	7
HLD	81	288	6	96
TAP	81	336	0
TAP	82	0	0
TAP	82	48	1
TAP	82	96	2
TAP	82	96	4
TAP	82	192	3
TAP	82	192	5
XTP	82	288	1
XTP	82	288	7
XTP	82	336	2
XTP	82	336	6
XTP	83	0	3
XTP	83	0	5
TAP	83	96	2
TAP	83	96	6
TAP	83	192	0
TAP	83	216	7
TAP	83	240	0
TAP	83	264	7
STR	83	288	0
SI_	83	288	0	96	48	4
TAP	84	0	6
TAP	84	96	6
XTP	84	192	5
XTP	84	224	4
XTP	84	256	3
XTP	84	288	5
XTP	84	320	4
XTP	84	352	3
XTP	85	0	5
TAP	85	48	5
TAP	85	96	2
TAP	85	144	2
HLD	85	192	4	72
TAP	85	264	3
TAP	85	336	2
TAP	85	336	5
TAP	86	0	2
TAP	86	0	5
TAP	86	96	3
STR	86	96	6
SUL	86	96	6	96	48	1
BRK	86	288	0
TAP	87	0	1
TAP	87	48	1
TAP	87	96	2
TAP	87	96	3
TAP	87	144	2
TAP	87	144	3
TAP	87	240	4
TAP	87	240	5
STR	87	336	6
SCL	87	336	6	96	96	3
STR	87	336	7
SUL	87	336	7	96	96	2
TAP	88	192	1
TAP	88	240	1
TAP	88	288	7
TAP	88	336	7
TAP	89	48	4
TAP	89	48	5
TAP	89	144	3
TAP	89	144	6
TAP	89	240	3
TAP	89	240	6
TAP	89	312	2
TAP	89	312	5
STR	90	0	1
SCR	90	0	1	96	48	4
STR	90	0	4
SI_	90	0	4	96	48	7
TAP	90	192	0
TAP	90	240	0
TAP	90	288	1
TAP	90	288	7
TAP	90	336	1
TAP	90	336	7
TAP	91	0	2
TAP	91	0	6
TAP	91	48	2
TAP	91	48	6
TAP	91	96	3
TAP	91	96	5
TAP	91	192	7
TAP	91	240	7
TAP	91	288	0
TAP	91	288	6
TAP	91	336	0
TAP	91	336	6
TAP	92	0	1
TAP	92	0	5
TAP	92	48	1
TAP	92	48	5
STR	92	96	2
SCL	92	96	2	96	576	4
TAP	92	96	4
TTP	92	192	0	C	1	M1
HLD	94	192	2	48
HLD	94	192	4	48
HLD	94	288	3	48
HLD	94	288	5	48
HLD	95	0	2	48
HLD	95	0	4	48
HLD	95	96	4	48
HLD	95	96	6	48
XTP	95	192	3
XTP	95	216	2
XTP	95	240	1
XTP	95	264	0
XTP	95	288	7
XTP	95	312	6
XTP	95	336	5
XTP	95	360	4
XHO	96	0	3	576
STR	97	192	7
SI_	97	192	7	96	528	3
STR	99	0	0
SI_	99	0	0	96	48	4
TAP	99	192	5
TAP	99	240	5
TAP	99	288	4
STR	99	336	6
SI_	99	336	6	96	48	2
STR	100	48	0
SI_	100	48	0	96	48	3
STR	100	144	7
SI_	100	144	7	96	48	4
TAP	100	240	2
TAP	100	288	2
TAP	100	336	1
TAP	100	336	3
TAP	101	0	1
TAP	101	0	3
TAP	101	96	0
TAP	101	96	4
STR	101	192	5
SCL	101	192	5	96	48	2
TAP	101	288	0
STR	102	0	1
SCL	102	0	1	96	48	6
TAP	102	96	4
STR	102	192	5
SI_	102	192	5	96	48	0
STR	102	288	1
SI_	102	288	1	96	48	4
STR	103	0	6
SI_	103	0	6	96	48	3
STR	103	96	2
SI_	103	96	2	96	48	7
HLD	103	192	5	96
TAP	103	288	4
TAP	103	336	4
STR	104	48	6
SI_	104	48	6	96	48	3
STR	104	48	7
SI_	104	48	7	96	48	2
XST	104	240	1
SUR	104	240	1	96	240	2
XTP	104	240	4
TTP	104	336	0	C	1	M1
HLD	105	192	6	96
TAP	105	288	7
TAP	105	336	7
TAP	106	48	4
TAP	106	48	5
STR	106	144	2
SCL	106	144	2	96	48	7
TAP	106	240	4
TAP	106	288	4
HLD	106	336	5	240
TTP	107	48	4	E	0	M1
TTP	107	72	5	E	0	M1
TTP	107	96	6	E	0	M1
TTP	107	120	7	E	0	M1
TTP	107	144	0	E	0	M1
TTP	107	168	1	E	0	M1
TTP	107	192	2	E	0	M1
XTP	107	288	3
XTP	107	288	4
XTP	107	336	3
XTP	107	336	4
TAP	108	0	2
TAP	108	48	2
TAP	108	96	5
HLD	108	144	5	96
TAP	108	240	7
HLD	108	288	7	96
HLD	109	0	0	96
TAP	109	96	2
STR	109	192	4
SCR	109	192	4	96	48	7
TAP	110	0	2
TAP	110	48	2
TAP	110	96	7
STR	110	144	7
SI_	110	144	7	96	48	3
STR	110	240	1
SI_	110	240	1	96	48	4
STR	110	336	6
SI_	110	336	6	96	48	2
TAP	111	144	0
TAP	111	168	7
TAP	111	192	0
TAP	111	240	5
TAP	111	264	4
TAP	111	288	5
TAP	111	312	4
TAP	111	336	5
TAP	112	48	2
TAP	112	48	3
TAP	112	144	1
TAP	112	144	4
TAP	112	240	3
TAP	112	240	6
XTP	112	336	7
XTP	112	360	6
XTP	113	0	5
XTP	113	24	4
XTP	113	48	3
XTP	113	72	2
XST	113	96	1
SCR	113	96	1	96	1536	0
XTP	113	120	0
XTP	113	144	7
TTP	113	192	0	C	1	M1

T_REC_TAP	387
T_REC_BRK	10
T_REC_XTP	78
T_REC_HLD	64
T_REC_XHO	7
T_REC_STR	56
T_REC_BST	0
T_REC_XST	2
T_REC_TTP	59
T_REC_THO	0
T_REC_SLD	58
T_REC_ALL	721
T_NUM_TAP	582
T_NUM_BRK	10
T_NUM_HLD	71
T_NUM_SLD	58
T_NUM_ALL	721
T_JUDGE_TAP	592
T_JUDGE_HLD	238
T_JUDGE_SLD	58
T_JUDGE_ALL	888
TTM_EACHPAIRS	148
TTM_SCR_TAP	291000
TTM_SCR_BRK	26000
TTM_SCR_HLD	71000
TTM_SCR_SLD	87000
TTM_SCR_ALL	475000
TTM_SCR_S	459800
TTM_SCR_SS	474000
TTM_RAT_ACV	10021

