VERSION	0.00.00	1.03.00
FES_MODE	0
BPM_DEF	211.000	211.000	211.000	211.000
MET_DEF	4	4
RESOLUTION	384
CLK_DEF	384
COMPATIBLE_CODE	MA2

BPM	0	0	211.000
MET	0	0	4	4
MET	46	0	4	3
MET	53	192	4	4

TAP	2	0	3
TAP	2	0	4
TAP	3	192	3
TAP	3	192	4
HLD	4	0	5	192
TAP	4	192	4
TAP	5	0	2
TAP	5	96	2
TAP	5	192	2
TAP	5	192	3
HLD	6	0	2	192
TAP	6	192	3
TAP	7	0	5
TAP	7	96	5
TAP	7	192	4
TAP	7	192	5
HLD	8	0	5	192
TAP	8	192	4
TAP	9	0	2
TAP	9	96	2
TAP	9	192	2
TAP	9	192	3
HLD	10	0	1	192
HLD	10	0	4	192
TTP	11	0	0	C	1	L1
TAP	12	0	6
TAP	12	96	6
TAP	12	96	7
TAP	12	192	6
TAP	12	240	6
TAP	12	288	6
TAP	13	0	5
TAP	13	96	4
TAP	13	96	5
TAP	13	192	3
TAP	13	240	3
TAP	13	288	3
TAP	14	0	2
TAP	14	96	2
TAP	14	96	3
TAP	14	192	1
TAP	14	240	1
TAP	14	288	1
TAP	15	0	0
TAP	15	96	0
TAP	15	96	7
TAP	15	192	1
TAP	15	192	6
TAP	16	0	5
TAP	16	96	4
TAP	16	96	5
TAP	16	192	5
TAP	16	240	5
TAP	16	288	5
TAP	17	0	6
TAP	17	96	6
TAP	17	96	7
TAP	17	192	0
TAP	17	240	0
TAP	17	288	0
TAP	18	0	1
TAP	18	96	0
TAP	18	96	1
TAP	18	192	7
TAP	18	240	7
TAP	18	288	7
TAP	19	0	0
TAP	19	0	7
TAP	19	96	1
TAP	19	96	6
TAP	19	192	2
TAP	19	192	5
STR	19	288	3
SSR	19	288	3	96	336	7
TAP	19	288	4
TAP	21	192	6
TAP	21	288	6
TAP	22	0	4
TAP	22	0	5
TAP	22	96	4
TAP	22	96	5
TAP	22	192	3
TAP	22	192	6
XHO	23	0	2	96
TAP	23	96	3
TAP	23	192	1
TAP	23	192	4
TAP	24	0	5
TAP	24	96	5
TAP	24	192	4
TAP	24	288	4
TAP	25	0	3
TAP	25	96	3
TAP	25	192	2
TAP	25	192	4
HLD	26	0	1	96
TAP	26	96	0
TAP	26	192	2
TAP	26	192	7
TAP	27	0	6
TAP	27	96	6
TAP	27	192	0
TAP	27	288	0
XTP	28	0	6
XTP	28	0	7
XTP	28	144	0
XTP	28	144	1
TAP	28	288	0
TAP	28	288	7
STR	29	0	0
SCR	29	0	0	96	192	3
TAP	29	0	7
XHO	30	0	5	96
TAP	30	96	4
TAP	30	192	3
TAP	30	192	6
HLD	31	0	2	96
TAP	31	96	3
TAP	31	192	1
TAP	31	192	4
TAP	32	0	5
TAP	32	96	5
TAP	32	192	4
TAP	32	288	4
TAP	33	0	3
TAP	33	96	2
TAP	33	192	1
BRK	33	288	0
BRK	33	288	7
XTP	34	144	2
XTP	34	144	5
TAP	34	240	2
TAP	34	240	5
TAP	34	336	4
TAP	35	48	3
STR	35	144	2
SCL	35	144	2	96	240	5
TAP	36	288	4
TAP	37	0	3
TAP	37	96	3
TAP	37	96	4
XTP	37	192	2
XTP	37	192	5
XTP	37	240	2
XTP	37	240	5
TTP	38	0	4	E	0	L1
TTP	39	0	5	E	0	L1
TTP	40	0	6	E	0	L1
TTP	41	0	7	E	0	L1
TTP	42	0	0	E	0	L1
TTP	43	0	1	E	0	L1
TTP	44	0	2	E	0	L1
TTP	45	0	3	E	0	L1
THO	46	0	0	1152	C	0	L1
XTP	49	288	0
XTP	49	288	7
XTP	50	240	4
XTP	50	240	6
XTP	51	96	3
XTP	51	96	4
XTP	52	48	1
XTP	52	48	3
XTP	52	288	0
XTP	52	288	7
HLD	53	192	6	192
HLD	54	0	7	192
HLD	54	192	0	192
TAP	55	0	1
HLD	55	192	2	192
HLD	56	0	3	192
HLD	56	192	4	192
TAP	57	0	5
TAP	57	192	6
TAP	57	288	7
TAP	58	0	0
TAP	58	96	1
TAP	58	192	2
TAP	58	288	3
TAP	59	0	2
TAP	59	0	4
TAP	59	192	3
TAP	59	264	3
TAP	59	336	3
TAP	60	24	4
TAP	60	96	4
XTP	60	144	3
XTP	60	144	4
TTP	61	192	0	C	1	L1
HLD	62	192	6	96
TAP	62	288	7
TAP	63	0	5
TAP	63	48	5
TAP	63	96	4
TAP	63	96	5
HLD	63	192	2	96
TAP	63	288	3
TAP	64	0	1
TAP	64	48	1
TAP	64	96	0
TAP	64	96	1
TAP	64	192	6
TAP	64	288	6
TAP	64	288	7
TAP	65	0	5
TAP	65	96	4
TAP	65	96	5
TAP	65	192	2
TAP	65	240	2
TAP	65	288	2
TAP	65	288	3
TAP	66	0	1
TAP	66	48	1
TAP	66	96	0
TAP	66	96	7
TAP	66	192	6
TAP	66	288	5
TAP	67	0	4
TAP	67	0	6
TAP	67	96	3
TAP	67	96	5
TAP	67	192	2
TAP	67	288	2
TAP	68	0	1
TAP	68	0	3
TAP	68	96	2
TAP	68	96	4
TAP	68	192	5
TAP	68	240	5
TAP	68	288	5
TAP	69	0	2
TAP	69	48	2
TAP	69	96	2
STR	69	192	3
SCL	69	192	3	96	144	0
STR	69	192	4
SCR	69	192	4	96	144	7
TAP	70	192	1
TAP	70	192	6
TAP	70	288	4
TAP	70	288	5
TAP	70	336	4
TAP	70	336	5
TAP	71	0	4
TAP	71	0	5
TAP	71	96	3
TAP	71	96	6
TAP	71	192	2
TAP	71	288	2
TAP	71	288	3
TAP	71	336	2
TAP	71	336	3
TAP	72	0	2
TAP	72	0	3
TAP	72	96	1
TAP	72	96	4
TAP	72	192	0
TAP	72	288	7
TAP	73	0	6
TAP	73	96	4
TAP	73	96	5
TAP	73	144	4
TAP	73	144	5
TAP	73	240	2
TAP	73	240	3
TAP	73	288	2
TAP	73	288	3
TAP	74	0	1
TAP	74	0	4
TAP	74	96	0
XST	74	192	6
SI_	74	192	6	96	144	2
XST	74	192	7
SI_	74	192	7	96	144	3
XST	75	192	0
SI_	75	192	0	96	144	4
XST	75	192	1
SI_	75	192	1	96	144	5
XHO	76	192	6	144
XHO	76	336	5	144
XST	77	96	4
SSL	77	96	4	96	240	0
TAP	78	192	0
TAP	78	192	1
TAP	78	288	2
TAP	78	288	7
TAP	79	0	3
TAP	79	0	6
TAP	79	192	6
TAP	79	192	7
TAP	79	288	0
TAP	79	288	5
TAP	80	0	1
TAP	80	0	4
TAP	80	192	0
TAP	80	192	1
TAP	80	288	0
TAP	80	288	1
TAP	81	0	2
TAP	81	0	3
TAP	81	96	2
TAP	81	96	3
TAP	81	192	4
TAP	81	192	5
TAP	81	288	4
TAP	81	288	5
TAP	82	0	6
TAP	82	0	7
TAP	82	96	6
TAP	82	96	7
STR	82	192	0
SI_	82	192	0	96	144	5
STR	82	192	1
SI_	82	192	1	96	144	4
STR	83	192	6
SI_	83	192	6	96	144	3
STR	83	192	7
SI_	83	192	7	96	144	2
HLD	84	192	1	96
HLD	84	192	4	96
HLD	85	0	3	96
HLD	85	0	6	96
TAP	85	192	0
TAP	85	192	7
TAP	85	288	0
TAP	85	288	7
TAP	86	0	1
TAP	86	0	6
STR	86	96	1
SI_	86	96	1	96	96	3
STR	86	96	6
SI_	86	96	6	96	96	4
TAP	87	0	5
TAP	87	96	4
TAP	87	96	5
TAP	87	192	2
TAP	87	288	2
TAP	87	288	3
TAP	88	0	1
TAP	88	0	4
TAP	88	192	1
TAP	88	288	0
TAP	88	288	1
TAP	89	0	6
TAP	89	96	6
TAP	89	96	7
XST	89	192	5
SLR	89	192	5	96	192	1
TAP	90	192	2
TAP	90	288	2
TAP	90	288	3
TAP	91	0	5
TAP	91	96	4
TAP	91	96	5
TAP	91	192	6
TAP	91	288	6
TAP	91	288	7
TAP	92	0	1
TAP	92	96	0
TAP	92	96	1
STR	92	192	2
SXR	92	192	2	96	432	5
TAP	94	192	6
TAP	94	288	5
TAP	95	0	4
TAP	95	96	3
TAP	95	192	2
TAP	95	192	5
TAP	95	240	2
TAP	95	240	5
TAP	95	288	2
TAP	95	288	5
STR	96	0	4
SSL	96	0	4	96	480	0
SSR	96	0	4	96	480	0
BST	99	192	0
SCR	99	192	0	96	288	6
BRK	99	192	7
TAP	100	192	7
TAP	100	288	7
TAP	101	0	0
TAP	101	0	1
TAP	101	96	2
TAP	101	192	3
TAP	101	192	4
TAP	101	240	3
TAP	101	240	4
TAP	101	288	3
TAP	101	288	4
TAP	102	0	2
TAP	102	0	5
TAP	102	96	4
TAP	102	96	6
TAP	102	192	0
TAP	102	192	7
TAP	102	240	0
TAP	102	240	7
TAP	102	288	0
TAP	102	288	7
TAP	103	0	1
TAP	103	0	3
TAP	103	96	2
TAP	103	96	4
XST	103	192	3
SI_	103	192	3	96	144	0
XST	103	192	5
SI_	103	192	5	96	144	0
TAP	104	192	1
TAP	104	192	7
TAP	104	240	1
TAP	104	240	7
TAP	104	288	1
TAP	104	288	7
TAP	105	0	2
TAP	105	0	6
TAP	105	96	3
TAP	105	96	5
STR	105	192	4
SCR	105	192	4	96	144	7
TAP	106	0	0
STR	106	192	0
SCR	106	192	0	96	144	3
TAP	107	0	4
TAP	107	192	5
TAP	107	288	4
TAP	107	288	5
TAP	108	0	2
TAP	108	96	2
TAP	108	96	3
TAP	108	192	4
TAP	108	288	3
TAP	108	288	4
TAP	109	0	2
TAP	109	0	5
TAP	109	96	1
TAP	109	96	6
BRK	109	192	0
BRK	109	192	7
TAP	110	0	1
TAP	110	48	1
TAP	110	96	0
TAP	110	96	1
TAP	110	192	6
TAP	110	192	7
TAP	110	288	4
TAP	110	288	5
TAP	111	0	3
TAP	111	0	6
TAP	111	48	3
TAP	111	48	6
TAP	111	192	4
TAP	111	192	6
TAP	111	240	4
TAP	111	240	6
TAP	111	288	4
TAP	111	288	6
TAP	112	0	1
TAP	112	0	3
TAP	112	48	1
TAP	112	48	3
TAP	112	96	1
TAP	112	96	3
TAP	112	192	0
TAP	112	240	1
TAP	112	288	2
TAP	112	336	3
TAP	113	0	4
TAP	113	48	5
TAP	113	96	6
TAP	113	144	7
BST	113	192	0
SCR	113	192	0	96	1056	7

T_REC_TAP	359
T_REC_BRK	5
T_REC_XTP	22
T_REC_HLD	19
T_REC_XHO	4
T_REC_STR	15
T_REC_BST	2
T_REC_XST	8
T_REC_TTP	10
T_REC_THO	1
T_REC_SLD	26
T_REC_ALL	471
T_NUM_TAP	414
T_NUM_BRK	7
T_NUM_HLD	24
T_NUM_SLD	26
T_NUM_ALL	471
T_JUDGE_TAP	421
T_JUDGE_HLD	94
T_JUDGE_SLD	26
T_JUDGE_ALL	541
TTM_EACHPAIRS	139
TTM_SCR_TAP	207000
TTM_SCR_BRK	18200
TTM_SCR_HLD	24000
TTM_SCR_SLD	39000
TTM_SCR_ALL	288200
TTM_SCR_S	278900
TTM_SCR_SS	287500
TTM_RAT_ACV	10024

