VERSION	0.00.00	1.03.00
FES_MODE	0
BPM_DEF	211.000	211.000	211.000	211.000
MET_DEF	4	4
RESOLUTION	384
CLK_DEF	384
COMPATIBLE_CODE	MA2

BPM	0	0	211.000
MET	0	0	4	4
MET	46	0	4	3
MET	53	192	4	4

HLD	4	0	0	384
TAP	6	0	0
TAP	7	0	0
HLD	8	0	7	384
TAP	10	0	7
XTP	11	0	0
XTP	11	0	7
TAP	12	0	0
TAP	12	192	0
TAP	13	0	1
TAP	14	0	2
TAP	14	192	2
TAP	15	0	3
TAP	16	0	4
TAP	16	192	4
TAP	17	0	5
TAP	18	0	6
TAP	18	192	6
TAP	19	0	0
TAP	19	0	7
HLD	20	0	0	384
HLD	20	0	7	384
TAP	22	0	7
TAP	22	192	7
TAP	23	0	6
TAP	23	192	6
TAP	24	0	5
TAP	25	0	4
TAP	25	0	5
TAP	26	0	3
TAP	26	192	3
TAP	27	0	2
TAP	27	192	2
TAP	28	0	1
TAP	29	0	0
TAP	29	0	1
TAP	30	0	0
TAP	30	192	0
TAP	31	0	1
TAP	31	192	1
TAP	32	0	2
TAP	32	192	2
TAP	33	0	3
TAP	33	0	4
STR	33	192	3
SI_	33	192	3	96	288	0
STR	33	192	4
SI_	33	192	4	96	288	7
HLD	36	0	0	384
HLD	36	0	7	384
XTP	37	192	0
XTP	37	192	7
STR	38	0	0
SI_	38	0	0	96	288	3
TAP	40	0	4
TAP	41	0	5
STR	42	0	6
SI_	42	0	6	96	288	2
TAP	44	0	1
TAP	45	0	0
TAP	45	0	7
THO	46	0	0	864	C	0	L1
XTP	49	288	0
XTP	49	288	7
XHO	50	240	6	240
XHO	52	48	5	240
BRK	53	192	3
BRK	53	192	4
TTP	54	192	2	B	0	L1
TTP	54	192	3	B	0	L1
TTP	55	192	0	B	0	L1
TTP	55	192	1	B	0	L1
TTP	56	192	6	B	0	L1
TTP	56	192	7	B	0	L1
TTP	57	192	4	B	0	L1
TTP	57	192	5	B	0	L1
TTP	58	192	2	B	0	L1
TTP	58	192	3	B	0	L1
THO	59	192	0	336	C	0	L1
BRK	62	192	0
TAP	62	288	0
TAP	63	0	0
TAP	63	192	1
TAP	63	288	1
TAP	64	0	1
TAP	64	192	2
TAP	64	288	2
TAP	65	0	2
TAP	65	192	3
TAP	65	192	4
TAP	66	0	3
TAP	66	0	4
TAP	66	192	5
TAP	66	288	5
TAP	67	0	5
TAP	67	192	6
TAP	67	288	6
TAP	68	0	6
TAP	68	192	7
TAP	68	288	7
TAP	69	0	7
TAP	69	192	0
TAP	69	192	7
XTP	70	0	0
XTP	70	0	7
TAP	70	192	7
TAP	70	288	7
TAP	71	0	7
TAP	71	192	6
TAP	71	288	6
TAP	72	0	6
TAP	72	192	5
TAP	72	288	5
TAP	73	0	5
TAP	73	192	3
TAP	73	192	4
TAP	74	0	3
TAP	74	0	4
TAP	74	192	3
TAP	74	288	3
TAP	75	0	3
TAP	75	192	2
TAP	75	288	2
TAP	76	0	2
TAP	76	192	1
TAP	76	288	1
TAP	77	0	1
XTP	77	192	0
XTP	77	192	7
TAP	78	192	0
TAP	78	288	0
TAP	79	0	1
TAP	79	96	1
TAP	79	192	0
TAP	79	192	1
TAP	80	0	0
TAP	80	0	1
TAP	80	192	2
TAP	80	288	2
TAP	81	0	3
TAP	81	96	3
TAP	81	192	3
TAP	81	192	4
TAP	82	0	3
TAP	82	0	4
TAP	82	192	4
TAP	82	288	4
TAP	83	0	5
TAP	83	96	5
TAP	83	192	4
TAP	83	192	5
TAP	84	0	4
TAP	84	0	5
TAP	84	192	6
TAP	84	288	6
TAP	85	0	7
TAP	85	96	7
TAP	85	192	0
TAP	85	192	7
TAP	86	0	1
TAP	86	0	6
TAP	86	192	7
TAP	86	288	7
TAP	87	0	6
TAP	87	96	6
TAP	87	192	5
TAP	87	288	5
TAP	88	0	4
TAP	88	0	5
TAP	88	192	3
TAP	88	288	3
TAP	89	0	2
TAP	89	96	2
TAP	89	192	1
TAP	89	288	1
TAP	90	0	0
TAP	90	0	1
TAP	90	192	7
TAP	90	288	7
TAP	91	0	6
TAP	91	0	7
TAP	91	192	0
TAP	91	288	0
TAP	92	0	0
TAP	92	0	1
STR	92	192	7
SI_	92	192	7	96	288	4
STR	94	192	3
SI_	94	192	3	96	288	0
HLD	97	192	0	384
HLD	97	192	7	384
BRK	99	192	0
TAP	99	288	0
TAP	100	0	1
TAP	100	96	1
TAP	100	192	2
TAP	100	288	2
TAP	101	0	3
TAP	101	96	3
TAP	101	192	4
TAP	101	288	4
TAP	102	0	5
TAP	102	96	5
TAP	102	192	6
TAP	102	288	6
TAP	103	0	7
TAP	103	96	7
TAP	103	192	0
TAP	103	288	0
TAP	104	0	0
TAP	104	0	1
TAP	104	192	7
TAP	104	288	7
TAP	105	0	6
TAP	105	0	7
HLD	105	192	6	192
HLD	105	192	7	192
TAP	106	192	6
TAP	106	192	7
TAP	107	0	0
HLD	107	192	0	192
HLD	107	192	1	192
TAP	108	192	0
TAP	108	192	1
TAP	109	0	0
TAP	109	0	1
TAP	109	192	7
TAP	109	288	7
TAP	110	0	6
TAP	110	96	6
TAP	110	192	5
TAP	110	288	5
TAP	111	0	4
TAP	111	96	4
TAP	111	192	3
TAP	111	192	4
TAP	111	288	3
TAP	111	288	4
TAP	112	0	2
TAP	112	0	5
TAP	112	96	2
TAP	112	96	5
TAP	112	192	1
TAP	112	192	6
TAP	112	288	1
TAP	112	288	6
TAP	113	0	0
TAP	113	0	7
TAP	113	96	0
TAP	113	96	7
BRK	113	192	1
BRK	113	192	6

T_REC_TAP	198
T_REC_BRK	6
T_REC_XTP	10
T_REC_HLD	12
T_REC_XHO	2
T_REC_STR	6
T_REC_BST	0
T_REC_XST	0
T_REC_TTP	10
T_REC_THO	2
T_REC_SLD	6
T_REC_ALL	252
T_NUM_TAP	224
T_NUM_BRK	6
T_NUM_HLD	16
T_NUM_SLD	6
T_NUM_ALL	252
T_JUDGE_TAP	230
T_JUDGE_HLD	115
T_JUDGE_SLD	6
T_JUDGE_ALL	351
TTM_EACHPAIRS	48
TTM_SCR_TAP	112000
TTM_SCR_BRK	15600
TTM_SCR_HLD	16000
TTM_SCR_SLD	9000
TTM_SCR_ALL	152600
TTM_SCR_S	147450
TTM_SCR_SS	152000
TTM_RAT_ACV	10039

