VERSION	0.00.00	1.03.00
FES_MODE	0
BPM_DEF	222.000	222.000	222.000	222.000
MET_DEF	4	4
RESOLUTION	384
CLK_DEF	384
COMPATIBLE_CODE	MA2

BPM	0	0	222.000
MET	0	0	4	4

HLD	2	0	3	96
HLD	2	192	3	96
HLD	3	0	3	96
TAP	3	0	4
HLD	3	192	3	96
TAP	3	192	4
HLD	4	0	3	96
TTP	4	0	4	B	0	M1
HLD	4	192	3	96
TTP	4	192	4	B	0	M1
XST	5	0	5
SI_	5	0	5	96	48	3
XST	5	96	1
SI_	5	96	1	96	48	4
BRK	5	192	7
XTP	5	288	6
XTP	5	320	5
XTP	5	352	4
XTP	6	0	0
XTP	6	96	1
XTP	6	128	2
XTP	6	160	3
XTP	6	192	7
XTP	6	288	5
XTP	6	320	4
XTP	6	352	3
XTP	7	0	0
TTP	7	96	2	E	0	M1
TTP	7	128	3	E	0	M1
TTP	7	160	4	E	0	M1
XTP	7	192	7
TTP	7	288	6	E	0	M1
TTP	7	320	5	E	0	M1
TTP	7	352	4	E	0	M1
XTP	8	0	0
TAP	8	96	6
TAP	8	128	5
TAP	8	160	4
TAP	8	192	2
TAP	8	224	1
TAP	8	256	0
TAP	8	288	6
TAP	8	320	5
TAP	8	352	4
XHO	9	0	3	384
TAP	9	0	7
TTP	10	0	0	C	1	M1
TAP	12	0	2
HLD	12	0	5	192
TAP	12	16	3
HLD	12	32	4	160
HLD	13	0	2	192
TAP	13	0	5
TAP	13	16	4
HLD	13	32	3	160
TTP	14	0	2	B	0	M1
HLD	14	0	5	192
TTP	14	16	3	B	0	M1
TTP	14	32	4	B	0	M1
HLD	15	0	2	192
TTP	15	0	5	B	0	M1
TTP	15	16	4	B	0	M1
TTP	15	32	3	B	0	M1
TTP	16	0	3	B	0	M1
HLD	16	0	6	288
TTP	16	16	4	B	0	M1
TTP	16	32	5	B	0	M1
TAP	16	288	4
STR	16	336	4
SI_	16	336	4	96	48	2
SI_	16	336	4	96	48	6
XTP	17	48	4
XTP	17	144	1
XTP	17	144	7
TAP	17	240	0
XST	17	288	1
SXR	17	288	1	96	240	4
XTP	17	288	7
BRK	18	0	5
TAP	18	96	5
TAP	18	192	5
STR	18	288	6
SCR	18	288	6	96	96	1
TAP	19	0	4
STR	19	96	2
SCR	19	96	2	96	96	5
TAP	19	192	0
TAP	19	288	7
HLD	20	0	6	96
TAP	20	96	4
TAP	20	144	4
HLD	20	192	5	96
TAP	20	288	1
HLD	21	0	2	96
TAP	21	0	4
TAP	21	96	3
TAP	21	128	2
TAP	21	160	4
STR	21	192	1
SCR	21	192	1	96	96	4
TAP	21	288	4
XTP	22	0	5
TAP	22	48	5
TAP	22	96	4
TAP	22	144	5
TAP	22	192	3
TAP	22	240	3
TAP	22	288	4
TAP	22	336	3
TAP	23	0	5
TAP	23	48	5
TAP	23	96	3
TAP	23	144	4
TAP	23	192	1
TAP	23	240	1
TAP	23	288	5
TAP	23	336	5
TAP	24	0	2
TAP	24	24	4
TAP	24	48	2
TAP	24	72	4
TAP	24	96	2
TAP	24	120	4
TAP	24	144	2
TAP	24	168	4
TAP	24	192	3
TAP	24	216	5
TAP	24	240	3
TAP	24	264	5
TAP	24	288	3
TAP	24	312	5
TAP	24	336	3
TAP	24	360	5
TTP	25	0	0	C	1	M1
TAP	25	288	1
TAP	25	288	6
HLD	26	0	2	96
TAP	26	0	5
TAP	26	96	5
TAP	26	144	2
TAP	26	192	3
TAP	26	240	2
TAP	26	288	4
TAP	26	336	2
HLD	27	0	3	96
TAP	27	96	1
STR	27	144	1
SCR	27	144	1	96	48	3
TAP	27	240	3
TAP	27	336	5
TAP	28	0	2
HLD	28	0	5	96
TAP	28	96	3
TAP	28	144	5
TAP	28	192	4
TAP	28	240	5
TAP	28	288	2
TAP	28	336	5
HLD	29	0	4	96
TAP	29	96	6
STR	29	144	6
SCL	29	144	6	96	48	4
TAP	29	240	4
TAP	29	336	2
HLD	30	0	2	96
TAP	30	0	5
TAP	30	96	3
TAP	30	144	2
TAP	30	192	4
TAP	30	240	2
TAP	30	288	3
TAP	30	336	2
HLD	31	0	0	96
TAP	31	96	1
STR	31	144	1
SCR	31	144	1	96	48	3
TAP	31	240	3
TAP	31	336	4
TAP	32	0	2
HLD	32	0	5	96
TAP	32	96	3
TAP	32	144	5
TAP	32	192	4
TAP	32	240	5
TAP	32	288	6
STR	32	336	5
SCL	32	336	5	96	96	2
TTP	33	96	0	C	0	M1
TTP	33	96	3	B	0	M1
TTP	33	96	4	B	0	M1
XTP	33	192	0
XTP	33	240	1
XTP	33	240	7
TAP	34	0	3
HLD	34	0	6	96
TAP	34	96	3
TAP	34	144	5
TAP	34	192	1
HLD	34	192	4	96
TAP	34	288	1
TAP	34	336	5
STR	35	0	3
SI_	35	0	3	96	48	1
TAP	35	48	3
TAP	35	96	4
TAP	35	144	5
STR	35	192	6
SCR	35	192	6	96	48	0
TAP	35	288	0
TAP	35	336	1
HLD	36	0	2	96
HLD	36	96	3	96
TAP	36	192	2
TAP	36	240	3
STR	36	288	1
SCR	36	288	1	96	48	3
TAP	37	0	6
TAP	37	48	6
TAP	37	96	4
TAP	37	144	4
STR	37	192	5
SI_	37	192	5	96	48	7
TAP	37	240	5
TAP	37	288	3
XTP	38	0	0
STR	38	0	1
SUR	38	0	1	96	48	5
TAP	38	96	7
TAP	38	144	7
HLD	38	192	6	96
TAP	38	288	4
TAP	38	336	3
STR	39	0	5
SI_	39	0	5	96	48	3
TAP	39	48	5
TAP	39	96	3
TAP	39	144	2
STR	39	192	6
SI_	39	192	6	96	48	2
TAP	39	240	6
TAP	39	288	2
TAP	39	336	1
TAP	40	0	3
TAP	40	96	2
TAP	40	96	3
TAP	40	144	4
HLD	40	192	5	96
STR	40	288	4
SI_	40	288	4	96	48	0
BRK	41	0	6
TAP	41	96	1
TAP	41	96	7
TAP	41	144	2
BST	41	144	6
SCL	41	144	6	96	48	3
TAP	41	240	7
BRK	41	288	0
HLD	42	0	1	96
TAP	42	0	4
TAP	42	96	4
TAP	42	144	2
HLD	42	192	3	96
TAP	42	192	6
TAP	42	288	6
TAP	42	336	2
STR	43	0	4
SI_	43	0	4	96	48	6
TAP	43	48	4
TAP	43	96	3
TAP	43	144	2
STR	43	192	1
SCL	43	192	1	96	48	7
TAP	43	288	7
TAP	43	336	6
HLD	44	0	5	96
HLD	44	96	4	96
TAP	44	192	5
TAP	44	240	4
HLD	44	288	6	96
STR	45	0	4
SI_	45	0	4	96	48	2
TAP	45	48	4
TAP	45	96	6
TAP	45	144	5
STR	45	192	4
SI_	45	192	4	96	48	6
TAP	45	240	4
TAP	45	288	1
TAP	45	336	1
TAP	46	0	1
XTP	46	0	7
TAP	46	96	6
TAP	46	144	6
STR	46	192	2
SCR	46	192	2	96	48	4
TAP	46	192	6
TAP	46	288	5
TAP	46	336	5
STR	47	0	5
SCR	47	0	5	96	48	7
TAP	47	48	3
TAP	47	96	3
TAP	47	144	2
STR	47	192	1
SCR	47	192	1	96	48	3
TAP	47	240	7
TAP	47	288	7
TAP	47	336	6
HLD	48	0	6	96
TAP	48	96	4
TAP	48	144	5
STR	48	192	3
SCL	48	192	3	96	48	1
STR	48	240	3
SUR	48	240	3	96	48	7
BRK	49	0	0
BRK	49	192	2
BRK	49	192	6
TAP	50	0	3
TAP	50	0	4
TTP	50	96	3	E	0	M1
TTP	50	128	3	B	0	M1
TTP	50	160	5	B	0	M1
TTP	50	192	6	E	0	M1
HLD	50	288	1	384
TTP	51	0	2	B	0	M1
TTP	51	0	3	E	0	M1
TTP	51	96	0	C	0	M1
TTP	51	192	5	B	0	M1
TTP	51	192	5	E	0	M1
HLD	51	288	6	384
TTP	52	0	6	B	0	M1
TTP	52	0	6	E	0	M1
TTP	52	96	4	E	0	M1
TTP	52	192	1	B	0	M1
TTP	52	192	2	E	0	M1
TAP	52	288	0
XTP	53	0	3
TTP	53	0	6	B	0	M1
TTP	53	0	6	E	0	M1
TTP	53	96	1	B	0	M1
TTP	53	96	2	E	0	M1
XTP	53	96	4
TTP	53	192	0	C	0	M1
BRK	53	192	7
TAP	54	0	0
TAP	54	0	6
TTP	54	96	2	E	0	M1
TTP	54	128	2	B	0	M1
TTP	54	160	4	B	0	M1
TTP	54	192	5	E	0	M1
TAP	54	288	3
HLD	54	288	6	384
TTP	55	0	5	B	0	M1
TTP	55	0	6	E	0	M1
TTP	55	96	0	B	0	M1
TTP	55	96	0	E	0	M1
TTP	55	192	2	B	0	M1
TTP	55	192	2	E	0	M1
TTP	55	288	4	B	0	M1
TTP	55	288	4	E	0	M1
XTP	56	0	1
XTP	56	0	7
TTP	56	96	3	E	0	M1
TTP	56	128	3	B	0	M1
TTP	56	160	5	B	0	M1
XTP	56	192	0
TTP	56	288	5	E	0	M1
TTP	56	320	4	B	0	M1
TTP	56	352	2	B	0	M1
XTP	57	0	7
TTP	57	96	3	E	0	M1
TTP	57	128	3	B	0	M1
TTP	57	160	5	B	0	M1
XTP	57	192	0
XTP	57	288	0
XTP	57	288	7
XTP	58	0	2
XTP	58	0	5
TAP	58	96	1
TAP	58	128	3
TAP	58	160	2
TAP	58	192	6
TAP	58	224	4
TAP	58	256	5
TAP	58	288	2
TAP	58	320	4
TAP	58	352	3
HLD	59	0	7	288
STR	59	288	0
SI_	59	288	0	96	48	4
TAP	60	0	0
BRK	60	0	6
STR	60	96	7
SI_	60	96	7	96	48	3
BRK	60	192	1
TAP	60	192	7
STR	60	288	0
SI_	60	288	0	96	48	4
BST	61	0	0
SCL	61	0	0	96	48	5
TAP	61	0	6
BST	61	96	0
SCR	61	96	0	96	48	3
BRK	61	192	0
HLD	61	288	5	64
TAP	61	352	4
STR	62	0	6
SI_	62	0	6	96	48	3
STR	62	96	1
SI_	62	96	1	96	48	7
TAP	62	96	6
STR	62	192	1
SCR	62	192	1	96	48	3
TAP	62	256	4
STR	62	288	1
SXR	62	288	1	96	144	4
HLD	62	352	5	128
TAP	63	0	1
TAP	63	192	5
TAP	63	256	5
TAP	63	288	4
TAP	63	352	2
TAP	64	0	3
TAP	64	96	0
STR	64	96	6
SI_	64	96	6	96	48	4
TAP	64	160	3
STR	64	192	6
SI_	64	192	6	96	48	0
TAP	64	256	1
STR	64	288	6
SI_	64	288	6	96	48	3
STR	65	0	3
SCR	65	0	3	96	96	7
TAP	65	0	6
TAP	65	96	0
TAP	65	128	1
TAP	65	160	2
STR	65	192	3
SLL	65	192	3	96	96	7
STR	65	288	7
SCL	65	288	7	96	192	7
BRK	66	0	3
TTP	66	192	0	C	0	M1
STR	66	288	0
SI_	66	288	0	96	48	4
TAP	66	288	7
BST	67	0	0
SI_	67	0	0	96	48	6
TAP	67	64	5
BST	67	96	0
SCR	67	96	0	96	48	2
TAP	67	160	3
BRK	67	192	0
STR	67	288	7
SI_	67	288	7	96	48	3
SI_	67	288	7	96	48	4
BRK	68	0	7
STR	68	96	0
SI_	68	96	0	96	48	3
SI_	68	96	0	96	48	4
BRK	68	192	0
TAP	68	288	1
TAP	68	288	6
TAP	69	0	2
TAP	69	32	4
TAP	69	64	3
TAP	69	96	6
TAP	69	128	4
TAP	69	160	5
TAP	69	192	0
TAP	69	224	2
TAP	69	256	1
STR	69	288	7
SI_	69	288	7	96	48	3
STR	70	0	3
SCR	70	0	3	96	48	5
STR	70	0	7
SCR	70	0	7	96	48	2
STR	70	96	7
SI_	70	96	7	96	48	3
STR	70	192	7
SCL	70	192	7	96	48	5
TAP	70	256	0
STR	70	288	7
SXR	70	288	7	96	144	2
HLD	70	352	1	128
TAP	71	0	7
TAP	71	192	1
TAP	71	256	1
STR	71	288	6
SI_	71	288	6	96	32	0
TAP	71	352	0
STR	72	0	6
SCL	72	0	6	96	48	3
TAP	72	96	3
TAP	72	96	6
TAP	72	160	1
TAP	72	192	0
TAP	72	256	2
TAP	72	256	7
STR	72	288	2
SCL	72	288	2	96	48	0
TAP	72	288	7
BRK	73	0	2
BST	73	0	3
SCR	73	0	3	96	48	6
BRK	73	96	3
XST	73	96	7
SF_	73	96	7	96	48	3
BRK	73	192	7
XTP	73	288	1
XTP	73	288	5
TAP	74	0	2
STR	74	0	4
SLR	74	0	4	96	96	0
STR	74	96	0
SCR	74	96	0	96	96	4
STR	74	192	4
SCR	74	192	4	96	96	0
STR	74	288	0
SSL	74	288	0	96	192	4
TTP	75	0	0	C	1	M1
TAP	76	0	3
TAP	76	0	4
HLD	76	64	3	96
TAP	76	64	4
HLD	76	160	4	128
HLD	76	192	2	96
TAP	77	0	2
TAP	77	0	4
STR	77	64	1
SUR	77	64	1	96	96	5
TAP	77	64	5
HLD	77	160	7	96
TAP	77	288	7
TAP	78	0	4
TAP	78	0	5
TAP	78	64	4
HLD	78	64	5	96
HLD	78	160	4	128
HLD	78	192	6	96
TAP	79	0	4
TAP	79	0	6
TAP	79	64	3
STR	79	64	7
SUL	79	64	7	96	96	3
HLD	79	160	1	96
TAP	79	288	1
TAP	80	0	0
TAP	80	0	1
TAP	80	64	0
HLD	80	64	1	96
HLD	80	160	0	128
HLD	80	192	2	96
TAP	81	0	0
TAP	81	0	2
STR	81	64	3
SUL	81	64	3	96	96	7
TAP	81	64	7
HLD	81	160	5	96
TAP	81	288	5
TAP	82	0	0
TAP	82	0	6
TAP	82	64	0
STR	82	64	6
SCL	82	64	6	96	96	3
TAP	82	160	2
HLD	82	192	2	256
HLD	83	0	3	64
TAP	83	160	4
TAP	83	192	1
TAP	83	192	4
HLD	83	288	3	96
STR	83	288	6
SI_	83	288	6	96	32	4
XTP	84	0	6
TAP	84	96	2
TAP	84	128	4
TAP	84	160	0
HLD	84	192	6	96
TAP	84	288	0
TAP	84	320	4
TAP	84	352	2
HLD	85	0	0	96
TAP	85	96	2
TAP	85	128	6
TAP	85	160	0
TAP	85	192	4
TAP	85	224	1
TAP	85	256	5
TAP	85	288	3
TAP	85	320	7
TAP	85	352	1
HLD	86	0	3	96
TAP	86	96	2
TAP	86	128	6
TAP	86	160	4
HLD	86	192	0	96
TAP	86	288	4
TAP	86	320	6
TAP	86	352	2
HLD	87	0	4	96
TAP	87	96	3
TAP	87	128	5
TAP	87	160	1
TAP	87	192	7
TAP	87	224	3
TAP	87	256	5
TAP	87	288	1
TAP	87	320	7
TAP	87	352	3
HLD	88	0	0	96
TAP	88	96	2
TAP	88	128	6
TAP	88	160	0
HLD	88	192	4	96
TAP	88	288	0
TAP	88	320	6
TAP	88	352	2
HLD	89	0	0	96
TAP	89	96	1
TAP	89	128	5
TAP	89	160	7
TAP	89	192	3
TAP	89	224	1
TAP	89	256	7
TAP	89	288	3
TAP	89	320	5
TAP	89	352	1
HLD	90	0	3	96
HLD	90	192	2	96
TTP	90	192	4	B	0	M1
THO	91	0	0	384	C	0	M1
STR	91	0	1
SLR	91	0	1	96	192	7
BST	92	0	7
SI_	92	0	7	96	1056	3
HLD	96	0	2	768
TTP	96	192	3	B	0	M1
TTP	97	0	0	C	0	M1
TTP	97	192	7	B	0	M1
HLD	98	0	7	288
TTP	99	0	2	B	0	M1
TTP	99	0	3	E	0	M1
XTP	99	0	6
XTP	99	96	1
TTP	99	96	5	B	0	M1
TTP	99	96	5	E	0	M1
TTP	99	192	1	B	0	M1
TTP	99	192	2	E	0	M1
XTP	99	192	7
STR	99	288	7
SI_	99	288	7	96	48	3
STR	100	0	3
SCR	100	0	3	96	48	5
XST	100	0	7
SCR	100	0	7	96	48	2
STR	100	96	7
SI_	100	96	7	96	48	3
STR	100	192	3
SCR	100	192	3	96	48	5
XST	100	192	7
SCR	100	192	7	96	48	2
STR	100	288	7
SI_	100	288	7	96	48	3
BST	101	0	7
SCR	101	0	7	96	48	2
BST	101	96	7
SCL	101	96	7	96	48	4
BRK	101	192	7
TAP	101	288	3
TAP	101	352	3
STR	102	0	6
SI_	102	0	6	96	48	3
TAP	102	96	0
TAP	102	96	6
STR	102	192	1
SCR	102	192	1	96	48	3
TAP	102	192	4
TAP	102	256	0
STR	102	288	1
SXR	102	288	1	96	192	4
HLD	102	352	5	128
TAP	103	0	1
TAP	103	192	5
TAP	103	256	5
TAP	103	288	4
TAP	103	352	1
TAP	104	0	3
TAP	104	96	0
STR	104	96	6
SI_	104	96	6	96	48	4
TAP	104	160	4
STR	104	192	6
SI_	104	192	6	96	48	0
TAP	104	256	2
STR	104	288	6
SI_	104	288	6	96	48	3
STR	105	0	3
SCR	105	0	3	96	96	0
TAP	105	0	6
TAP	105	96	1
TAP	105	128	2
TAP	105	160	3
STR	105	192	4
SLL	105	192	4	96	96	0
STR	105	288	0
SLL	105	288	0	96	96	4
BST	106	0	4
SCL	106	0	4	96	192	4
TTP	106	192	0	C	0	M1
STR	106	288	7
SI_	106	288	7	96	48	3
BST	107	0	7
SI_	107	0	7	96	48	1
TAP	107	64	2
BST	107	96	7
SCL	107	96	7	96	48	5
TAP	107	160	4
BRK	107	192	7
STR	107	288	0
SI_	107	288	0	96	48	4
SV_	107	288	0	96	48	3
BRK	108	0	0
STR	108	96	7
SI_	108	96	7	96	48	3
SV_	108	96	7	96	48	4
BRK	108	192	7
TAP	108	288	1
TAP	108	288	6
TAP	109	0	5
TAP	109	32	3
TAP	109	64	4
TAP	109	96	0
TAP	109	128	3
TAP	109	160	2
TAP	109	192	7
TAP	109	224	4
TAP	109	256	5
STR	109	288	0
SI_	109	288	0	96	48	4
XST	110	0	0
SCL	110	0	0	96	48	5
STR	110	0	4
SCL	110	0	4	96	48	2
STR	110	96	0
SI_	110	96	0	96	48	4
STR	110	192	0
SCR	110	192	0	96	48	2
TAP	110	256	5
STR	110	288	0
SXL	110	288	0	96	144	5
HLD	110	352	7	128
TAP	111	0	0
TAP	111	192	6
TAP	111	256	6
TAP	111	288	4
TAP	111	352	2
TAP	111	352	3
STR	112	0	1
SI_	112	0	1	96	48	4
TAP	112	0	4
STR	112	96	1
SI_	112	96	1	96	48	7
TAP	112	96	6
TAP	112	160	7
TAP	112	192	1
TAP	112	256	5
STR	112	288	3
SCL	112	288	3	96	48	1
BST	113	0	3
SCR	113	0	3	96	48	6
XTP	113	0	6
BRK	113	96	3
XST	113	96	7
SF_	113	96	7	96	48	3
BRK	113	192	7
XTP	113	288	0
XTP	113	288	6
HLD	114	0	1	96
XTP	114	0	5
TAP	114	96	6
TAP	114	128	2
TAP	114	160	0
HLD	114	192	4	96
STR	114	288	0
SI_	114	288	0	96	48	4
TAP	114	320	2
TAP	114	352	6
BRK	115	0	0
TAP	115	96	5
TAP	115	128	3
TAP	115	160	4
TAP	115	192	2
TAP	115	224	6
TAP	115	256	0
XTP	115	288	1
XTP	115	288	7
XST	116	0	4
SI_	116	0	4	96	48	0
XST	116	0	6
SI_	116	0	6	96	48	2
TAP	116	96	4
TAP	116	96	6
TTP	116	112	6	B	0	M1
TTP	116	128	0	C	0	M1
TTP	116	144	2	B	0	M1
XST	116	192	1
SI_	116	192	1	96	48	5
XST	116	192	3
SI_	116	192	3	96	48	7
TAP	116	288	1
TAP	116	288	3
TTP	116	304	1	B	0	M1
TTP	116	320	0	C	0	M1
TTP	116	336	5	B	0	M1
BRK	117	0	0
BRK	117	0	6
TTP	117	96	6	E	0	M1
TTP	117	112	5	E	0	M1
TTP	117	128	4	E	0	M1
TTP	117	144	3	E	0	M1
TTP	117	160	2	E	0	M1
TTP	117	176	1	E	0	M1
TTP	117	192	0	E	0	M1
TTP	117	208	7	E	0	M1
XTP	117	224	6
XTP	117	240	5
XTP	117	256	4
XTP	117	272	3
XTP	117	288	2
XTP	117	304	1
XTP	117	320	0
XTP	117	336	7
XTP	117	352	6
XTP	117	368	5
TTP	118	0	0	C	1	M1
BRK	118	0	4

T_REC_TAP	363
T_REC_BRK	28
T_REC_XTP	57
T_REC_HLD	73
T_REC_XHO	1
T_REC_STR	86
T_REC_BST	13
T_REC_XST	12
T_REC_TTP	90
T_REC_THO	1
T_REC_SLD	116
T_REC_ALL	840
T_NUM_TAP	608
T_NUM_BRK	41
T_NUM_HLD	75
T_NUM_SLD	116
T_NUM_ALL	840
T_JUDGE_TAP	649
T_JUDGE_HLD	229
T_JUDGE_SLD	116
T_JUDGE_ALL	994
TTM_EACHPAIRS	84
TTM_SCR_TAP	304000
TTM_SCR_BRK	106600
TTM_SCR_HLD	75000
TTM_SCR_SLD	174000
TTM_SCR_ALL	659600
TTM_SCR_S	635850
TTM_SCR_SS	655500
TTM_RAT_ACV	10062

