VERSION	0.00.00	1.03.00
FES_MODE	0
BPM_DEF	222.000	222.000	222.000	222.000
MET_DEF	4	4
RESOLUTION	384
CLK_DEF	384
COMPATIBLE_CODE	MA2

BPM	0	0	222.000
MET	0	0	4	4

BRK	5	0	0
BRK	5	0	7
BRK	5	96	2
BRK	5	96	5
BRK	5	192	3
BRK	5	192	4
HLD	6	0	3	96
HLD	6	0	5	96
HLD	6	192	2	96
HLD	6	192	4	96
HLD	7	0	3	96
HLD	7	0	6	96
HLD	7	192	1	96
HLD	7	192	4	96
HLD	8	0	6	96
HLD	8	96	4	96
HLD	8	192	3	96
HLD	8	288	1	96
STR	9	0	7
SCL	9	0	7	96	144	2
HLD	10	0	0	192
TTP	10	288	2	E	0	M1
TTP	11	0	3	E	0	M1
TTP	11	96	4	E	0	M1
TTP	11	192	5	E	0	M1
HLD	12	0	7	192
TTP	12	288	6	E	0	M1
TTP	13	0	5	E	0	M1
TTP	13	96	4	E	0	M1
TTP	13	192	3	E	0	M1
HLD	14	0	1	192
TAP	14	192	3
TAP	14	288	4
HLD	15	0	6	192
TAP	15	192	4
TAP	15	288	3
HLD	16	0	1	192
TAP	16	192	7
TAP	16	240	7
TAP	16	336	4
TAP	16	336	6
TAP	17	48	1
TAP	17	48	3
TAP	17	144	0
TAP	17	144	7
XTP	17	240	1
XTP	17	240	6
XTP	17	288	1
XTP	17	288	6
TAP	18	0	7
TAP	18	96	7
TAP	18	192	7
TTP	18	288	6	E	0	M1
TAP	18	288	7
TTP	19	0	5	E	0	M1
TAP	19	0	7
TTP	19	96	4	E	0	M1
TAP	19	96	7
TTP	19	192	3	E	0	M1
TAP	19	192	7
TTP	19	288	2	E	0	M1
TAP	19	288	7
TAP	20	0	0
TAP	20	96	0
TAP	20	192	0
TAP	20	288	0
TTP	20	288	2	E	0	M1
TAP	21	0	0
TTP	21	0	3	E	0	M1
TAP	21	96	0
TTP	21	96	4	E	0	M1
TAP	21	192	0
TTP	21	192	5	E	0	M1
TAP	21	288	0
TTP	21	288	6	E	0	M1
TAP	22	0	7
TAP	22	96	7
TTP	22	192	4	B	0	M1
TTP	22	192	5	B	0	M1
TTP	22	288	2	B	0	M1
TTP	22	288	3	B	0	M1
TAP	23	0	0
TAP	23	96	0
TTP	23	192	2	B	0	M1
TTP	23	192	3	B	0	M1
TTP	23	288	4	B	0	M1
TTP	23	288	5	B	0	M1
TAP	24	0	6
TAP	24	48	6
TAP	24	96	1
TAP	24	144	1
TAP	24	192	7
TAP	24	240	7
STR	24	288	0
SCR	24	288	0	96	192	7
TTP	25	0	0	C	1	M1
HLD	26	0	6	96
HLD	26	0	7	96
TAP	26	144	6
TAP	26	144	7
TAP	26	240	5
TAP	26	240	6
HLD	26	336	4	96
HLD	26	336	5	96
HLD	27	96	3	96
HLD	27	96	4	96
TAP	27	240	2
TAP	27	240	3
HLD	28	0	0	96
HLD	28	0	1	96
TAP	28	144	0
TAP	28	144	1
TAP	28	240	1
TAP	28	240	2
HLD	28	336	2	96
HLD	28	336	3	96
HLD	29	96	3	96
HLD	29	96	4	96
TAP	29	240	4
TAP	29	240	5
HLD	30	0	6	96
HLD	30	0	7	96
TAP	30	144	6
TAP	30	144	7
TAP	30	240	5
TAP	30	240	6
HLD	30	336	4	96
HLD	30	336	5	96
HLD	31	96	3	96
HLD	31	96	4	96
TAP	31	240	2
TAP	31	240	3
HLD	32	0	0	96
HLD	32	0	1	96
TAP	32	144	0
TAP	32	144	1
TAP	32	240	1
TAP	32	240	2
HLD	32	336	2	96
HLD	32	336	3	96
XHO	33	96	1	96
XHO	33	96	4	96
XHO	33	240	3	96
XHO	33	240	6	96
TAP	34	0	7
TAP	34	96	7
TTP	34	144	2	E	0	M1
TTP	34	168	2	B	0	M1
TTP	34	192	3	B	0	M1
TAP	34	288	5
TAP	34	336	5
TAP	35	0	4
TAP	35	48	6
TAP	35	96	0
TAP	35	144	0
HLD	35	192	7	96
TAP	35	288	0
TAP	36	0	5
TAP	36	0	6
TAP	36	96	3
TAP	36	96	4
TAP	36	192	1
TAP	36	192	2
TAP	36	288	0
TAP	36	288	7
TAP	37	0	6
TAP	37	48	6
TAP	37	96	7
TAP	37	144	5
TAP	37	192	2
TAP	37	240	2
STR	37	288	1
SCL	37	288	1	96	48	6
TAP	37	288	3
TAP	38	0	4
STR	38	96	5
SCL	38	96	5	96	48	2
TAP	38	192	0
TAP	38	288	1
TAP	38	336	1
TAP	39	0	3
TAP	39	48	0
TAP	39	96	5
TAP	39	144	5
TAP	39	192	4
TAP	39	240	6
STR	39	288	2
SCR	39	288	2	96	48	5
STR	40	96	6
SCR	40	96	6	96	48	1
TAP	40	288	2
HLD	41	0	1	96
HLD	41	0	3	96
HLD	41	144	2	96
HLD	41	144	4	96
TAP	41	288	1
TAP	41	288	5
TAP	42	0	0
TAP	42	96	0
TTP	42	144	6	E	0	M1
TTP	42	168	5	B	0	M1
TTP	42	192	4	B	0	M1
TAP	42	288	2
TAP	42	336	2
TAP	43	0	3
TAP	43	48	1
TAP	43	96	7
TAP	43	144	7
HLD	43	192	0	96
TAP	43	288	7
TAP	44	0	1
TAP	44	0	2
TAP	44	96	3
TAP	44	96	4
TAP	44	192	5
TAP	44	192	6
TAP	44	288	0
TAP	44	288	7
TAP	45	0	1
TAP	45	48	1
TAP	45	96	0
TAP	45	144	2
TAP	45	192	5
TAP	45	240	5
TAP	45	288	4
TAP	45	336	6
TAP	46	0	4
TAP	46	0	6
STR	46	96	2
SCR	46	96	2	96	48	5
TAP	46	288	6
TAP	46	336	6
TAP	47	0	4
TAP	47	48	7
TAP	47	96	2
TAP	47	144	2
TAP	47	192	3
TAP	47	240	1
STR	47	288	5
SCL	47	288	5	96	48	2
TAP	48	96	0
TAP	48	144	0
TAP	48	240	5
STR	48	288	5
SCR	48	288	5	96	192	4
TTP	49	0	0	C	1	M1
XTP	49	192	7
STR	50	0	5
SI_	50	0	5	96	48	2
TAP	50	96	0
TAP	50	192	0
TAP	50	288	0
STR	51	0	2
SI_	51	0	2	96	48	5
TAP	51	96	7
TAP	51	192	7
TAP	51	288	7
STR	52	0	5
SI_	52	0	5	96	48	2
TAP	52	96	0
TAP	52	192	0
TAP	52	288	0
TAP	53	0	0
TAP	53	0	7
TAP	53	96	3
TAP	53	96	4
TAP	53	192	1
TAP	53	192	6
STR	54	0	2
SI_	54	0	2	96	48	5
TAP	54	96	7
STR	54	192	6
SI_	54	192	6	96	48	1
TAP	54	288	3
STR	55	0	2
SI_	55	0	2	96	48	5
TAP	55	96	7
STR	55	192	6
SI_	55	192	6	96	48	1
TAP	55	288	3
HLD	56	0	3	96
HLD	56	192	4	96
HLD	56	192	5	96
HLD	57	0	6	96
HLD	57	0	7	96
HLD	57	192	0	96
HLD	57	192	1	96
HLD	58	0	2	96
HLD	58	0	3	96
TAP	58	192	4
TAP	58	192	5
STR	58	288	4
SI_	58	288	4	96	48	1
STR	58	288	5
SI_	58	288	5	96	48	0
BRK	60	0	0
BRK	60	0	7
TAP	60	96	2
TAP	60	96	3
BRK	60	192	0
BRK	60	192	7
TAP	60	288	4
TAP	60	288	5
BRK	61	0	0
BRK	61	0	7
BRK	61	96	1
BRK	61	96	3
BRK	61	192	4
BRK	61	192	6
STR	61	288	4
SCL	61	288	4	96	96	0
TAP	61	288	6
TAP	62	0	5
STR	62	96	3
SCR	62	96	3	96	96	7
TAP	62	192	2
STR	62	288	4
SCL	62	288	4	96	96	0
TAP	63	0	5
STR	63	96	3
SCR	63	96	3	96	96	7
TAP	63	192	2
TAP	63	288	4
TAP	64	0	3
TAP	64	0	5
TAP	64	96	0
TAP	64	192	2
TAP	64	192	4
STR	64	288	7
SI_	64	288	7	96	48	5
STR	65	0	1
SI_	65	0	1	96	48	3
STR	65	96	4
SI_	65	96	4	96	48	0
HLD	65	192	2	96
STR	65	288	7
SI_	65	288	7	96	48	2
SI_	65	288	7	96	48	4
STR	66	96	3
SI_	66	96	3	96	48	0
SI_	66	96	3	96	48	6
HLD	66	288	7	96
BRK	67	0	0
BRK	67	96	4
BRK	67	96	6
BST	67	192	1
SI_	67	192	1	96	48	4
BST	67	192	3
SI_	67	192	3	96	48	6
HLD	68	0	7	288
HLD	68	192	0	96
TAP	69	0	3
TAP	69	32	4
TAP	69	64	3
TAP	69	96	4
TAP	69	128	3
TAP	69	160	4
TAP	69	192	3
TAP	69	288	2
TAP	69	288	5
TAP	70	0	6
TAP	70	64	6
TAP	70	96	4
TAP	70	160	4
TAP	70	192	3
TAP	70	256	3
TAP	70	288	1
TAP	70	352	1
TAP	71	0	3
TAP	71	64	3
TAP	71	96	4
TAP	71	160	4
TAP	71	192	6
TAP	71	256	6
TAP	71	288	0
TAP	72	0	1
TAP	72	0	4
TAP	72	96	5
TAP	72	192	2
TAP	72	192	6
TAP	72	288	1
BRK	73	0	0
BRK	73	0	7
BRK	73	96	4
BRK	73	96	6
BRK	73	192	1
BRK	73	192	3
STR	73	288	0
SI_	73	288	0	96	48	4
STR	73	288	7
SI_	73	288	7	96	48	5
STR	74	96	0
SI_	74	96	0	96	48	2
STR	74	96	7
SI_	74	96	7	96	48	3
STR	74	288	0
SCR	74	288	0	96	288	7
STR	74	288	7
SCL	74	288	7	96	288	0
TAP	76	0	0
HLD	76	0	7	768
TAP	76	192	4
TAP	76	288	3
TAP	76	352	2
TAP	77	0	2
TAP	77	64	4
TAP	77	96	4
TAP	77	192	3
HLD	78	0	0	768
TAP	78	192	3
TAP	78	288	4
TAP	78	352	5
TAP	79	0	5
TAP	79	64	3
TAP	79	96	3
TAP	79	192	4
HLD	80	0	7	768
TAP	80	192	4
TAP	80	288	3
TAP	80	352	2
TAP	81	0	2
TAP	81	64	4
TAP	81	96	4
TAP	81	192	3
HLD	82	0	0	576
TAP	82	192	3
TAP	82	288	4
TAP	82	352	5
TAP	83	0	5
TAP	83	64	3
TAP	83	96	3
TAP	83	192	4
TAP	83	288	2
TAP	83	288	6
HLD	84	0	3	96
HLD	84	0	5	96
HLD	84	192	2	96
HLD	84	192	4	96
TAP	85	0	3
HLD	85	0	5	96
TAP	85	96	3
HLD	85	192	2	96
TAP	85	192	4
TAP	85	288	5
HLD	86	0	3	96
HLD	86	0	6	96
HLD	86	192	1	96
HLD	86	192	4	96
TAP	87	0	3
HLD	87	0	6	96
TAP	87	96	2
HLD	87	192	1	96
TAP	87	192	4
TAP	87	288	5
TAP	88	0	3
TAP	88	0	6
TAP	88	96	2
TAP	88	96	5
TAP	88	192	1
TAP	88	192	4
TAP	88	288	2
TAP	88	288	5
TAP	89	0	3
TAP	89	0	6
TAP	89	96	2
TAP	89	96	4
TAP	89	192	0
TAP	89	192	3
TAP	89	288	3
TAP	89	288	5
XTP	90	0	4
XTP	90	0	7
XTP	90	192	1
XTP	90	192	4
XTP	91	0	0
XTP	91	0	7
TTP	92	0	3	E	0	M1
TTP	92	192	4	E	0	M1
TTP	93	0	5	E	0	M1
TTP	94	0	5	E	0	M1
TTP	94	192	4	E	0	M1
TTP	95	0	3	E	0	M1
HLD	95	192	2	576
TTP	96	0	3	E	0	M1
TTP	96	192	4	E	0	M1
TTP	97	0	5	E	0	M1
HLD	97	192	5	192
THO	98	0	0	192	C	1	M1
TTP	98	0	3	B	0	M1
TTP	98	0	4	B	0	M1
XTP	99	0	0
XTP	99	0	7
XTP	99	96	1
XTP	99	96	6
XTP	99	192	2
XTP	99	192	5
HLD	100	0	4	96
HLD	100	0	6	96
HLD	100	192	1	96
HLD	100	192	3	96
BRK	101	0	0
BRK	101	0	7
BRK	101	96	4
BRK	101	96	6
HLD	101	192	1	96
BRK	101	192	3
STR	101	288	0
SCL	101	288	0	96	96	4
TAP	102	0	2
STR	102	96	7
SCR	102	96	7	96	96	3
TAP	102	192	5
STR	102	288	0
SCL	102	288	0	96	96	4
TAP	103	0	2
STR	103	96	7
SCR	103	96	7	96	96	3
TAP	103	192	5
TAP	103	288	0
TAP	104	0	2
TAP	104	0	4
TAP	104	96	7
TAP	104	192	3
TAP	104	192	5
STR	104	288	0
SI_	104	288	0	96	48	2
STR	105	0	6
SI_	105	0	6	96	48	4
STR	105	96	3
SI_	105	96	3	96	48	7
HLD	105	192	5	96
STR	105	288	0
SI_	105	288	0	96	48	3
SI_	105	288	0	96	48	5
STR	106	96	4
SI_	106	96	4	96	48	1
SI_	106	96	4	96	48	7
HLD	106	288	0	96
BRK	107	0	7
BRK	107	96	1
BRK	107	96	3
BST	107	192	4
SI_	107	192	4	96	48	1
BST	107	192	6
SI_	107	192	6	96	48	3
HLD	108	0	0	288
HLD	108	192	7	96
TAP	109	0	4
TAP	109	32	3
TAP	109	64	4
TAP	109	96	3
TAP	109	128	4
TAP	109	160	3
TAP	109	192	4
TAP	109	288	1
TAP	109	288	6
TAP	110	0	2
TAP	110	64	2
TAP	110	96	0
TAP	110	160	0
TAP	110	192	7
TAP	110	256	7
TAP	110	288	5
TAP	110	352	5
TAP	111	0	7
TAP	111	64	7
TAP	111	96	0
TAP	111	160	0
TAP	111	192	2
TAP	111	256	2
TAP	111	288	5
TAP	112	0	3
TAP	112	0	6
TAP	112	96	2
TAP	112	192	1
TAP	112	192	5
TAP	112	288	6
BRK	113	0	0
BRK	113	0	7
BRK	113	96	1
BRK	113	96	3
BRK	113	192	4
BRK	113	192	6
STR	113	288	0
SI_	113	288	0	96	48	2
STR	113	288	7
SI_	113	288	7	96	48	3
STR	114	96	0
SI_	114	96	0	96	48	4
STR	114	96	7
SI_	114	96	7	96	48	5
STR	114	288	0
SCR	114	288	0	96	288	7
STR	114	288	7
SCL	114	288	7	96	288	0
HLD	116	0	0	96
HLD	116	0	7	96
HLD	116	192	3	96
HLD	116	192	4	96
BRK	117	0	2
BRK	117	0	5
BRK	117	96	0
BRK	117	96	7
BRK	117	192	3
BRK	117	192	4
BST	117	288	1
SI_	117	288	1	96	48	4
BST	117	288	6
SI_	117	288	6	96	48	3

T_REC_TAP	296
T_REC_BRK	45
T_REC_XTP	17
T_REC_HLD	89
T_REC_XHO	4
T_REC_STR	48
T_REC_BST	6
T_REC_XST	0
T_REC_TTP	45
T_REC_THO	1
T_REC_SLD	58
T_REC_ALL	609
T_NUM_TAP	406
T_NUM_BRK	51
T_NUM_HLD	94
T_NUM_SLD	58
T_NUM_ALL	609
T_JUDGE_TAP	457
T_JUDGE_HLD	272
T_JUDGE_SLD	58
T_JUDGE_ALL	787
TTM_EACHPAIRS	127
TTM_SCR_TAP	203000
TTM_SCR_BRK	132600
TTM_SCR_HLD	94000
TTM_SCR_SLD	87000
TTM_SCR_ALL	516600
TTM_SCR_S	496200
TTM_SCR_SS	511500
TTM_RAT_ACV	10099

