VERSION	0.00.00	1.03.00
FES_MODE	0
BPM_DEF	222.000	222.000	222.000	222.000
MET_DEF	4	4
RESOLUTION	384
CLK_DEF	384
COMPATIBLE_CODE	MA2

BPM	0	0	222.000
MET	0	0	4	4

TTP	2	0	4	E	0	L1
TTP	3	0	0	C	0	L1
TTP	4	0	1	E	0	L1
TTP	4	0	7	E	0	L1
XTP	5	0	0
XTP	5	0	7
XTP	5	96	0
XTP	5	96	7
BRK	5	192	1
BRK	5	192	6
HLD	6	0	5	192
HLD	6	192	4	192
HLD	7	0	3	192
TAP	7	192	2
STR	8	0	3
SCL	8	0	3	96	192	0
STR	8	0	4
SCR	8	0	4	96	192	7
TTP	9	0	0	C	1	L1
TTP	10	0	0	B	0	L1
TTP	10	0	7	B	0	L1
TTP	11	0	6	E	0	L1
TTP	12	0	5	E	0	L1
TTP	13	0	4	E	0	L1
TTP	14	0	3	E	0	L1
TTP	15	0	2	E	0	L1
HLD	16	0	0	336
XTP	16	336	7
XTP	17	48	0
XTP	17	48	7
XTP	17	144	1
XTP	17	144	6
TAP	18	0	5
TAP	18	96	5
TAP	18	192	4
TAP	18	192	5
TAP	19	0	2
TAP	19	96	2
TAP	19	192	2
TAP	19	192	3
TAP	20	0	5
TAP	20	96	5
TAP	20	192	4
TAP	20	288	4
TAP	21	0	3
TAP	21	96	3
TAP	21	192	2
TAP	21	192	4
TAP	22	0	1
TAP	22	96	1
TAP	22	192	0
TAP	22	192	1
TAP	23	0	6
TAP	23	96	6
TAP	23	192	6
TAP	23	192	7
TAP	24	0	1
TAP	24	96	1
TAP	24	192	0
TAP	24	288	0
BST	25	0	0
SCR	25	0	0	96	192	3
BST	25	0	7
SCL	25	0	7	96	192	4
TAP	26	0	5
TAP	26	96	5
TAP	26	192	6
TAP	26	288	6
TAP	27	0	0
STR	27	0	7
SI_	27	0	7	96	192	3
TAP	28	0	2
TAP	28	96	2
TAP	28	192	1
TAP	28	288	1
STR	29	0	0
SI_	29	0	0	96	192	4
TAP	29	0	7
TAP	30	0	5
TAP	30	96	5
TAP	30	192	6
TAP	30	288	6
TAP	31	0	0
STR	31	0	7
SUL	31	0	7	96	192	3
TAP	32	0	2
TAP	32	96	2
TAP	32	192	1
TAP	32	288	1
STR	33	0	0
SUR	33	0	0	96	192	4
TAP	33	0	7
HLD	34	0	5	192
TAP	34	192	4
TAP	35	0	4
TAP	35	0	5
TAP	35	96	4
TAP	35	96	5
TAP	35	192	3
TAP	35	192	6
TAP	36	0	5
TAP	36	96	6
TAP	36	192	7
TAP	36	288	0
TAP	37	0	1
TAP	37	96	2
TAP	37	192	3
TAP	37	192	4
HLD	38	0	2	192
TAP	38	192	3
TAP	39	0	2
TAP	39	0	3
TAP	39	96	2
TAP	39	96	3
TAP	39	192	1
TAP	39	192	4
HLD	40	0	5	192
TAP	40	192	4
XTP	41	0	3
XTP	41	0	4
XTP	41	144	3
XTP	41	144	4
XTP	41	288	3
XTP	41	288	4
HLD	42	0	2	192
TAP	42	192	3
TAP	43	0	2
TAP	43	0	3
TAP	43	96	2
TAP	43	96	3
TAP	43	192	1
TAP	43	192	4
TAP	44	0	2
TAP	44	96	1
TAP	44	192	0
TAP	44	288	7
TAP	45	0	6
TAP	45	96	5
TAP	45	192	3
TAP	45	192	4
HLD	46	0	5	192
TAP	46	192	4
TAP	47	0	4
TAP	47	0	5
TAP	47	96	4
TAP	47	96	5
TAP	47	192	3
TAP	47	192	6
TAP	48	0	0
TAP	48	0	7
TAP	48	96	1
TAP	48	96	6
TAP	48	192	2
TAP	48	192	5
TAP	48	288	3
TAP	48	288	4
BRK	49	0	2
BRK	49	0	5
TTP	50	0	6	B	0	L1
TTP	50	0	7	E	0	L1
TTP	50	192	4	B	0	L1
TTP	50	192	5	E	0	L1
TTP	51	0	3	E	0	L1
TTP	51	96	2	B	0	L1
TTP	51	192	1	B	0	L1
TTP	52	0	7	E	0	L1
TTP	52	96	6	B	0	L1
TTP	52	192	5	B	0	L1
TTP	53	0	2	B	0	L1
TTP	53	96	1	B	0	L1
TTP	53	192	1	E	0	L1
TAP	54	0	6
TAP	54	96	6
TAP	54	192	7
TAP	54	288	7
TAP	55	0	0
TAP	55	96	1
TAP	55	192	2
TAP	55	192	3
XTP	56	0	3
XTP	56	0	4
XTP	56	192	2
XTP	56	192	5
XTP	57	0	1
XTP	57	0	6
XTP	57	192	0
XTP	57	192	7
TAP	58	0	1
TAP	58	96	2
TAP	58	192	3
TAP	58	288	4
TAP	59	0	2
TAP	59	0	5
BRK	60	0	6
BRK	60	0	7
BRK	60	192	0
BRK	60	192	1
TAP	61	0	0
TAP	61	0	7
TAP	61	96	0
TAP	61	96	7
TAP	61	192	1
TAP	61	192	6
TAP	62	0	5
TAP	62	96	4
TAP	62	96	5
TAP	62	192	2
TAP	62	288	2
TAP	62	288	3
TAP	63	0	1
TAP	63	96	0
TAP	63	192	1
TAP	63	192	7
TAP	64	0	6
TAP	64	96	6
TAP	64	192	6
TAP	64	192	7
TAP	64	288	6
TAP	64	288	7
TAP	65	0	1
TAP	65	96	1
TAP	65	192	0
TAP	65	192	1
TAP	65	288	0
TAP	65	288	1
TAP	66	0	2
TAP	66	96	3
TAP	66	192	4
TAP	66	288	5
XTP	67	0	3
XTP	67	0	4
XTP	67	96	2
XTP	67	96	5
XTP	67	192	1
XTP	67	192	6
BRK	68	0	2
BRK	68	0	3
BRK	68	192	4
BRK	68	192	5
TAP	69	0	3
TAP	69	0	4
TAP	69	96	3
TAP	69	96	4
TAP	69	192	2
TAP	69	192	5
TAP	70	0	1
TAP	70	96	0
TAP	70	96	1
TAP	70	192	6
TAP	70	288	6
TAP	70	288	7
TAP	71	0	5
TAP	71	96	4
TAP	71	192	3
TAP	71	192	5
TAP	72	0	2
TAP	72	96	2
TAP	72	192	2
TAP	72	192	3
TAP	72	288	2
TAP	72	288	3
TAP	73	0	5
TAP	73	96	5
TAP	73	192	4
TAP	73	192	5
TAP	73	288	4
TAP	73	288	5
XTP	74	0	6
XTP	74	0	7
XTP	74	96	0
XTP	74	96	1
XTP	74	192	2
XTP	74	192	3
XTP	74	288	4
XTP	74	288	5
HLD	75	0	3	192
HLD	75	0	6	192
STR	76	0	5
SCR	76	0	5	96	192	0
STR	77	0	1
SUR	77	0	1	96	192	5
STR	78	0	6
SUL	78	0	6	96	192	2
TAP	79	0	1
TAP	79	96	1
TAP	79	192	0
TAP	79	192	7
STR	80	0	1
SCR	80	0	1	96	192	4
STR	81	0	5
SCR	81	0	5	96	192	0
STR	82	0	1
SUR	82	0	1	96	192	5
STR	83	0	6
SCL	83	0	6	96	192	3
HLD	84	0	2	192
HLD	84	192	3	192
HLD	85	0	4	192
TAP	85	192	5
HLD	86	0	6	192
HLD	86	192	7	192
HLD	87	0	0	192
TAP	87	192	1
HLD	88	0	2	96
HLD	88	0	3	96
HLD	88	192	4	96
HLD	88	192	5	96
HLD	89	0	6	96
HLD	89	0	7	96
HLD	89	192	0	96
HLD	89	192	1	96
TAP	90	0	2
TAP	90	0	7
TAP	90	192	0
TAP	90	192	5
TAP	91	0	1
TAP	91	0	6
TTP	92	0	0	C	0	L1
TTP	93	0	2	E	0	L1
TTP	94	0	1	E	0	L1
TTP	95	0	0	E	0	L1
TTP	96	0	7	E	0	L1
TTP	97	0	6	E	0	L1
THO	98	0	0	384	C	1	L1
BRK	100	0	0
BRK	100	0	1
BRK	100	192	6
BRK	100	192	7
TAP	101	0	0
TAP	101	0	7
TAP	101	96	1
TAP	101	96	6
TAP	101	192	2
TAP	101	192	5
TAP	102	0	2
TAP	102	96	1
TAP	102	96	3
TAP	102	192	5
TAP	102	288	4
TAP	102	288	6
TAP	103	0	7
TAP	103	96	7
TAP	103	192	0
TAP	103	192	6
TAP	104	0	1
TAP	104	96	0
TAP	104	96	1
TAP	104	192	1
TAP	104	288	0
TAP	104	288	1
TAP	105	0	6
TAP	105	96	6
TAP	105	96	7
TAP	105	192	6
TAP	105	288	6
TAP	105	288	7
TAP	106	0	5
TAP	106	96	4
TAP	106	192	3
TAP	106	288	2
XTP	107	0	3
XTP	107	0	4
XTP	107	96	2
XTP	107	96	5
XTP	107	192	1
XTP	107	192	6
BRK	108	0	4
BRK	108	0	5
BRK	108	192	2
BRK	108	192	3
TAP	109	0	3
TAP	109	0	4
TAP	109	96	2
TAP	109	96	5
TAP	109	192	1
TAP	109	192	6
TAP	110	0	6
TAP	110	96	6
TAP	110	96	7
TAP	110	192	1
TAP	110	288	0
TAP	110	288	1
TAP	111	0	2
TAP	111	96	2
TAP	111	192	1
TAP	111	192	3
TAP	112	0	5
TAP	112	96	4
TAP	112	96	5
TAP	112	192	5
TAP	112	288	4
TAP	112	288	5
TAP	113	0	2
TAP	113	96	2
TAP	113	96	3
TAP	113	192	2
TAP	113	288	2
TAP	113	288	3
XTP	114	0	0
XTP	114	0	1
XTP	114	96	6
XTP	114	96	7
XTP	114	192	4
XTP	114	192	5
XTP	114	288	2
XTP	114	288	3
HLD	115	0	1	192
HLD	115	0	4	192
XTP	116	0	3
XTP	116	0	5
XTP	116	192	2
XTP	116	192	4
TAP	117	0	3
TAP	117	0	4
TAP	117	96	2
TAP	117	96	5
TAP	117	192	1
TAP	117	192	6
TAP	117	288	0
TAP	117	288	7
BRK	118	0	1
BRK	118	0	6

T_REC_TAP	256
T_REC_BRK	22
T_REC_XTP	55
T_REC_HLD	27
T_REC_XHO	0
T_REC_STR	13
T_REC_BST	2
T_REC_XST	0
T_REC_TTP	31
T_REC_THO	1
T_REC_SLD	15
T_REC_ALL	422
T_NUM_TAP	355
T_NUM_BRK	24
T_NUM_HLD	28
T_NUM_SLD	15
T_NUM_ALL	422
T_JUDGE_TAP	379
T_JUDGE_HLD	103
T_JUDGE_SLD	15
T_JUDGE_ALL	497
TTM_EACHPAIRS	123
TTM_SCR_TAP	177500
TTM_SCR_BRK	62400
TTM_SCR_HLD	28000
TTM_SCR_SLD	22500
TTM_SCR_ALL	290400
TTM_SCR_S	279400
TTM_SCR_SS	288000
TTM_RAT_ACV	10083

