VERSION	0.00.00	1.03.00
FES_MODE	0
BPM_DEF	222.000	222.000	222.000	222.000
MET_DEF	4	4
RESOLUTION	384
CLK_DEF	384
COMPATIBLE_CODE	MA2

BPM	0	0	222.000
MET	0	0	4	4

TAP	6	0	0
TAP	7	0	0
TAP	8	0	7
BRK	9	0	7
HLD	10	0	0	384
HLD	12	0	1	384
HLD	14	0	2	384
HLD	16	0	3	384
HLD	16	0	4	384
TAP	18	0	4
TAP	19	0	4
TAP	20	0	5
TAP	21	0	5
TAP	22	0	6
TAP	23	0	6
TAP	24	0	7
XTP	25	0	0
XTP	25	0	7
TAP	26	0	7
TAP	26	192	7
TAP	27	0	7
TAP	28	0	6
TAP	28	192	6
TAP	29	0	6
TAP	30	0	5
TAP	30	192	5
TAP	31	0	5
TAP	32	0	4
TAP	32	192	4
TAP	33	0	3
TAP	33	0	4
TAP	34	0	3
TAP	34	192	3
TAP	35	0	3
TAP	36	0	2
TAP	36	192	2
TAP	37	0	2
TAP	38	0	1
TAP	38	192	1
TAP	39	0	1
TAP	40	0	0
TAP	40	192	0
TAP	41	0	0
TAP	41	0	7
TAP	42	0	0
TAP	42	192	0
TAP	43	0	1
TAP	44	0	2
TAP	44	192	2
TAP	45	0	3
TAP	46	0	4
TAP	46	192	4
TAP	47	0	5
TAP	48	0	6
TAP	48	192	6
TAP	49	0	0
TAP	49	0	7
STR	50	0	7
SI_	50	0	7	96	288	4
STR	52	0	3
SI_	52	0	3	96	288	0
STR	54	0	7
SI_	54	0	7	96	288	3
TAP	56	0	2
TAP	56	192	1
XTP	57	0	0
XTP	57	0	7
HLD	58	0	0	384
HLD	58	0	7	384
XTP	60	0	0
XTP	60	0	7
XTP	60	192	0
XTP	60	192	7
XTP	61	0	1
XTP	61	0	6
TAP	62	0	0
TAP	62	192	1
TAP	63	0	2
TAP	63	96	2
TAP	63	192	2
TAP	64	0	3
TAP	64	192	4
TAP	65	0	5
TAP	65	96	5
TAP	65	192	5
TAP	66	0	6
TAP	66	192	7
XTP	67	0	0
XTP	67	0	7
TAP	68	0	0
TAP	68	0	7
TAP	68	192	0
TAP	68	192	7
BRK	69	0	1
BRK	69	0	6
XTP	70	0	7
TAP	70	192	6
TAP	71	0	5
TAP	71	96	5
TAP	71	192	5
TAP	72	0	3
TAP	72	0	4
TAP	72	192	3
TAP	72	192	4
XTP	73	0	2
XTP	73	96	2
XTP	73	192	2
TAP	74	0	1
TAP	74	192	0
XTP	75	0	0
XTP	75	0	7
TTP	76	0	0	B	0	L1
TTP	77	0	7	B	0	L1
TTP	78	0	1	B	0	L1
TTP	79	0	6	B	0	L1
TTP	80	0	2	B	0	L1
TTP	81	0	5	B	0	L1
TTP	82	0	3	B	0	L1
TTP	83	0	4	B	0	L1
TTP	84	0	2	B	0	L1
TTP	84	0	3	B	0	L1
TTP	85	0	0	B	0	L1
TTP	85	0	1	B	0	L1
TTP	86	0	6	B	0	L1
TTP	86	0	7	B	0	L1
TTP	87	0	4	B	0	L1
TTP	87	0	5	B	0	L1
TTP	88	0	2	B	0	L1
TTP	88	0	3	B	0	L1
TTP	88	0	3	E	0	L1
TTP	90	0	4	B	0	L1
TTP	90	0	5	B	0	L1
TTP	90	0	5	E	0	L1
TTP	92	0	0	C	1	L1
HLD	96	0	0	384
HLD	96	0	1	384
HLD	98	0	6	384
HLD	98	0	7	384
XTP	100	0	0
XTP	100	0	7
XTP	100	192	0
XTP	100	192	7
XTP	101	0	1
XTP	101	0	6
XTP	101	96	1
XTP	101	96	6
XTP	101	192	1
XTP	101	192	6
TAP	102	0	0
TAP	102	96	0
TAP	102	192	0
TAP	103	0	1
TAP	103	96	1
TAP	103	192	0
TAP	103	192	1
TAP	104	0	2
TAP	104	96	2
TAP	104	192	2
TAP	105	0	3
TAP	105	96	3
TAP	105	192	3
TAP	105	192	4
TAP	106	0	5
TAP	106	96	5
TAP	106	192	5
TAP	107	0	6
TAP	107	96	6
TAP	107	192	6
TAP	107	192	7
XTP	108	0	0
XTP	108	0	7
XTP	108	192	0
XTP	108	192	7
TAP	109	0	1
TAP	109	0	6
TAP	109	96	1
TAP	109	96	6
TAP	109	192	1
TAP	109	192	6
BRK	110	0	7
TAP	110	96	7
TAP	110	192	0
TAP	110	192	7
TAP	111	0	6
TAP	111	96	6
TAP	111	192	6
TAP	111	192	7
TAP	112	0	5
TAP	112	96	5
TAP	112	192	4
TAP	112	192	5
XTP	113	0	2
XTP	113	96	2
XTP	113	192	2
XTP	113	192	3
TAP	114	0	1
TAP	114	96	1
TAP	114	192	0
TAP	114	288	0
TAP	115	0	0
TAP	115	0	7
TAP	115	192	0
TAP	115	192	7
TAP	116	0	6
TAP	116	96	6
TAP	116	192	7
TAP	116	288	7
HLD	117	0	0	192
HLD	117	0	7	192
BRK	118	0	1
BRK	118	0	6

T_REC_TAP	127
T_REC_BRK	6
T_REC_XTP	36
T_REC_HLD	13
T_REC_XHO	0
T_REC_STR	3
T_REC_BST	0
T_REC_XST	0
T_REC_TTP	23
T_REC_THO	0
T_REC_SLD	3
T_REC_ALL	211
T_NUM_TAP	189
T_NUM_BRK	6
T_NUM_HLD	13
T_NUM_SLD	3
T_NUM_ALL	211
T_JUDGE_TAP	195
T_JUDGE_HLD	96
T_JUDGE_SLD	3
T_JUDGE_ALL	294
TTM_EACHPAIRS	40
TTM_SCR_TAP	94500
TTM_SCR_BRK	15600
TTM_SCR_HLD	13000
TTM_SCR_SLD	4500
TTM_SCR_ALL	127600
TTM_SCR_S	123200
TTM_SCR_SS	127000
TTM_RAT_ACV	10047

