VERSION	0.00.00	1.03.00
FES_MODE	0
BPM_DEF	153.000	153.000	153.000	153.000
MET_DEF	4	4
RESOLUTION	384
CLK_DEF	384
COMPATIBLE_CODE	MA2

BPM	0	0	153.000
MET	0	0	4	4

STR	2	0	3
SCR	2	0	3	96	96	5
STR	2	96	5
SCR	2	96	5	96	96	7
STR	2	192	7
SCR	2	192	7	96	96	1
STR	2	288	1
SCR	2	288	1	96	96	3
STR	3	0	3
SUR	3	0	3	96	192	4
HLD	3	96	5	288
STR	4	0	4
SCL	4	0	4	96	96	2
STR	4	96	2
SCL	4	96	2	96	96	0
STR	4	192	0
SCL	4	192	0	96	96	6
STR	4	288	6
SCL	4	288	6	96	96	4
STR	5	0	4
SUL	5	0	4	96	192	3
TAP	5	96	7
TAP	5	192	7
XTP	5	288	7
STR	6	0	3
SUL	6	0	3	96	48	7
STR	6	0	7
SUL	6	0	7	96	48	3
TTP	6	192	1	B	0	M1
TTP	6	192	1	E	0	M1
TTP	6	192	5	B	0	M1
TTP	6	192	6	E	0	M1
STR	7	0	3
SXL	7	0	3	96	96	3
SXR	7	0	3	96	96	3
TAP	7	240	2
STR	7	240	4
SCL	7	240	4	96	144	6
TAP	7	288	2
TAP	7	288	4
STR	8	144	2
SI_	8	144	2	96	48	5
STR	8	192	6
SI_	8	192	6	96	48	1
TAP	8	240	2
TAP	8	288	6
STR	8	336	3
SI_	8	336	3	96	48	0
SI_	8	336	3	96	48	6
TAP	9	48	3
TAP	9	144	1
TAP	9	144	5
TAP	9	240	2
TAP	9	240	4
TAP	9	288	3
TAP	9	312	4
STR	10	0	0
SI_	10	0	0	96	48	4
STR	10	0	1
SV_	10	0	1	96	48	4
TAP	10	96	0
TAP	10	96	1
TAP	10	168	5
TAP	10	192	4
TAP	10	216	5
TAP	10	264	3
TAP	10	264	6
TAP	10	312	5
TAP	10	336	4
TAP	11	0	3
STR	11	0	6
SI_	11	0	6	96	48	4
TAP	11	48	3
TAP	11	96	2
TAP	11	144	2
STR	11	192	1
SI_	11	192	1	96	48	3
TAP	11	192	3
TAP	11	240	3
TAP	11	288	4
TAP	11	336	4
STR	12	0	6
SV_	12	0	6	96	48	3
STR	12	0	7
SI_	12	0	7	96	48	3
TAP	12	96	6
TAP	12	96	7
TAP	12	168	2
TAP	12	192	3
TAP	12	216	2
TAP	12	264	1
TAP	12	264	4
TAP	12	312	2
TAP	12	336	3
STR	13	0	1
SI_	13	0	1	96	48	3
TAP	13	0	4
TAP	13	48	4
TAP	13	96	5
TAP	13	144	5
TAP	13	192	4
STR	13	192	6
SI_	13	192	6	96	48	4
TAP	13	240	4
TAP	13	288	3
TAP	13	336	3
STR	14	0	0
SI_	14	0	0	96	48	4
STR	14	0	1
SV_	14	0	1	96	48	4
TAP	14	96	0
TAP	14	96	1
TAP	14	168	5
TAP	14	192	4
TAP	14	216	5
TAP	14	264	3
TAP	14	264	6
TAP	14	312	5
TAP	14	336	4
TAP	15	0	3
STR	15	0	6
SI_	15	0	6	96	48	4
TAP	15	48	3
TAP	15	96	2
TAP	15	144	2
STR	15	192	1
SI_	15	192	1	96	48	3
TAP	15	192	3
TAP	15	240	3
TAP	15	288	4
TAP	15	336	4
STR	16	0	6
SV_	16	0	6	96	48	3
STR	16	0	7
SI_	16	0	7	96	48	3
TAP	16	96	6
TAP	16	96	7
TAP	16	168	2
TAP	16	192	3
TAP	16	216	2
TAP	16	264	1
TAP	16	264	4
TAP	16	312	2
TAP	16	336	3
TAP	17	0	3
TAP	17	0	4
TAP	17	48	2
TAP	17	96	3
TAP	17	96	4
TAP	17	144	5
STR	17	192	3
SI_	17	192	3	96	48	7
STR	17	192	4
SI_	17	192	4	96	48	0
BRK	17	288	3
BRK	17	288	4
STR	18	0	1
SCL	18	0	1	96	480	6
TAP	18	0	6
TAP	19	288	4
STR	20	0	5
SCL	20	0	5	96	480	2
TAP	21	288	0
TAP	22	0	3
TAP	22	0	4
TAP	22	48	3
HLD	22	48	4	480
XTP	22	144	5
XTP	22	240	5
XTP	22	336	5
XTP	23	48	5
XST	23	144	5
SCL	23	144	5	96	48	2
TAP	23	240	7
TAP	23	288	7
STR	24	0	0
SCR	24	0	0	96	96	4
STR	24	96	4
SCR	24	96	4	96	96	0
TAP	24	192	0
TAP	24	288	4
TAP	25	0	2
TAP	25	0	4
TAP	25	96	3
TAP	25	96	5
TAP	25	192	4
HLD	25	192	6	72
TAP	25	264	4
TAP	25	288	5
TAP	25	336	3
TAP	25	336	4
STR	26	0	2
SI_	26	0	2	96	48	0
TAP	26	0	3
TAP	26	72	3
TAP	26	96	2
TAP	26	144	4
STR	26	192	2
SI_	26	192	2	96	48	7
TAP	26	192	3
TAP	26	264	3
TAP	26	288	2
TAP	26	336	4
STR	27	0	2
SI_	27	0	2	96	48	0
TAP	27	0	3
TAP	27	72	3
TAP	27	96	2
TAP	27	144	4
TAP	27	192	1
TAP	27	192	3
TAP	27	240	2
TAP	27	288	3
TAP	27	288	4
TAP	27	336	5
TAP	28	0	4
STR	28	0	5
SI_	28	0	5	96	48	7
TAP	28	72	4
TAP	28	96	5
TAP	28	144	3
TAP	28	192	4
STR	28	192	5
SI_	28	192	5	96	48	0
TAP	28	264	4
TAP	28	288	5
TAP	28	336	3
TAP	29	0	4
STR	29	0	5
SI_	29	0	5	96	48	7
TAP	29	72	4
TAP	29	96	5
TAP	29	144	3
TAP	29	192	4
TAP	29	192	6
TAP	29	240	5
TAP	29	288	3
TAP	29	288	4
TAP	29	336	2
STR	30	0	2
SI_	30	0	2	96	48	0
TAP	30	0	3
TAP	30	72	3
TAP	30	96	2
TAP	30	144	4
STR	30	192	2
SI_	30	192	2	96	48	7
TAP	30	192	3
TAP	30	264	3
TAP	30	288	2
TAP	30	336	4
STR	31	0	2
SI_	31	0	2	96	48	0
TAP	31	0	3
TAP	31	72	3
TAP	31	96	2
TAP	31	144	4
TAP	31	192	1
TAP	31	192	3
TAP	31	240	2
TAP	31	288	3
TAP	31	288	4
TAP	31	336	5
HLD	32	0	4	96
HLD	32	0	6	96
TAP	32	144	1
TAP	32	144	3
HLD	32	192	1	96
HLD	32	192	3	96
TAP	32	336	4
TAP	32	336	6
TAP	33	48	2
TAP	33	48	3
TAP	33	144	0
TAP	33	144	5
STR	33	192	0
SI_	33	192	0	96	48	5
TAP	33	192	5
BRK	33	288	0
TAP	33	288	4
TAP	34	0	1
TAP	34	0	3
TAP	34	48	2
TAP	34	48	4
TAP	34	96	3
TAP	34	96	5
TAP	34	144	6
TAP	34	168	4
TAP	34	192	6
TAP	34	216	4
TAP	34	240	6
TAP	34	264	4
HLD	34	288	6	96
TAP	34	336	7
TAP	35	0	4
TAP	35	48	3
HLD	35	96	2	96
TAP	35	96	4
TTP	35	144	1	B	0	M1
TTP	35	144	1	E	0	M1
HLD	35	192	3	96
TTP	35	240	0	B	0	M1
TTP	35	240	0	E	0	M1
HLD	35	288	4	96
TTP	35	336	7	B	0	M1
TTP	35	336	7	E	0	M1
TAP	36	0	5
TAP	36	48	3
TAP	36	48	5
TTP	36	96	1	B	0	M1
TTP	36	120	7	B	0	M1
TTP	36	144	3	B	0	M1
TTP	36	168	5	B	0	M1
TTP	36	192	0	B	0	M1
TTP	36	216	6	B	0	M1
TTP	36	240	2	B	0	M1
TTP	36	264	4	B	0	M1
TTP	36	288	1	E	0	M1
TTP	36	312	7	E	0	M1
TTP	36	336	2	E	0	M1
TTP	36	360	6	E	0	M1
TTP	37	0	3	E	0	M1
TTP	37	24	5	E	0	M1
TTP	37	48	0	C	0	M1
TAP	37	96	7
TAP	37	144	0
TAP	37	144	7
TAP	37	192	0
HLD	37	192	7	192
TTP	37	264	3	B	0	M1
TTP	37	264	4	E	0	M1
TTP	37	336	5	B	0	M1
TTP	37	336	6	B	0	M1
TAP	38	0	0
HLD	38	48	0	48
TAP	38	96	3
TAP	38	120	1
TAP	38	144	4
TAP	38	168	2
TAP	38	192	5
TAP	38	216	3
TAP	38	240	6
TAP	38	264	4
HLD	38	288	7	96
TTP	38	336	5	B	0	M1
TTP	38	336	6	B	0	M1
TAP	39	0	0
TAP	39	48	1
TAP	39	48	7
TAP	39	96	2
TAP	39	96	6
TAP	39	144	3
TAP	39	144	5
TTP	39	192	2	B	0	M1
XTP	39	192	4
XTP	39	240	3
TTP	39	240	5	B	0	M1
BRK	39	288	0
TTP	39	288	0	C	1	M1
TAP	40	0	1
TAP	40	0	7
TAP	40	48	6
TAP	40	72	7
TAP	40	96	5
TAP	40	120	0
TAP	40	144	4
TAP	40	168	1
TAP	40	192	3
HLD	40	216	2	48
TAP	40	264	5
TAP	40	288	3
TAP	40	336	2
TAP	40	336	6
TAP	41	0	2
TAP	41	0	6
TAP	41	48	1
TAP	41	96	0
TAP	41	96	4
TAP	41	144	7
TAP	41	192	4
TAP	41	192	6
TAP	41	240	2
TAP	41	264	3
TAP	41	312	5
TAP	41	336	4
TAP	42	0	3
BST	42	0	7
SCL	42	0	7	96	1344	0
TTP	42	288	0	C	0	M1
TTP	43	288	0	C	0	M1
TTP	44	288	0	C	0	M1
TTP	45	288	0	C	0	M1
HLD	46	0	7	96
HLD	46	96	6	96
HLD	46	192	5	96
HLD	46	288	4	96
HLD	47	0	3	96
HLD	47	96	2	96
HLD	47	192	1	96
HLD	47	288	0	96
TAP	48	0	6
TAP	48	48	6
TAP	48	48	7
TAP	48	96	5
TAP	48	144	4
TAP	48	144	5
TAP	48	192	2
TAP	48	240	2
TAP	48	240	3
TAP	48	288	1
TAP	48	336	0
TAP	48	336	1
TAP	49	0	7
TAP	49	24	0
TAP	49	48	7
TAP	49	72	0
TAP	49	96	7
TAP	49	120	0
TAP	49	144	7
TAP	49	168	0
STR	49	192	7
SI_	49	192	7	96	48	3
TAP	49	216	0
TAP	49	240	7
TAP	49	264	0
TAP	49	288	7
TAP	50	0	1
TAP	50	48	2
TAP	50	48	4
TAP	50	72	2
TAP	50	72	4
TAP	50	120	3
TAP	50	120	5
TAP	50	144	3
TAP	50	144	5
TAP	50	192	2
TAP	50	216	6
TAP	50	240	3
TAP	50	264	4
BRK	50	288	0
STR	51	0	0
SI_	51	0	0	96	48	4
TAP	51	0	5
TAP	51	24	1
TAP	51	24	6
TAP	51	48	2
TAP	51	48	7
XTP	51	96	1
XTP	51	144	1
STR	51	192	0
SI_	51	192	0	96	48	5
TAP	51	192	5
TAP	51	216	1
TAP	51	216	6
TAP	51	240	2
TAP	51	240	7
XST	51	288	1
SLR	51	288	1	96	96	0
XTP	51	336	1
STR	52	0	0
SI_	52	0	0	96	48	4
STR	52	48	4
SCR	52	48	4	96	48	7
STR	52	96	7
SCR	52	96	7	96	48	2
TAP	52	144	3
TAP	52	240	4
XTP	52	288	3
TAP	52	288	5
TAP	52	336	6
TAP	53	0	2
STR	53	0	7
SI_	53	0	7	96	48	3
TAP	53	24	1
TAP	53	24	6
TAP	53	48	0
TAP	53	48	5
XTP	53	96	6
XTP	53	144	6
TAP	53	192	2
STR	53	192	7
SI_	53	192	7	96	48	3
TAP	53	216	1
TAP	53	216	6
TAP	53	240	0
TAP	53	240	5
XST	53	288	6
SCL	53	288	6	96	48	3
XTP	53	336	6
STR	54	0	0
SI_	54	0	0	96	48	4
TAP	54	0	6
TAP	54	96	0
STR	54	96	2
SI_	54	96	2	96	48	6
HLD	54	192	1	96
TAP	54	192	2
STR	54	288	7
SI_	54	288	7	96	48	3
STR	54	336	3
SI_	54	336	3	96	48	7
TAP	55	0	7
TAP	55	48	1
STR	55	96	2
SI_	55	96	2	96	48	5
STR	55	144	5
SI_	55	144	5	96	48	2
TAP	55	192	2
STR	55	240	7
SI_	55	240	7	96	48	3
STR	55	288	6
SI_	55	288	6	96	24	4
STR	55	336	7
SI_	55	336	7	96	48	1
STR	56	0	6
SI_	56	0	6	96	48	2
STR	56	48	7
SCL	56	48	7	96	96	1
TAP	56	96	6
TAP	56	144	7
STR	56	240	7
SXL	56	240	7	96	96	6
TAP	56	288	6
HLD	56	336	5	192
TAP	57	144	6
TAP	57	192	4
TAP	57	192	7
STR	57	240	0
SCL	57	240	0	96	144	2
STR	57	240	3
SCR	57	240	3	96	144	1
TAP	57	288	1
TAP	57	288	2
TAP	57	336	0
TAP	57	336	3
STR	58	192	0
SI_	58	192	0	96	48	2
STR	58	192	6
SI_	58	192	6	96	48	2
BST	58	288	0
SI_	58	288	0	96	48	5
BRK	58	288	6
TAP	59	0	0
STR	59	0	4
SI_	59	0	4	96	48	7
TAP	59	48	3
STR	59	96	2
SI_	59	96	2	96	48	4
TAP	59	96	4
TAP	59	144	1
TAP	59	192	2
STR	59	192	6
SI_	59	192	6	96	48	2
TAP	59	240	5
STR	59	288	3
SI_	59	288	3	96	48	0
TAP	59	288	6
TAP	59	336	4
TAP	60	0	3
STR	60	0	7
SCR	60	0	7	96	48	2
TAP	60	96	6
STR	60	96	7
SCL	60	96	7	96	48	4
TAP	60	192	3
TAP	60	192	7
TAP	60	240	2
TAP	60	288	1
TAP	60	336	0
TAP	60	336	4
TAP	61	0	1
TAP	61	48	1
TAP	61	72	0
TAP	61	120	0
TAP	61	144	6
TAP	61	192	3
TAP	61	192	5
STR	61	240	2
SCR	61	240	2	96	48	5
STR	61	240	6
SCR	61	240	6	96	48	1
TAP	61	288	1
TAP	61	288	5
TAP	61	336	2
TAP	61	336	6
TAP	62	48	0
TAP	62	48	4
TAP	62	64	3
TAP	62	64	7
TAP	62	80	2
TAP	62	80	6
TAP	62	96	1
TAP	62	96	5
TAP	62	144	1
TAP	62	144	5
TAP	62	192	6
TAP	62	216	7
TAP	62	240	6
TAP	62	264	7
STR	62	288	5
SI_	62	288	5	96	48	0
TAP	62	312	0
TAP	62	336	5
TAP	62	360	0
TAP	63	0	5
TAP	63	96	0
TAP	63	96	2
TAP	63	144	3
TAP	63	144	7
TAP	63	192	4
HLD	63	192	6	96
TAP	63	240	7
TAP	63	256	0
TAP	63	272	1
TAP	63	288	2
TAP	63	336	4
TAP	63	336	6
HLD	64	0	1	96
TAP	64	0	3
TAP	64	48	0
TAP	64	64	7
TAP	64	80	6
TAP	64	96	5
TAP	64	144	1
TAP	64	144	3
STR	64	240	0
SCR	64	240	0	96	48	3
TAP	64	240	4
STR	64	288	3
SCR	64	288	3	96	48	6
TAP	64	288	7
TAP	65	96	7
TAP	65	144	0
TAP	65	144	6
TAP	65	192	1
TAP	65	192	5
STR	65	240	2
SCL	65	240	2	96	96	4
STR	65	240	4
SI_	65	240	4	96	48	7
TAP	65	288	3
STR	65	336	4
SUL	65	336	4	96	48	0
STR	66	192	0
SI_	66	192	0	96	48	3
STR	66	192	7
SI_	66	192	7	96	48	4
BRK	66	288	0
BRK	66	288	7
STR	67	0	1
SV_	67	0	1	96	48	4
STR	67	0	5
SI_	67	0	5	96	48	0
TAP	67	96	1
TAP	67	96	5
TAP	67	168	2
TAP	67	192	3
TAP	67	216	2
TAP	67	264	1
TAP	67	264	4
TAP	67	312	2
TAP	67	336	3
STR	68	0	1
SI_	68	0	1	96	48	3
TAP	68	0	4
TAP	68	48	4
TAP	68	96	5
TAP	68	144	5
TAP	68	192	4
STR	68	192	6
SI_	68	192	6	96	48	4
TAP	68	240	4
TAP	68	288	3
TAP	68	336	3
STR	69	0	2
SV_	69	0	2	96	48	7
STR	69	0	6
SI_	69	0	6	96	48	3
TAP	69	96	2
TAP	69	96	6
TAP	69	168	1
TAP	69	192	0
TAP	69	216	1
TAP	69	264	2
TAP	69	264	7
TAP	69	312	1
TAP	69	336	0
STR	70	0	2
SI_	70	0	2	96	48	0
TAP	70	0	7
TAP	70	48	7
TAP	70	96	6
TAP	70	144	6
STR	70	192	5
SI_	70	192	5	96	48	7
TAP	70	192	7
TAP	70	240	7
TAP	70	288	0
TAP	70	336	0
STR	71	0	1
SV_	71	0	1	96	48	4
STR	71	0	5
SI_	71	0	5	96	48	0
TAP	71	96	1
TAP	71	96	5
TAP	71	168	2
TAP	71	192	3
TAP	71	216	2
HLD	71	264	1	48
HLD	71	264	4	48
HLD	71	336	2	48
HLD	71	336	5	48
HLD	72	24	3	48
HLD	72	24	6	48
TAP	72	96	5
TAP	72	96	6
TAP	72	144	0
TAP	72	144	7
TAP	72	192	1
TAP	72	192	4
TAP	72	240	2
TAP	72	256	3
TAP	72	272	2
TAP	72	288	3
TAP	72	320	1
TAP	72	320	4
STR	73	0	2
SV_	73	0	2	96	48	7
STR	73	0	6
SI_	73	0	6	96	48	3
TAP	73	96	2
TAP	73	96	6
TAP	73	168	1
TAP	73	192	0
TAP	73	216	1
TAP	73	264	2
TAP	73	264	7
TAP	73	312	1
TAP	73	336	0
TAP	74	0	6
TAP	74	24	4
TAP	74	48	5
TAP	74	72	1
TAP	74	96	3
TAP	74	120	2
TAP	74	144	7
TAP	74	168	3
TAP	74	192	5
TAP	74	216	0
TAP	74	240	4
TAP	74	264	2
BST	74	288	7
SI_	74	288	7	96	48	3
TAP	75	0	4
TAP	75	0	7

T_REC_TAP	450
T_REC_BRK	8
T_REC_XTP	14
T_REC_HLD	33
T_REC_XHO	0
T_REC_STR	99
T_REC_BST	3
T_REC_XST	3
T_REC_TTP	38
T_REC_THO	0
T_REC_SLD	107
T_REC_ALL	755
T_NUM_TAP	604
T_NUM_BRK	11
T_NUM_HLD	33
T_NUM_SLD	107
T_NUM_ALL	755
T_JUDGE_TAP	615
T_JUDGE_HLD	74
T_JUDGE_SLD	107
T_JUDGE_ALL	796
TTM_EACHPAIRS	156
TTM_SCR_TAP	302000
TTM_SCR_BRK	28600
TTM_SCR_HLD	33000
TTM_SCR_SLD	160500
TTM_SCR_ALL	524100
TTM_SCR_S	507350
TTM_SCR_SS	523000
TTM_RAT_ACV	10021

