VERSION	0.00.00	1.03.00
FES_MODE	0
BPM_DEF	153.000	153.000	153.000	153.000
MET_DEF	4	4
RESOLUTION	384
CLK_DEF	384
COMPATIBLE_CODE	MA2

BPM	0	0	153.000
MET	0	0	4	4

STR	2	0	4
SCR	2	0	4	96	288	7
STR	3	0	0
SCR	3	0	0	96	288	3
STR	4	0	4
SCR	4	0	4	96	288	0
TAP	5	0	1
TAP	5	96	1
TAP	5	192	2
TAP	5	288	2
TAP	5	288	4
TAP	6	0	3
HLD	6	0	5	192
TTP	6	192	0	C	0	M1
STR	7	0	4
SXL	7	0	4	96	192	4
SXR	7	0	4	96	192	4
XHO	8	0	3	192
XHO	8	0	5	192
XTP	8	288	1
XTP	8	288	4
XTP	8	336	1
XTP	8	336	4
XTP	9	48	2
XTP	9	48	3
XTP	9	144	4
XHO	9	144	5	96
XTP	9	240	4
XTP	9	312	4
XTP	9	312	5
TAP	10	0	3
TAP	10	0	6
TAP	10	96	5
TAP	10	192	2
TAP	10	288	1
TAP	10	288	3
TAP	11	0	2
TAP	11	0	4
TAP	11	96	3
TAP	11	192	5
TAP	11	288	4
TAP	11	288	6
TAP	12	0	3
TAP	12	0	5
TAP	12	96	4
TAP	12	192	2
HLD	12	288	1	96
TAP	12	288	3
HLD	13	0	3	96
TAP	13	96	4
TAP	13	192	4
TAP	13	192	5
TAP	13	240	4
TAP	13	240	5
TAP	13	288	4
TAP	13	288	5
TAP	14	0	3
TAP	14	0	6
TAP	14	96	5
TAP	14	192	2
TAP	14	288	1
TAP	14	288	4
TAP	15	0	2
TAP	15	0	3
TAP	15	96	3
TAP	15	96	4
TAP	15	192	4
TAP	15	192	5
TAP	15	288	3
TAP	15	288	6
TAP	16	0	5
TAP	16	96	3
TAP	16	96	4
TAP	16	192	2
TAP	16	288	1
STR	16	288	3
SUR	16	288	3	96	192	4
XTP	17	288	2
XTP	17	288	5
TAP	18	0	1
STR	18	0	6
SLR	18	0	6	96	480	4
TAP	19	288	3
TAP	19	288	5
STR	20	0	2
SLL	20	0	2	96	480	4
TAP	20	0	4
TAP	21	192	5
TAP	21	288	6
HLD	22	0	3	96
XHO	22	0	7	768
TAP	22	144	3
TAP	22	240	3
TAP	22	336	4
TAP	23	48	4
TAP	23	144	3
TAP	23	240	4
STR	23	288	4
SSL	23	288	4	96	192	0
TAP	24	288	0
TAP	24	288	7
TAP	24	336	0
TAP	24	336	7
TAP	25	48	1
TAP	25	144	2
TAP	25	144	4
TAP	25	192	2
TAP	25	192	4
XTP	25	288	3
XTP	25	288	5
HLD	26	0	6	72
HLD	26	72	5	72
TAP	26	144	4
HLD	26	192	1	72
HLD	26	264	2	72
TAP	26	336	3
HLD	27	0	4	72
HLD	27	72	5	72
TAP	27	144	6
TAP	27	192	6
TAP	27	288	0
TAP	27	288	5
HLD	28	0	1	72
HLD	28	72	2	72
TAP	28	144	3
HLD	28	192	6	72
HLD	28	264	5	72
TAP	28	336	4
HLD	29	0	1	72
HLD	29	72	2	72
TAP	29	144	3
TAP	29	192	3
TAP	29	288	2
TAP	29	288	7
HLD	30	0	6	72
HLD	30	72	5	72
TAP	30	144	4
HLD	30	192	3	72
HLD	30	264	2	72
TAP	30	336	1
TAP	31	48	0
TAP	31	48	7
TAP	31	144	4
TAP	31	144	6
STR	31	192	4
SI_	31	192	4	96	48	1
STR	31	192	6
SI_	31	192	6	96	48	3
XTP	32	0	0
TAP	32	96	1
TAP	32	144	1
TAP	32	192	2
TAP	32	192	6
TAP	32	288	3
HLD	32	336	3	96
TAP	32	336	5
TAP	33	48	2
TAP	33	144	0
TAP	33	144	1
TAP	33	192	0
STR	33	192	1
SI_	33	192	1	96	48	5
BRK	33	288	7
TAP	34	0	6
TAP	34	48	6
TAP	34	96	4
TAP	34	144	4
TAP	34	192	5
TAP	34	240	3
TAP	34	288	2
TAP	34	288	4
TAP	35	0	1
TAP	35	48	1
TAP	35	96	3
TAP	35	144	3
TAP	35	192	2
TAP	35	240	4
TAP	35	288	3
TAP	35	288	5
TAP	36	0	6
TAP	36	48	6
TAP	36	96	4
TAP	36	144	4
TAP	36	192	5
TAP	36	240	5
STR	36	288	3
SI_	36	288	3	96	48	1
STR	37	0	6
SI_	37	0	6	96	48	4
STR	37	96	0
SSL	37	96	0	96	144	4
XTP	38	0	3
XTP	38	0	5
XTP	38	48	3
XTP	38	48	5
TAP	38	96	2
TAP	38	144	2
TAP	38	192	3
TAP	38	240	2
TAP	38	288	1
TAP	38	288	4
TAP	38	336	1
TAP	38	336	4
TAP	39	0	0
TAP	39	48	0
TAP	39	96	7
TAP	39	144	7
BRK	39	192	0
BRK	39	192	6
BRK	39	240	1
BRK	39	240	5
BRK	39	288	2
BRK	39	288	4
TTP	40	0	0	C	1	M1
TTP	40	0	1	B	0	M1
TTP	40	0	5	B	0	M1
STR	40	96	7
SUL	40	96	7	96	96	3
HLD	40	192	0	192
TAP	41	0	3
TAP	41	48	3
TAP	41	96	1
TAP	41	144	1
XTP	41	192	2
XTP	41	192	3
XTP	41	264	4
XTP	41	264	5
XTP	41	336	3
XTP	41	336	6
XST	42	0	3
SCL	42	0	3	96	1056	4
XTP	42	0	6
TTP	45	288	3	B	0	M1
TTP	45	288	3	E	0	M1
TTP	45	288	4	B	0	M1
TTP	45	288	5	E	0	M1
HLD	46	0	1	288
TTP	46	96	1	E	0	M1
TTP	46	192	2	E	0	M1
TTP	46	288	3	E	0	M1
HLD	47	0	5	288
TTP	47	96	6	E	0	M1
TTP	47	192	5	E	0	M1
TTP	47	288	4	E	0	M1
TTP	48	0	3	E	0	M1
TTP	48	96	2	E	0	M1
TTP	48	96	6	E	0	M1
TTP	48	192	1	E	0	M1
TTP	48	192	7	E	0	M1
THO	48	288	0	480	C	1	M1
TTP	50	0	1	B	0	M1
TTP	50	0	6	B	0	M1
XTP	50	192	0
XTP	50	192	7
XTP	50	240	0
XTP	50	240	7
BST	50	288	1
SCL	50	288	1	96	48	6
BST	50	288	6
SCL	50	288	6	96	48	3
XST	51	96	1
SCR	51	96	1	96	48	4
XST	51	96	6
SCR	51	96	6	96	48	1
XST	51	288	1
SCL	51	288	1	96	48	6
XST	51	288	6
SCL	51	288	6	96	48	3
XTP	52	96	1
XTP	52	96	6
TAP	52	192	2
TAP	52	192	3
STR	52	288	1
SI_	52	288	1	96	48	4
STR	52	288	4
SI_	52	288	4	96	48	0
STR	53	96	3
SI_	53	96	3	96	48	7
STR	53	96	6
SI_	53	96	6	96	48	3
XTP	53	288	0
XTP	53	288	4
TAP	54	0	1
TAP	54	0	3
TAP	54	96	4
TAP	54	96	6
TAP	54	192	0
TAP	54	192	7
STR	54	288	1
SUR	54	288	1	96	48	5
STR	54	288	6
SCR	54	288	6	96	48	1
XST	55	96	1
SCL	55	96	1	96	48	6
XST	55	96	6
SUL	55	96	6	96	48	2
XST	55	288	1
SUR	55	288	1	96	48	5
XST	55	288	6
SCR	55	288	6	96	48	1
XTP	56	96	0
XTP	56	144	0
TAP	56	240	1
TAP	56	240	7
TAP	56	288	2
TAP	56	288	6
TAP	56	336	3
TAP	56	336	5
TAP	57	48	2
TAP	57	48	4
TAP	57	144	1
TAP	57	144	5
TAP	57	192	1
STR	57	192	5
SI_	57	192	5	96	48	0
TAP	57	288	2
TAP	57	336	2
HLD	58	48	3	48
HLD	58	48	7	48
HLD	58	144	4	48
HLD	58	144	5	48
TAP	58	240	1
TAP	58	240	3
BRK	58	288	0
BRK	58	288	4
STR	59	0	1
SCR	59	0	1	96	48	4
TAP	59	96	5
TAP	59	144	6
STR	59	192	1
SCR	59	192	1	96	48	4
TAP	59	192	7
TAP	59	288	5
TAP	59	336	6
STR	60	0	1
SI_	60	0	1	96	48	5
TAP	60	0	7
STR	60	96	4
SI_	60	96	4	96	48	0
TAP	60	192	3
TAP	60	240	3
TAP	60	288	7
TAP	60	336	7
TAP	61	0	0
TAP	61	0	6
STR	61	96	1
SI_	61	96	1	96	48	4
TAP	61	144	1
STR	61	192	0
SI_	61	192	0	96	48	5
TAP	61	240	0
TAP	61	288	3
TAP	61	336	3
TAP	62	48	6
TAP	62	48	7
TAP	62	96	6
TAP	62	96	7
TAP	62	144	0
STR	62	144	5
SI_	62	144	5	96	48	1
STR	62	240	3
SI_	62	240	3	96	48	0
TAP	62	336	7
BRK	63	0	7
TAP	63	96	0
TAP	63	96	1
TAP	63	144	2
TAP	63	144	7
TAP	63	192	3
HLD	63	192	6	96
STR	63	288	7
SI_	63	288	7	96	48	2
TAP	63	336	7
STR	64	0	6
SI_	64	0	6	96	48	3
TAP	64	48	6
TAP	64	96	0
TAP	64	144	0
TAP	64	240	1
TAP	64	240	7
TAP	64	288	2
TAP	64	288	6
STR	64	336	3
SI_	64	336	3	96	48	7
STR	64	336	5
SCL	64	336	5	96	48	2
XTP	65	144	0
XTP	65	192	1
STR	65	240	2
SCL	65	240	2	96	240	4
TAP	65	288	3
BRK	65	336	4
STR	66	192	7
SI_	66	192	7	96	48	3
BRK	66	288	2
TAP	67	0	1
TAP	67	0	4
TAP	67	96	2
TAP	67	96	3
TAP	67	192	5
TAP	67	240	5
TAP	67	288	4
HLD	67	288	6	288
TAP	68	0	7
TAP	68	96	5
TAP	68	192	7
TAP	68	288	0
TAP	68	288	5
TAP	69	0	3
TAP	69	0	6
TAP	69	96	4
TAP	69	96	5
TAP	69	192	2
TAP	69	240	2
HLD	69	288	1	288
TAP	69	288	3
TAP	70	0	0
TAP	70	96	2
TAP	70	192	0
TAP	70	288	2
TAP	70	288	7
TAP	71	0	4
TAP	71	0	5
TAP	71	96	2
TAP	71	96	3
HLD	71	192	1	48
HLD	71	192	3	48
HLD	71	264	2	48
HLD	71	264	4	48
HLD	71	336	3	48
HLD	71	336	5	48
HLD	72	24	4	48
HLD	72	24	6	48
TAP	72	96	4
TAP	72	96	6
TAP	72	144	4
TAP	72	144	6
STR	72	192	3
SI_	72	192	3	96	48	0
STR	72	192	7
SI_	72	192	7	96	48	4
BRK	73	0	1
BRK	73	0	5
TAP	73	96	2
TAP	73	96	3
HLD	73	192	5	72
HLD	73	264	6	72
TAP	73	336	7
STR	74	0	7
SCL	74	0	7	96	96	2
STR	74	192	1
SI_	74	192	1	96	48	5
STR	74	288	6
SI_	74	288	6	96	48	2
BRK	75	0	3

T_REC_TAP	230
T_REC_BRK	15
T_REC_XTP	38
T_REC_HLD	41
T_REC_XHO	4
T_REC_STR	41
T_REC_BST	2
T_REC_XST	9
T_REC_TTP	21
T_REC_THO	1
T_REC_SLD	53
T_REC_ALL	455
T_NUM_TAP	339
T_NUM_BRK	17
T_NUM_HLD	46
T_NUM_SLD	53
T_NUM_ALL	455
T_JUDGE_TAP	356
T_JUDGE_HLD	126
T_JUDGE_SLD	53
T_JUDGE_ALL	535
TTM_EACHPAIRS	114
TTM_SCR_TAP	169500
TTM_SCR_BRK	44200
TTM_SCR_HLD	46000
TTM_SCR_SLD	79500
TTM_SCR_ALL	339200
TTM_SCR_S	327400
TTM_SCR_SS	337500
TTM_RAT_ACV	10050

