VERSION	0.00.00	1.03.00
FES_MODE	0
BPM_DEF	153.000	153.000	153.000	153.000
MET_DEF	4	4
RESOLUTION	384
CLK_DEF	384
COMPATIBLE_CODE	MA2

BPM	0	0	153.000
MET	0	0	4	4

TTP	2	0	4	E	0	L1
TTP	2	192	3	E	0	L1
TTP	3	0	2	E	0	L1
TTP	3	192	1	E	0	L1
TTP	4	0	0	E	0	L1
TTP	4	192	7	E	0	L1
TTP	5	0	6	E	0	L1
TTP	5	192	5	E	0	L1
TAP	6	0	2
TAP	6	96	2
TAP	6	192	3
TAP	7	0	5
TAP	7	96	5
TAP	7	192	4
HLD	8	0	2	288
XTP	8	288	3
XTP	8	336	3
XTP	9	48	2
XTP	9	48	3
XTP	9	144	3
XTP	9	144	4
XTP	9	240	2
XTP	9	240	5
TAP	10	0	5
TAP	10	96	5
TAP	10	192	4
TAP	10	192	5
TAP	10	288	4
TAP	10	288	5
TAP	11	0	6
TAP	11	96	7
TAP	11	192	0
TAP	11	192	6
TAP	12	0	1
TAP	12	96	1
TAP	12	192	0
TAP	12	192	1
TAP	12	288	0
TAP	12	288	1
TAP	13	0	2
TAP	13	96	3
TAP	13	192	2
TAP	13	192	4
TAP	14	0	2
TAP	14	96	2
TAP	14	192	2
TAP	14	192	3
TAP	14	288	2
TAP	14	288	3
TAP	15	0	1
TAP	15	96	0
TAP	15	192	1
TAP	15	192	7
TAP	16	0	6
TAP	16	96	6
TAP	16	192	6
TAP	16	192	7
TAP	16	288	6
TAP	16	288	7
TAP	17	0	5
TAP	17	96	3
TAP	17	96	4
BRK	17	192	2
BRK	17	192	5
STR	18	0	1
SXR	18	0	1	96	480	4
STR	20	0	5
SXR	20	0	5	96	480	0
STR	22	0	1
SUR	22	0	1	96	144	5
STR	23	0	6
SUL	23	0	6	96	144	2
XTP	24	0	0
XTP	24	0	1
XTP	24	192	6
XTP	24	192	7
TAP	25	0	0
TAP	25	0	7
TAP	25	96	0
TAP	25	96	7
TAP	25	192	1
TAP	25	192	6
TAP	26	0	5
TAP	26	96	5
TAP	26	192	3
TAP	26	288	3
TAP	27	0	4
TAP	27	96	4
TAP	27	192	3
TAP	27	192	5
TAP	28	0	2
TAP	28	96	2
TAP	28	192	4
TAP	28	288	4
TAP	29	0	3
TAP	29	96	3
TAP	29	192	2
TAP	29	192	4
TAP	30	0	1
TAP	30	96	1
TAP	30	192	7
TAP	30	288	7
TAP	31	0	0
TAP	31	96	0
TAP	31	192	1
TAP	31	192	7
XTP	32	0	6
XTP	32	0	7
XTP	32	192	0
XTP	32	192	1
XTP	33	0	0
XTP	33	0	7
XTP	33	96	0
XTP	33	96	7
XTP	33	192	1
XTP	33	192	6
STR	34	0	5
SCR	34	0	5	96	144	0
STR	35	0	1
SUR	35	0	1	96	144	5
STR	36	0	6
SUL	36	0	6	96	144	2
TAP	37	0	1
TAP	37	96	1
XTP	37	192	0
XTP	37	192	1
STR	38	0	2
SCL	38	0	2	96	144	7
STR	39	0	6
SUL	39	0	6	96	144	2
STR	40	0	1
SUR	40	0	1	96	144	5
TAP	41	0	6
TAP	41	96	6
XTP	41	192	0
XTP	41	192	7
HLD	42	0	6	192
HLD	42	192	7	192
HLD	43	0	0	192
TAP	43	192	1
HLD	44	0	2	192
HLD	44	192	3	192
HLD	45	0	4	192
TAP	45	192	5
TAP	46	0	5
TAP	46	96	5
TAP	46	192	4
TAP	46	288	4
TAP	47	0	3
TAP	47	96	3
TAP	47	192	2
TAP	47	288	2
TAP	48	0	1
TAP	48	96	0
TAP	48	192	7
TAP	48	288	6
TAP	49	0	5
TAP	49	48	5
TAP	49	96	5
TAP	49	192	4
TAP	49	240	4
TAP	49	288	4
BST	50	0	3
SI_	50	0	3	96	144	0
BST	50	0	4
SI_	50	0	4	96	144	7
TAP	51	0	1
TAP	51	48	1
TAP	51	96	0
TAP	51	96	1
TAP	51	192	2
TAP	51	240	2
TAP	51	288	2
TAP	51	288	3
TAP	52	0	5
TAP	52	96	4
TAP	52	96	6
TAP	52	192	3
TAP	52	192	7
TAP	53	0	1
TAP	53	48	1
TAP	53	96	0
TAP	53	96	1
TAP	53	192	2
TAP	53	240	2
TAP	53	288	2
TAP	53	288	3
TAP	54	0	4
TAP	54	0	5
TAP	54	96	6
TAP	54	96	7
TAP	54	192	0
TAP	54	192	1
TAP	54	288	2
TAP	54	288	3
TAP	55	0	5
TAP	55	48	5
TAP	55	96	4
TAP	55	96	5
TAP	55	192	6
TAP	55	240	6
TAP	55	288	6
TAP	55	288	7
TAP	56	0	1
TAP	56	96	0
TAP	56	96	1
TAP	56	192	2
TAP	56	288	2
TAP	56	288	3
HLD	57	0	1	96
HLD	57	0	4	96
HLD	57	192	3	96
HLD	57	192	6	96
TAP	58	0	0
TAP	58	0	7
TAP	58	96	0
TAP	58	96	7
TAP	58	192	1
TAP	58	192	6
HLD	59	0	3	96
HLD	59	0	5	96
HLD	59	192	2	96
HLD	59	192	4	96
TAP	60	0	1
TAP	60	96	0
TAP	60	192	7
TAP	60	288	6
TAP	61	0	5
TAP	61	96	4
TAP	61	96	6
TAP	61	192	2
TAP	61	288	1
TAP	61	288	3
TAP	62	0	0
TAP	62	96	0
TAP	62	96	7
TAP	62	192	1
TAP	62	192	6
TAP	63	0	5
TAP	63	96	5
TAP	63	192	4
TAP	63	192	5
TAP	63	288	3
TAP	63	288	6
TAP	64	0	2
TAP	64	96	2
TAP	64	192	2
TAP	64	192	3
TAP	64	288	1
TAP	64	288	4
STR	65	0	0
SI_	65	0	0	96	144	3
SI_	65	0	0	96	144	5
XTP	66	0	4
XTP	66	96	3
XTP	66	96	5
BRK	66	192	2
BRK	66	192	6
TAP	67	0	1
TAP	67	96	1
TAP	67	192	0
TAP	67	192	1
TAP	67	288	0
TAP	67	288	1
TAP	68	0	2
TAP	68	96	3
TAP	68	192	2
TAP	68	192	4
TAP	69	0	5
TAP	69	96	5
TAP	69	192	4
TAP	69	192	5
TAP	69	288	4
TAP	69	288	5
TAP	70	0	6
TAP	70	96	7
TAP	70	192	0
TAP	70	192	6
TAP	71	0	6
TAP	71	96	6
TAP	71	192	6
TAP	71	192	7
TAP	71	288	6
TAP	71	288	7
TAP	72	0	5
TAP	72	96	4
TAP	72	192	3
TAP	72	192	5
TAP	73	0	2
TAP	73	96	2
TAP	73	192	2
TAP	73	192	3
TAP	73	288	2
TAP	73	288	3
TAP	74	0	1
TAP	74	96	0
TAP	74	96	7
HLD	74	192	1	96
HLD	74	192	6	96
TTP	75	0	0	C	1	L1

T_REC_TAP	214
T_REC_BRK	4
T_REC_XTP	29
T_REC_HLD	17
T_REC_XHO	0
T_REC_STR	11
T_REC_BST	2
T_REC_XST	0
T_REC_TTP	9
T_REC_THO	0
T_REC_SLD	14
T_REC_ALL	300
T_NUM_TAP	263
T_NUM_BRK	6
T_NUM_HLD	17
T_NUM_SLD	14
T_NUM_ALL	300
T_JUDGE_TAP	269
T_JUDGE_HLD	50
T_JUDGE_SLD	14
T_JUDGE_ALL	333
TTM_EACHPAIRS	76
TTM_SCR_TAP	131500
TTM_SCR_BRK	15600
TTM_SCR_HLD	17000
TTM_SCR_SLD	21000
TTM_SCR_ALL	185100
TTM_SCR_S	179000
TTM_SCR_SS	184500
TTM_RAT_ACV	10032

