VERSION	0.00.00	1.03.00
FES_MODE	0
BPM_DEF	153.000	153.000	153.000	153.000
MET_DEF	4	4
RESOLUTION	384
CLK_DEF	384
COMPATIBLE_CODE	MA2

BPM	0	0	153.000
MET	0	0	4	4

HLD	2	0	0	384
HLD	4	0	7	384
TAP	6	0	0
TAP	6	192	0
TAP	7	0	0
TAP	8	0	7
TAP	8	192	7
XTP	9	0	0
XTP	9	0	7
TAP	10	0	0
TAP	10	192	0
TAP	11	0	1
TAP	12	0	2
TAP	12	192	2
TAP	13	0	3
TAP	14	0	4
TAP	14	192	4
TAP	15	0	5
TAP	16	0	6
TAP	16	192	6
TAP	17	0	6
TAP	17	0	7
HLD	18	0	5	384
HLD	20	0	4	384
HLD	22	0	3	384
HLD	24	0	2	384
TAP	26	0	3
TAP	26	192	3
TAP	27	0	2
TAP	27	192	2
TAP	28	0	1
TAP	28	192	1
TAP	29	0	0
TAP	29	0	1
TAP	30	0	7
TAP	30	192	7
TAP	31	0	6
TAP	31	192	6
TAP	32	0	6
TAP	32	0	7
TAP	32	192	6
TAP	32	192	7
XTP	33	0	0
STR	34	0	7
SI_	34	0	7	96	288	4
STR	36	0	3
SI_	36	0	3	96	288	0
STR	38	0	7
SI_	38	0	7	96	288	2
STR	40	0	0
SI_	40	0	0	96	288	4
TTP	42	0	5	E	0	L1
TTP	43	0	6	E	0	L1
TTP	44	0	7	E	0	L1
TTP	45	0	0	E	0	L1
TTP	46	0	1	E	0	L1
TTP	47	0	2	E	0	L1
TTP	48	0	3	B	0	L1
TTP	48	0	3	E	0	L1
TTP	49	0	5	B	0	L1
TTP	49	0	5	E	0	L1
TTP	50	0	0	C	1	L1
BRK	51	0	7
TAP	51	96	7
TAP	51	192	7
TAP	52	0	6
TAP	52	96	6
TAP	52	192	6
TAP	53	0	5
TAP	53	96	5
TAP	53	192	5
TAP	54	0	3
TAP	54	0	4
TAP	54	192	3
TAP	54	192	4
TAP	55	0	3
TAP	55	96	3
TAP	55	192	3
TAP	56	0	2
TAP	56	96	2
TAP	56	192	2
TAP	57	0	1
TAP	57	96	1
TAP	57	192	1
TAP	58	0	0
TAP	58	0	7
XTP	58	192	0
XTP	58	192	7
TAP	59	0	1
TAP	59	96	1
TAP	59	192	1
TAP	59	288	1
TAP	60	0	2
TAP	60	96	2
TAP	60	192	2
TAP	60	192	3
TAP	61	0	4
TAP	61	96	4
TAP	61	192	4
TAP	61	288	4
TAP	62	0	5
TAP	62	96	5
TAP	62	192	4
TAP	62	192	5
TAP	63	0	6
TAP	63	96	6
TAP	63	192	7
TAP	63	288	7
TAP	64	0	0
TAP	64	96	0
TAP	64	192	1
TAP	64	288	1
HLD	65	0	0	192
HLD	65	0	7	192
XTP	66	0	0
XTP	66	0	7
XTP	66	96	0
XTP	66	96	7
XTP	66	192	1
XTP	66	192	6
TAP	67	0	0
TAP	67	192	1
TAP	68	0	0
TAP	68	0	1
TAP	68	192	0
TAP	68	192	1
TAP	69	0	2
TAP	69	192	3
TAP	70	0	3
TAP	70	0	4
TAP	70	192	3
TAP	70	192	4
TAP	71	0	5
TAP	71	192	6
TAP	72	0	6
TAP	72	0	7
TAP	72	192	6
TAP	72	192	7
TAP	73	0	0
TAP	73	96	0
TAP	73	192	0
TAP	74	0	7
TAP	74	96	7
TAP	74	192	0
TAP	74	192	7
TAP	74	288	0
TAP	74	288	7
BRK	75	0	1
BRK	75	0	6

T_REC_TAP	108
T_REC_BRK	3
T_REC_XTP	11
T_REC_HLD	8
T_REC_XHO	0
T_REC_STR	4
T_REC_BST	0
T_REC_XST	0
T_REC_TTP	11
T_REC_THO	0
T_REC_SLD	4
T_REC_ALL	149
T_NUM_TAP	134
T_NUM_BRK	3
T_NUM_HLD	8
T_NUM_SLD	4
T_NUM_ALL	149
T_JUDGE_TAP	137
T_JUDGE_HLD	56
T_JUDGE_SLD	4
T_JUDGE_ALL	197
TTM_EACHPAIRS	24
TTM_SCR_TAP	67000
TTM_SCR_BRK	7800
TTM_SCR_HLD	8000
TTM_SCR_SLD	6000
TTM_SCR_ALL	88800
TTM_SCR_S	85850
TTM_SCR_SS	88500
TTM_RAT_ACV	10033

