VERSION	0.00.00	1.03.00
FES_MODE	0
BPM_DEF	188.000	188.000	188.000	188.000
MET_DEF	4	4
RESOLUTION	384
CLK_DEF	384
COMPATIBLE_CODE	MA2

BPM	0	0	188.000
MET	0	0	4	4
MET	17	0	4	2
MET	17	192	4	4
MET	99	192	4	7
MET	104	288	8	15
MET	106	240	4	7

TAP	1	0	4
HLD	1	144	4	624
TAP	3	0	3
HLD	3	144	2	624
TAP	3	144	4
TAP	5	0	4
TAP	5	144	4
HLD	5	144	6	528
STR	6	288	4
SI_	6	288	4	96	576	7
TAP	6	304	3
TAP	6	320	2
TAP	6	336	1
HLD	6	352	0	656
TAP	8	240	7
TAP	8	288	0
TAP	8	336	1
TAP	8	336	6
TAP	9	48	5
TAP	9	96	5
HLD	9	144	4	384
TAP	9	144	6
TAP	9	240	3
TAP	9	288	3
TAP	10	144	5
TAP	10	192	5
TAP	10	240	4
TAP	10	288	4
TAP	10	336	5
TAP	11	0	4
TAP	11	0	6
TAP	11	48	3
TAP	11	96	2
TAP	11	144	1
HLD	11	144	3	192
TAP	11	336	2
TAP	12	0	3
TAP	12	48	4
TAP	12	96	5
STR	12	144	5
SI_	12	144	5	96	48	3
TAP	12	240	3
TAP	12	336	2
TAP	13	0	1
TAP	13	0	3
TAP	13	48	4
TAP	13	96	5
TAP	13	144	4
TAP	13	144	6
TAP	13	192	7
STR	13	240	7
SCL	13	240	7	96	48	4
TAP	13	336	2
TAP	14	0	1
STR	14	48	0
SCR	14	48	0	96	48	3
TAP	14	144	4
TAP	14	192	5
TAP	14	240	6
TAP	14	288	0
TAP	14	288	7
STR	14	336	1
SUR	14	336	1	96	120	2
STR	14	336	6
SUL	14	336	6	96	120	5
TAP	15	240	3
TAP	15	240	4
TAP	15	336	2
TAP	16	0	1
HLD	16	0	3	96
TAP	16	96	4
TAP	16	144	3
STR	16	192	2
SCL	16	192	2	96	192	4
TAP	16	192	4
HLD	16	288	7	192
HLD	17	192	4	96
TAP	17	192	6
TAP	17	288	3
TAP	17	336	4
TAP	18	0	3
STR	18	0	5
SCR	18	0	5	96	192	3
HLD	18	96	0	192
STR	19	0	1
SLR	19	0	1	96	144	5
TAP	19	0	3
HLD	19	96	7	240
TAP	19	336	5
STR	20	0	4
SXL	20	0	4	96	384	0
TAP	20	48	3
HLD	20	96	2	3312
HLD	21	192	6	2832
TAP	29	192	4
TAP	29	288	4
TAP	29	336	3
TAP	30	0	4
TAP	30	48	2
TAP	30	96	4
STR	30	144	1
SI_	30	144	1	96	48	7
TAP	30	192	4
TAP	30	288	4
TAP	31	0	4
TAP	31	0	6
TAP	31	48	5
TAP	31	96	4
TAP	31	144	3
TAP	31	192	2
TAP	31	192	4
TAP	31	288	2
TAP	31	336	3
TAP	32	0	2
TAP	32	48	4
TAP	32	96	2
STR	32	144	5
SI_	32	144	5	96	48	3
TAP	32	192	2
TAP	32	288	2
TAP	33	0	2
TAP	33	0	4
TAP	33	48	5
TAP	33	96	3
TAP	33	96	6
TAP	33	144	2
TAP	33	192	1
TAP	33	192	5
TAP	33	288	3
HLD	33	336	2	96
TAP	33	336	4
TAP	34	48	4
TAP	34	96	5
HLD	34	144	3	96
STR	34	144	6
SI_	34	144	6	96	48	0
TAP	34	240	6
STR	34	336	1
SI_	34	336	1	96	48	4
HLD	34	336	5	96
TAP	35	48	1
XHO	35	144	4	528
STR	35	144	7
SI_	35	144	7	96	48	3
XTP	35	240	7
TAP	36	0	3
TAP	36	96	3
TAP	36	192	3
TAP	36	288	3
TAP	36	336	4
TAP	37	0	3
TAP	37	48	2
TAP	37	48	5
TAP	37	96	1
TAP	37	96	6
XST	37	144	0
SCR	37	144	0	96	48	3
XST	37	144	7
SCL	37	144	7	96	48	4
BRK	37	240	0
BRK	37	240	7
THO	38	0	0	480	C	1	M1
TAP	39	192	0
TAP	39	192	7
TAP	39	240	1
TAP	39	288	0
TAP	39	288	7
TAP	39	336	6
TAP	40	0	0
HLD	40	0	7	48
TAP	40	24	1
TAP	40	48	2
TAP	40	96	4
TAP	40	96	5
TAP	40	144	3
HLD	40	192	2	48
TAP	40	192	6
TAP	40	216	5
TAP	40	240	4
HLD	40	288	1	48
TAP	40	288	7
TAP	40	312	6
TAP	40	336	5
STR	41	0	0
SI_	41	0	0	96	48	4
TAP	41	0	7
TAP	41	96	7
TAP	41	192	2
TAP	41	192	6
TAP	41	240	3
TAP	41	288	4
TAP	41	288	5
TAP	41	336	6
TAP	42	0	0
HLD	42	0	7	48
TAP	42	24	1
TAP	42	48	2
TAP	42	96	4
TAP	42	96	5
TAP	42	144	3
TAP	42	192	2
TAP	42	192	6
TAP	42	216	5
TAP	42	240	4
TAP	42	264	3
TAP	42	288	2
TAP	42	312	1
TAP	42	336	0
TAP	42	360	7
TAP	43	0	2
STR	43	0	6
SI_	43	0	6	96	48	2
TAP	43	96	0
TAP	43	192	1
TAP	43	192	7
TAP	43	240	2
TAP	43	288	3
TAP	43	288	6
TAP	43	336	5
STR	44	0	1
SI_	44	0	1	96	48	5
TAP	44	0	4
TAP	44	96	7
STR	44	144	7
SCL	44	144	7	96	144	1
TAP	44	240	0
HLD	44	288	0	144
TAP	45	48	7
TAP	45	96	1
TAP	45	96	6
TAP	45	144	2
TAP	45	144	5
TAP	45	192	3
STR	45	192	4
SI_	45	192	4	96	48	0
TAP	45	288	2
STR	45	336	2
SCL	45	336	2	96	120	5
TAP	46	48	4
HLD	46	96	4	144
TAP	46	240	3
TAP	46	288	2
TAP	46	288	5
STR	46	336	1
SI_	46	336	1	96	48	4
STR	46	336	6
SI_	46	336	6	96	48	3
TAP	47	48	1
TAP	47	48	6
TAP	47	144	0
TAP	47	144	7
TAP	47	192	0
TAP	47	192	7
TAP	47	240	6
TAP	47	288	0
TAP	47	288	7
TAP	47	336	1
HLD	48	0	0	48
TAP	48	0	7
TAP	48	24	6
TAP	48	48	5
TAP	48	96	2
TAP	48	96	3
TAP	48	144	4
TAP	48	192	1
HLD	48	192	5	48
TAP	48	216	2
TAP	48	240	3
TAP	48	288	0
HLD	48	288	6	48
TAP	48	312	1
TAP	48	336	2
TAP	49	0	0
STR	49	0	7
SI_	49	0	7	96	48	3
TAP	49	96	0
TAP	49	192	1
TAP	49	192	5
TAP	49	240	4
TAP	49	288	2
TAP	49	288	3
TAP	49	336	1
HLD	50	0	0	48
TAP	50	0	7
TAP	50	24	6
TAP	50	48	5
TAP	50	96	2
TAP	50	96	3
TAP	50	144	4
TAP	50	192	1
TAP	50	192	5
TAP	50	216	2
TAP	50	240	3
TAP	50	264	4
TAP	50	288	5
TAP	50	312	6
TAP	50	336	7
TAP	50	360	0
STR	51	0	1
SI_	51	0	1	96	48	5
TAP	51	0	5
TAP	51	96	7
TAP	51	192	0
TAP	51	192	6
TAP	51	240	5
TAP	51	288	1
TAP	51	288	4
TAP	51	336	2
STR	52	0	3
SI_	52	0	3	96	48	7
TAP	52	0	6
TAP	52	96	5
STR	52	144	5
SCR	52	144	5	96	120	2
TAP	52	240	3
HLD	52	288	3	144
TAP	53	48	4
TAP	53	96	3
TAP	53	144	2
TAP	53	144	5
TAP	53	192	1
STR	53	192	6
SI_	53	192	6	96	48	2
TAP	53	288	0
STR	53	336	0
SCR	53	336	0	96	144	6
TAP	54	48	7
HLD	54	96	7	144
TAP	54	240	0
TAP	54	288	1
TAP	54	288	6
STR	54	336	2
SI_	54	336	2	96	48	6
TAP	54	336	5
STR	55	48	5
SCR	55	48	5	96	624	3
TAP	55	144	4
XTP	55	192	4
TAP	55	288	4
TAP	56	0	4
TAP	56	96	4
TAP	56	192	4
TAP	56	288	4
STR	57	0	4
SI_	57	0	4	96	48	0
STR	57	96	4
SCR	57	96	4	96	576	2
TAP	57	192	3
TAP	57	288	3
TAP	58	0	3
TAP	58	96	3
TAP	58	192	3
TAP	58	288	3
STR	59	0	3
SF_	59	0	3	96	48	7
TAP	59	192	1
TAP	59	192	5
TAP	59	240	4
TAP	59	288	2
TAP	59	288	3
TAP	59	336	1
HLD	60	0	0	48
TAP	60	0	7
TAP	60	24	6
TAP	60	48	5
TAP	60	96	2
TAP	60	96	3
TAP	60	144	4
TAP	60	192	1
HLD	60	192	5	48
TAP	60	216	2
TAP	60	240	3
TAP	60	288	0
HLD	60	288	6	48
TAP	60	312	1
TAP	60	336	2
TAP	61	0	0
TAP	61	0	7
TAP	61	48	6
TAP	61	96	0
STR	61	96	7
SI_	61	96	7	96	48	3
TAP	61	144	1
TAP	61	192	0
TAP	61	192	7
TAP	61	288	2
TAP	61	288	4
TAP	61	336	5
TAP	62	0	3
TAP	62	0	6
TAP	62	48	2
TAP	62	96	1
TAP	62	144	0
STR	62	144	7
SI_	62	144	7	96	48	4
STR	62	240	2
SCR	62	240	2	96	48	5
TAP	62	288	2
STR	62	336	6
SCR	62	336	6	96	48	1
TAP	63	0	6
STR	63	48	3
SI_	63	48	3	96	48	0
TAP	63	96	3
TAP	63	144	7
XTP	63	192	7
TAP	63	288	4
TAP	63	288	5
TAP	63	336	6
TAP	64	0	0
HLD	64	0	7	48
TAP	64	24	1
TAP	64	48	2
TAP	64	96	4
TAP	64	96	5
TAP	64	144	3
HLD	64	192	2	48
TAP	64	192	6
TAP	64	216	5
TAP	64	240	4
HLD	64	288	1	48
TAP	64	288	7
TAP	64	312	6
TAP	64	336	5
STR	65	0	0
SCR	65	0	0	96	48	3
TAP	65	0	7
STR	65	96	7
SCL	65	96	7	96	48	4
TAP	65	192	0
TAP	65	240	1
TAP	65	288	2
TAP	65	288	3
TAP	65	336	1
HLD	66	0	0	48
TAP	66	0	7
TAP	66	24	6
TAP	66	48	5
TAP	66	96	2
TAP	66	96	3
TAP	66	144	1
TAP	66	192	0
TAP	66	192	7
TAP	66	240	6
TAP	66	288	1
HLD	66	288	5	48
TAP	66	312	2
TAP	66	336	3
TAP	67	0	0
TAP	67	0	7
TAP	67	48	1
HLD	67	96	2	48
TAP	67	96	6
TAP	67	120	5
TAP	67	144	4
TAP	67	192	0
TAP	67	192	7
TAP	67	240	1
TAP	67	288	0
TAP	67	288	7
TAP	67	336	6
TAP	68	0	0
HLD	68	0	7	48
TAP	68	24	1
TAP	68	48	2
TAP	68	96	4
TAP	68	96	5
TAP	68	144	3
HLD	68	192	2	48
TAP	68	192	6
TAP	68	216	5
TAP	68	240	4
HLD	68	288	1	48
TAP	68	288	7
TAP	68	312	6
TAP	68	336	5
STR	69	0	0
SI_	69	0	0	96	48	4
STR	69	0	7
SI_	69	0	7	96	48	3
STR	69	96	0
SCR	69	96	0	96	48	3
STR	69	96	7
SCL	69	96	7	96	48	4
TAP	69	192	0
TAP	69	192	7
TAP	69	288	1
TAP	69	288	6
TAP	69	336	2
TAP	70	0	3
TAP	70	0	4
TAP	70	48	5
TAP	70	96	1
TAP	70	96	6
TAP	70	144	0
TAP	70	144	7
TAP	70	192	1
TAP	70	216	2
TAP	70	240	3
TAP	70	264	4
TAP	70	288	6
TAP	70	312	5
TAP	70	336	4
TAP	70	360	3
TAP	71	0	0
TAP	71	24	7
TAP	71	48	0
TAP	71	72	7
TAP	71	96	0
TAP	71	120	7
TAP	71	144	0
TAP	71	168	7
XHO	71	192	1	768
XTP	71	192	6
TTP	72	288	3	E	0	M1
TTP	73	0	0	C	0	M1
TTP	73	96	7	E	0	M1
HLD	73	192	5	768
TTP	74	288	1	E	0	M1
TTP	75	0	0	C	0	M1
TTP	75	96	5	E	0	M1
STR	75	192	3
SI_	75	192	3	96	672	0
STR	77	192	7
SI_	77	192	7	96	672	4
TTP	79	192	1	E	0	M1
TTP	79	336	2	E	0	M1
TTP	80	96	3	E	0	M1
TTP	80	240	7	E	0	M1
TTP	81	0	6	E	0	M1
TTP	81	144	5	E	0	M1
TTP	81	192	2	E	0	M1
TTP	81	216	2	B	0	M1
TTP	81	240	3	B	0	M1
TTP	81	264	4	E	0	M1
TTP	81	288	7	E	0	M1
TTP	81	312	6	B	0	M1
TTP	81	336	5	B	0	M1
TTP	81	360	5	E	0	M1
TTP	82	0	1	E	0	M1
TTP	82	24	1	B	0	M1
TTP	82	48	2	B	0	M1
TTP	82	72	3	E	0	M1
TTP	82	96	6	E	0	M1
TTP	82	120	5	B	0	M1
TTP	82	144	4	B	0	M1
TTP	82	168	4	E	0	M1
TTP	82	192	1	E	0	M1
TTP	82	216	2	E	0	M1
TTP	82	240	3	E	0	M1
TTP	82	264	4	E	0	M1
TTP	82	288	7	E	0	M1
TTP	82	312	6	E	0	M1
TTP	82	336	5	E	0	M1
TTP	82	360	4	E	0	M1
XTP	83	0	0
XTP	83	24	7
XTP	83	48	0
XTP	83	72	7
XTP	83	96	0
XTP	83	120	7
XTP	83	144	0
XTP	83	168	7
BRK	83	192	1
BRK	83	192	6
TAP	83	240	2
TAP	83	288	3
TAP	83	288	6
TAP	83	336	5
TAP	84	0	3
HLD	84	0	4	48
TAP	84	24	2
TAP	84	48	1
TAP	84	96	6
TAP	84	96	7
TAP	84	144	5
TAP	84	192	1
STR	84	192	4
SCR	84	192	4	96	48	7
TAP	84	216	2
TAP	84	240	3
STR	84	288	0
SI_	84	288	0	96	48	4
TAP	84	288	4
TAP	85	0	0
STR	85	0	6
SI_	85	0	6	96	48	2
TAP	85	96	6
TAP	85	96	7
TAP	85	192	0
TAP	85	192	1
TAP	85	240	2
TAP	85	288	3
TAP	85	288	4
TAP	85	336	5
TAP	86	0	6
TAP	86	0	7
TAP	86	24	0
TAP	86	48	1
TAP	86	72	2
TAP	86	96	3
TAP	86	120	4
TAP	86	144	5
TAP	86	168	6
STR	86	192	7
SI_	86	192	7	96	48	3
TAP	86	288	0
TAP	86	288	7
STR	87	0	1
SI_	87	0	1	96	48	4
STR	87	0	5
SI_	87	0	5	96	48	0
TAP	87	96	1
TAP	87	96	5
TAP	87	192	2
TAP	87	192	6
TAP	87	240	5
TAP	87	288	3
TAP	87	288	4
TAP	87	336	2
STR	88	0	1
SI_	88	0	1	96	48	3
TAP	88	0	4
TAP	88	96	1
TAP	88	96	4
STR	88	144	6
SLL	88	144	6	96	120	0
TAP	88	240	3
TAP	88	240	6
HLD	88	288	1	144
TAP	89	48	0
TAP	89	96	2
TAP	89	96	7
TAP	89	144	3
TAP	89	144	6
TAP	89	192	4
TAP	89	192	5
STR	89	288	7
SI_	89	288	7	96	48	3
STR	89	336	1
SI_	89	336	1	96	48	5
TAP	90	0	7
TAP	90	48	1
HLD	90	96	4	144
TAP	90	240	0
TAP	90	288	1
TAP	90	288	5
STR	90	336	2
SI_	90	336	2	96	48	5
STR	90	336	6
SI_	90	336	6	96	48	1
TAP	91	48	2
TAP	91	48	6
TAP	91	144	0
TAP	91	144	7
XTP	91	192	1
XTP	91	192	6
TAP	91	240	5
TAP	91	288	1
TAP	91	288	4
TAP	91	336	2
HLD	92	0	3	48
TAP	92	0	4
TAP	92	24	5
TAP	92	48	6
TAP	92	96	0
TAP	92	96	1
TAP	92	144	2
STR	92	192	3
SCL	92	192	3	96	48	0
TAP	92	192	6
TAP	92	216	5
TAP	92	240	4
TAP	92	288	3
STR	92	288	7
SI_	92	288	7	96	48	3
STR	93	0	1
SI_	93	0	1	96	48	5
TAP	93	0	7
TAP	93	96	0
TAP	93	96	1
TAP	93	192	6
TAP	93	192	7
TAP	93	240	5
TAP	93	288	3
TAP	93	288	4
TAP	93	336	2
TAP	94	0	0
TAP	94	0	1
TAP	94	24	7
TAP	94	48	6
TAP	94	72	5
TAP	94	96	4
TAP	94	120	3
TAP	94	144	2
TAP	94	168	1
STR	94	192	0
SI_	94	192	0	96	48	4
TAP	94	288	0
TAP	94	288	7
STR	95	0	2
SI_	95	0	2	96	48	7
STR	95	0	6
SI_	95	0	6	96	48	3
TAP	95	96	2
TAP	95	96	6
TAP	95	192	1
TAP	95	192	5
TAP	95	240	2
TAP	95	288	3
TAP	95	288	4
TAP	95	336	5
TAP	96	0	3
STR	96	0	6
SI_	96	0	6	96	48	4
TAP	96	96	3
TAP	96	96	6
STR	96	144	1
SLR	96	144	1	96	120	7
TAP	96	240	1
TAP	96	240	4
HLD	96	288	6	144
TAP	97	48	7
TAP	97	96	0
TAP	97	96	5
TAP	97	144	1
TAP	97	192	2
TAP	97	192	7
TAP	97	240	6
TAP	97	288	0
TAP	97	288	5
STR	97	336	1
SI_	97	336	1	96	48	5
TAP	97	336	4
TAP	98	48	7
HLD	98	96	7	144
TAP	98	240	0
TAP	98	288	0
TAP	98	288	7
STR	98	336	1
SI_	98	336	1	96	48	4
STR	98	336	6
SI_	98	336	6	96	48	3
TAP	99	48	1
TAP	99	48	6
TAP	99	144	0
TAP	99	144	7
TAP	99	192	1
TAP	99	192	6
TAP	99	240	2
TAP	99	264	3
TAP	99	288	2
TAP	99	336	1
TAP	99	336	4
TAP	100	0	5
TAP	100	24	4
TAP	100	48	5
TAP	100	96	3
TAP	100	96	6
TAP	100	144	2
TAP	100	168	3
TAP	100	192	1
TAP	100	240	0
TAP	100	240	7
TAP	100	288	5
TAP	100	312	4
TAP	100	336	6
XTP	101	0	3
XTP	101	0	4
TAP	101	96	1
TAP	101	96	6
TAP	101	144	5
TAP	101	168	4
TAP	101	192	5
TAP	101	240	3
TAP	101	240	6
TAP	101	288	2
TAP	101	312	3
TAP	101	336	2
TAP	102	0	1
TAP	102	0	4
TAP	102	48	5
TAP	102	72	4
TAP	102	96	6
TAP	102	144	0
TAP	102	144	7
TAP	102	192	2
TAP	102	216	3
TAP	102	240	1
XTP	102	288	3
XTP	102	288	4
TAP	103	0	0
TAP	103	0	7
TAP	103	48	1
TAP	103	72	3
TAP	103	96	2
TAP	103	144	1
TAP	103	144	4
TAP	103	192	6
TAP	103	216	4
TAP	103	240	5
TAP	103	288	3
TAP	103	288	6
TAP	103	336	1
TAP	103	360	0
TAP	104	0	1
TAP	104	48	2
TAP	104	48	7
TAP	104	96	6
TAP	104	120	7
TAP	104	144	6
XTP	104	192	0
XTP	104	192	5
TAP	104	240	4
TAP	104	288	3
TAP	104	336	2
STR	105	0	1
SI_	105	0	1	96	48	4
TAP	105	48	0
TAP	105	96	1
STR	105	144	6
SI_	105	144	6	96	48	2
TAP	105	192	7
TAP	105	240	6
STR	105	288	0
SI_	105	288	0	96	48	4
TAP	105	336	7
TAP	106	0	0
TAP	106	48	5
TAP	106	96	6
XTP	106	144	0
XTP	106	144	7
TAP	106	192	1
TAP	106	192	6
TAP	106	240	2
TAP	106	240	5
TAP	106	288	3
TAP	106	312	4
TAP	106	336	2
TAP	107	0	1
TAP	107	0	5
TAP	107	48	4
TAP	107	72	3
TAP	107	96	5
TAP	107	144	2
TAP	107	144	6
TAP	107	192	1
TAP	107	216	0
TAP	107	240	2
TAP	107	288	3
TAP	107	288	7
TAP	107	336	6
TAP	107	360	7
TAP	108	0	5
XST	108	48	0
SCR	108	48	0	96	48	3
XTP	108	48	4
TAP	108	144	7
TAP	108	192	5
TAP	108	216	5
TAP	108	240	4
TAP	108	288	3
TAP	108	288	6
TAP	108	336	2
TAP	108	360	2
TAP	109	0	3
TAP	109	48	1
TAP	109	48	4
TAP	109	96	6
TAP	109	120	6
TAP	109	144	7
TAP	109	192	0
TAP	109	192	5
TAP	109	240	1
TAP	109	264	1
TAP	109	288	0
XTP	109	336	2
XST	109	336	7
SCL	109	336	7	96	48	4
TAP	110	48	0
TAP	110	96	2
TAP	110	120	2
TAP	110	144	3
TAP	110	192	1
TAP	110	192	4
TAP	110	240	5
TAP	110	264	5
TAP	110	288	4
TAP	110	336	3
TAP	110	336	6
TAP	111	0	1
TAP	111	24	1
TAP	111	48	0
TAP	111	96	2
TAP	111	96	7
TAP	111	144	6
TAP	111	168	6
TAP	111	192	7
XST	111	240	0
SI_	111	240	0	96	48	4
XTP	111	240	5
TAP	111	336	0
TAP	111	336	7
TAP	112	0	6
TAP	112	48	5
TAP	112	96	4
TAP	112	96	6
TAP	112	144	3
TAP	112	192	2
TAP	112	240	1
TAP	112	240	3
TAP	112	288	0
TAP	112	336	7
STR	113	0	2
SCR	113	0	2	96	48	5
TAP	113	0	6
TAP	113	48	1
STR	113	48	5
SCL	113	48	5	96	480	7
TAP	113	96	2
TAP	113	96	6

T_REC_TAP	646
T_REC_BRK	4
T_REC_XTP	25
T_REC_HLD	47
T_REC_XHO	2
T_REC_STR	75
T_REC_BST	0
T_REC_XST	5
T_REC_TTP	36
T_REC_THO	1
T_REC_SLD	80
T_REC_ALL	921
T_NUM_TAP	787
T_NUM_BRK	4
T_NUM_HLD	50
T_NUM_SLD	80
T_NUM_ALL	921
T_JUDGE_TAP	791
T_JUDGE_HLD	313
T_JUDGE_SLD	80
T_JUDGE_ALL	1184
TTM_EACHPAIRS	200
TTM_SCR_TAP	393500
TTM_SCR_BRK	10400
TTM_SCR_HLD	50000
TTM_SCR_SLD	120000
TTM_SCR_ALL	573900
TTM_SCR_S	556300
TTM_SCR_SS	573500
TTM_RAT_ACV	10006

