VERSION	0.00.00	1.03.00
FES_MODE	0
BPM_DEF	188.000	188.000	188.000	188.000
MET_DEF	4	4
RESOLUTION	384
CLK_DEF	384
COMPATIBLE_CODE	MA2

BPM	0	0	188.000
MET	0	0	4	4
MET	17	0	4	2
MET	17	192	4	4
MET	99	192	4	7
MET	104	288	8	15
MET	106	240	4	7

STR	1	0	2
SI_	1	0	2	96	48	4
TAP	1	96	4
HLD	1	144	5	432
TTP	2	192	4	E	0	M1
STR	3	0	5
SI_	3	0	5	96	48	3
TAP	3	96	3
HLD	3	144	2	432
TTP	4	192	4	E	0	M1
STR	5	0	2
SI_	5	0	2	96	48	4
TAP	5	96	4
HLD	5	144	5	432
STR	6	192	3
SCR	6	192	3	96	480	2
XTP	8	240	3
XTP	8	240	4
XTP	8	288	3
XTP	8	288	4
STR	9	0	5
SI_	9	0	5	96	48	3
TAP	9	96	2
HLD	9	144	2	96
TAP	9	288	2
TAP	10	0	2
TAP	10	96	2
TAP	10	192	2
TAP	10	192	4
TAP	10	288	2
TAP	10	288	5
STR	11	0	2
SI_	11	0	2	96	48	0
TAP	11	0	6
TAP	11	96	7
HLD	11	144	7	96
TAP	11	288	7
TAP	12	0	3
TAP	12	0	7
TAP	12	96	3
STR	12	96	7
SCL	12	96	7	96	96	4
TAP	12	192	2
TAP	12	288	2
STR	13	0	2
SI_	13	0	2	96	48	4
TAP	13	96	5
HLD	13	144	5	96
TAP	13	288	5
TAP	14	0	5
TAP	14	96	5
TAP	14	192	4
TAP	14	288	3
TAP	14	288	4
TAP	14	336	3
STR	14	336	4
SCL	14	336	4	96	96	1
SCR	14	336	4	96	96	7
XTP	15	240	1
XTP	15	240	7
XTP	15	288	1
XTP	15	288	7
HLD	16	0	2	384
TAP	16	192	3
TAP	16	288	4
HLD	17	0	5	576
TAP	17	192	4
TAP	18	0	4
TAP	18	96	3
HLD	18	192	2	384
TAP	19	0	7
TAP	19	96	6
HLD	19	192	5	192
TAP	20	0	3
TAP	20	96	3
TAP	20	96	4
STR	21	192	5
SCL	21	192	5	96	384	2
STR	23	192	2
SCR	23	192	2	96	384	5
STR	25	192	5
SCL	25	192	5	96	384	2
STR	27	192	2
SCL	27	192	2	96	384	5
TAP	29	96	3
STR	29	96	5
SCR	29	96	5	96	288	0
TTP	29	192	3	E	0	M1
TTP	29	288	2	E	0	M1
TTP	30	0	1	E	0	M1
TTP	30	96	0	E	0	M1
TTP	30	192	7	E	0	M1
TTP	30	288	6	E	0	M1
TAP	31	0	3
STR	31	96	2
SCL	31	96	2	96	288	7
TAP	31	96	4
TTP	31	192	5	E	0	M1
TTP	31	288	6	E	0	M1
TTP	32	0	7	E	0	M1
TTP	32	96	0	E	0	M1
TTP	32	192	1	E	0	M1
TTP	32	288	2	E	0	M1
TAP	33	0	4
TAP	33	96	3
TAP	33	96	5
TAP	33	192	6
TAP	33	288	7
HLD	33	336	7	96
TAP	34	48	0
TAP	34	144	1
TAP	34	144	6
TAP	34	240	2
TAP	34	240	5
TAP	34	336	3
TAP	34	336	4
TAP	35	48	3
TAP	35	48	4
STR	35	144	0
SI_	35	144	0	96	48	3
STR	35	144	7
SI_	35	144	7	96	48	4
TAP	36	192	3
TAP	36	192	4
TAP	36	288	3
TAP	36	336	4
STR	37	0	5
SI_	37	0	5	96	48	1
TAP	37	96	2
STR	37	144	2
SI_	37	144	2	96	48	6
STR	37	240	3
SCL	37	240	3	96	336	4
BRK	39	96	0
XTP	39	192	7
TAP	39	240	6
TAP	39	288	3
TAP	39	288	5
TAP	40	0	2
TAP	40	48	3
TAP	40	96	4
TAP	40	144	5
TAP	40	192	2
TAP	40	192	6
STR	40	288	7
SCL	40	288	7	96	96	2
TAP	41	0	1
TAP	41	96	0
XTP	41	192	0
TAP	41	240	7
TAP	41	288	1
TAP	41	288	6
TAP	42	0	2
TAP	42	48	3
TAP	42	96	4
TAP	42	144	5
TAP	42	192	2
TAP	42	192	6
TAP	42	288	3
TAP	42	288	5
TAP	43	0	0
TAP	43	0	7
TAP	43	96	2
TAP	43	96	4
TAP	43	192	5
TAP	43	240	5
TAP	43	288	4
TAP	43	336	6
TAP	44	0	0
TAP	44	48	0
TAP	44	96	7
HLD	44	144	7	96
TAP	44	240	1
TAP	44	288	1
TAP	45	0	2
TAP	45	0	6
TAP	45	48	3
TAP	45	48	5
TAP	45	96	3
TAP	45	96	5
TAP	45	192	2
TAP	45	240	2
TAP	45	288	3
HLD	45	336	1	96
TAP	46	48	7
HLD	46	96	7	96
TAP	46	192	0
TAP	46	240	0
TAP	46	336	1
TAP	46	336	6
TAP	47	48	2
TAP	47	48	5
XTP	47	144	0
XTP	47	192	0
TAP	47	240	1
TAP	47	288	2
TAP	47	288	4
TAP	48	0	5
TAP	48	48	4
TAP	48	96	3
TAP	48	144	2
TAP	48	192	1
TAP	48	192	5
STR	48	288	0
SCR	48	288	0	96	96	5
TAP	49	0	6
TAP	49	96	7
XTP	49	192	7
TAP	49	240	0
TAP	49	288	1
TAP	49	288	6
TAP	50	0	5
TAP	50	48	4
TAP	50	96	3
TAP	50	144	2
TAP	50	192	1
TAP	50	192	5
TAP	50	288	2
TAP	50	288	4
TAP	51	0	0
TAP	51	0	7
TAP	51	96	3
TAP	51	96	5
TAP	51	192	2
TAP	51	240	2
TAP	51	288	3
TAP	51	336	1
TAP	52	0	7
TAP	52	48	7
TAP	52	96	0
HLD	52	144	0	96
TAP	52	240	6
TAP	52	288	6
TAP	53	0	1
TAP	53	0	5
TAP	53	48	2
TAP	53	48	4
TAP	53	96	2
TAP	53	96	4
TAP	53	192	5
TAP	53	240	5
TAP	53	288	4
HLD	53	336	6	96
TAP	54	48	0
HLD	54	96	0	96
TAP	54	192	7
TAP	54	240	7
TAP	54	336	1
TAP	54	336	6
TAP	55	48	2
TAP	55	48	5
XTP	55	144	7
XTP	55	192	7
TAP	55	240	6
TAP	55	288	3
TAP	55	288	5
TAP	56	0	2
TAP	56	48	3
TAP	56	96	4
TAP	56	144	5
TAP	56	192	2
TAP	56	192	6
TAP	56	288	1
TAP	56	288	5
STR	57	0	0
SI_	57	0	0	96	48	3
STR	57	96	4
SCR	57	96	4	96	192	7
XHO	57	192	3	288
TAP	58	96	7
TAP	58	192	3
TAP	58	192	7
TAP	58	288	2
TAP	58	288	6
TAP	59	0	1
TAP	59	0	5
TAP	59	96	0
TAP	59	96	4
TAP	59	192	2
TAP	59	240	2
TAP	59	288	3
TAP	59	336	1
TAP	60	0	7
TAP	60	48	7
TAP	60	96	0
HLD	60	144	0	96
TAP	60	240	6
TAP	60	288	6
TAP	61	0	1
TAP	61	0	5
TAP	61	96	2
TAP	61	96	4
TAP	61	192	5
TAP	61	240	5
TAP	61	288	4
HLD	61	336	6	96
TAP	62	48	0
TAP	62	144	1
TAP	62	144	7
TAP	62	240	2
TAP	62	240	6
TAP	62	336	3
TAP	62	336	5
TAP	63	48	2
TAP	63	48	4
XTP	63	144	0
XTP	63	192	0
TAP	63	240	1
TAP	63	288	2
TAP	63	288	4
TAP	64	0	5
TAP	64	48	4
TAP	64	96	3
TAP	64	144	2
TAP	64	192	1
TAP	64	192	5
TAP	64	288	2
TAP	64	288	6
STR	65	0	7
SI_	65	0	7	96	48	4
STR	65	96	3
SCL	65	96	3	96	192	0
XHO	65	192	4	288
TAP	66	96	0
TAP	66	192	0
TAP	66	192	4
TAP	66	288	1
TAP	66	288	5
TAP	67	0	2
TAP	67	0	6
TAP	67	96	2
TAP	67	96	6
TAP	67	192	5
TAP	67	240	5
TAP	67	288	4
TAP	67	336	6
TAP	68	0	0
TAP	68	48	0
TAP	68	96	7
HLD	68	144	7	96
TAP	68	240	1
TAP	68	288	1
TAP	69	0	2
TAP	69	0	6
STR	69	96	3
SCL	69	96	3	96	384	4
STR	69	96	4
SCR	69	96	4	96	384	3
XTP	70	288	2
XTP	70	288	5
XTP	70	336	2
XTP	70	336	5
TAP	71	48	0
TAP	71	72	7
TAP	71	96	0
TAP	71	120	7
TAP	71	144	0
HLD	71	192	1	1344
HLD	71	192	6	1344
TAP	75	192	5
TAP	75	288	4
TAP	76	0	3
TAP	76	96	5
TAP	76	192	4
TAP	77	0	2
TAP	77	96	3
TAP	77	192	4
TAP	77	288	2
TAP	78	0	3
TAP	78	192	5
TAP	78	288	5
TAP	79	0	3
TAP	79	0	4
TTP	79	192	2	B	0	M1
TTP	79	192	2	E	0	M1
TTP	79	192	3	E	0	M1
TTP	79	336	5	B	0	M1
TTP	79	336	5	E	0	M1
TTP	79	336	6	E	0	M1
TTP	80	96	1	B	0	M1
TTP	80	96	1	E	0	M1
TTP	80	96	2	E	0	M1
TTP	80	240	6	B	0	M1
TTP	80	240	6	E	0	M1
TTP	80	240	7	E	0	M1
TTP	81	0	2	B	0	M1
TTP	81	0	2	E	0	M1
TTP	81	0	3	E	0	M1
TTP	81	144	5	B	0	M1
TTP	81	144	5	E	0	M1
TTP	81	144	6	E	0	M1
TTP	81	288	3	B	0	M1
TTP	81	288	4	B	0	M1
TTP	81	288	4	E	0	M1
THO	82	48	0	336	C	1	M1
XST	83	192	0
SI_	83	192	0	96	48	2
XST	83	192	7
SI_	83	192	7	96	48	3
XST	84	0	0
SI_	84	0	0	96	48	4
XST	84	0	7
SI_	84	0	7	96	48	5
TAP	84	192	0
TAP	84	192	7
TAP	84	288	1
TAP	84	288	6
TAP	85	0	3
TAP	85	0	4
TAP	85	96	2
TAP	85	96	5
XTP	85	192	4
TAP	85	240	5
TAP	85	288	0
TAP	85	288	6
TAP	86	0	1
TAP	86	48	0
TAP	86	96	7
TAP	86	144	6
TAP	86	192	1
TAP	86	192	5
TAP	86	288	2
TAP	86	288	4
TAP	87	0	3
TAP	87	0	6
TAP	87	96	2
TAP	87	96	7
TAP	87	192	1
TAP	87	240	1
TAP	87	288	0
TAP	87	336	2
TAP	88	0	4
TAP	88	48	4
TAP	88	96	3
HLD	88	144	3	96
TAP	88	240	5
TAP	88	288	5
TAP	89	0	2
TAP	89	0	6
TAP	89	48	1
TAP	89	48	7
TAP	89	96	1
TAP	89	96	7
TAP	89	192	6
TAP	89	240	6
TAP	89	288	7
HLD	89	336	5	96
TAP	90	48	3
HLD	90	96	3	96
TAP	90	192	4
TAP	90	240	4
TAP	90	336	2
TAP	90	336	5
TAP	91	48	1
TAP	91	48	6
XTP	91	144	3
XTP	91	192	3
TAP	91	240	2
TAP	91	288	1
TAP	91	288	7
TAP	92	0	6
TAP	92	48	7
TAP	92	96	0
TAP	92	144	1
TAP	92	192	2
TAP	92	192	6
STR	92	288	3
SCL	92	288	3	96	96	7
TAP	93	0	5
TAP	93	96	5
XTP	93	192	4
TAP	93	240	5
TAP	93	288	0
TAP	93	288	6
TAP	94	0	1
TAP	94	48	0
TAP	94	96	7
TAP	94	144	6
TAP	94	192	1
TAP	94	192	5
TAP	94	288	2
TAP	94	288	4
TAP	95	0	3
TAP	95	0	6
BRK	95	96	0
BRK	95	96	5
TAP	95	192	6
TAP	95	240	6
TAP	95	288	7
TAP	95	336	5
TAP	96	0	3
TAP	96	48	3
TAP	96	96	4
HLD	96	144	4	96
TAP	96	240	2
TAP	96	288	2
TAP	97	0	1
TAP	97	0	5
TAP	97	48	0
TAP	97	48	6
TAP	97	96	0
TAP	97	96	6
TAP	97	192	1
TAP	97	240	1
TAP	97	288	0
HLD	97	336	2	96
TAP	98	48	4
HLD	98	96	4	96
TAP	98	192	3
TAP	98	240	3
TAP	98	336	0
TAP	98	336	7
TAP	99	48	4
TAP	99	48	6
XTP	99	144	3
XTP	99	144	5
XTP	99	192	3
XTP	99	192	5
TAP	99	240	2
TAP	99	264	3
TAP	99	288	1
TAP	99	336	5
TAP	99	360	4
TAP	100	0	6
TAP	100	48	2
TAP	100	72	3
TAP	100	96	1
TAP	100	144	5
TAP	100	168	4
STR	100	192	6
SI_	100	192	6	96	48	2
TAP	100	240	1
HLD	100	288	1	96
TAP	101	0	3
XTP	101	96	2
XTP	101	96	4
TAP	101	144	5
TAP	101	168	4
TAP	101	192	6
TAP	101	240	2
TAP	101	264	3
TAP	101	288	1
TAP	101	336	5
TAP	101	360	4
TAP	102	0	6
TAP	102	48	2
TAP	102	72	3
STR	102	96	1
SI_	102	96	1	96	48	5
TAP	102	144	6
HLD	102	192	6	96
TAP	102	288	4
XTP	103	0	3
XTP	103	0	5
TAP	103	48	2
TAP	103	72	3
TAP	103	96	1
TAP	103	144	5
TAP	103	168	4
TAP	103	192	6
TAP	103	240	2
TAP	103	264	3
TAP	103	288	1
TAP	103	336	5
TAP	103	360	4
STR	104	0	6
SI_	104	0	6	96	48	2
TAP	104	48	1
HLD	104	96	1	96
TAP	104	192	3
TAP	104	288	4
TAP	104	336	5
TAP	105	0	3
TAP	105	48	2
TAP	105	96	7
TAP	105	144	6
TAP	105	192	0
TAP	105	240	1
TAP	105	288	4
TAP	105	336	5
TAP	106	0	3
TAP	106	48	2
TAP	106	96	2
TAP	106	144	4
XTP	106	192	3
XTP	106	192	5
XTP	106	240	3
XTP	106	240	5
TAP	106	288	6
TAP	106	312	4
TAP	106	336	7
TAP	107	0	1
TAP	107	24	3
TAP	107	48	0
TAP	107	96	6
TAP	107	120	4
TAP	107	144	7
TAP	107	192	1
TAP	107	216	3
STR	107	240	0
SI_	107	240	0	96	48	5
TAP	107	288	6
HLD	107	336	6	96
TAP	108	48	4
XTP	108	144	2
XTP	108	144	4
TAP	108	192	1
TAP	108	216	3
TAP	108	240	0
TAP	108	288	6
TAP	108	312	4
TAP	108	336	7
TAP	109	0	1
TAP	109	24	3
TAP	109	48	0
TAP	109	96	6
TAP	109	120	4
STR	109	144	7
SI_	109	144	7	96	48	2
TAP	109	192	1
HLD	109	240	1	96
TAP	109	336	3
XTP	110	48	3
XTP	110	48	5
TAP	110	96	6
TAP	110	120	4
TAP	110	144	7
TAP	110	192	1
TAP	110	216	3
TAP	110	240	0
TAP	110	288	6
TAP	110	312	4
TAP	110	336	7
TAP	111	0	1
TAP	111	24	3
STR	111	48	0
SI_	111	48	0	96	48	5
TAP	111	96	6
HLD	111	144	6	96
TAP	111	240	4
TAP	111	336	3
TAP	112	0	3
TAP	112	48	4
TAP	112	96	4
TAP	112	144	1
TAP	112	192	1
TAP	112	240	5
TAP	112	288	5
BST	112	336	2
SI_	112	336	2	96	48	5
BST	113	0	6
SI_	113	0	6	96	48	1

T_REC_TAP	453
T_REC_BRK	3
T_REC_XTP	41
T_REC_HLD	34
T_REC_XHO	2
T_REC_STR	35
T_REC_BST	2
T_REC_XST	4
T_REC_TTP	35
T_REC_THO	1
T_REC_SLD	42
T_REC_ALL	652
T_NUM_TAP	568
T_NUM_BRK	5
T_NUM_HLD	37
T_NUM_SLD	42
T_NUM_ALL	652
T_JUDGE_TAP	573
T_JUDGE_HLD	184
T_JUDGE_SLD	42
T_JUDGE_ALL	799
TTM_EACHPAIRS	107
TTM_SCR_TAP	284000
TTM_SCR_BRK	13000
TTM_SCR_HLD	37000
TTM_SCR_SLD	63000
TTM_SCR_ALL	397000
TTM_SCR_S	384650
TTM_SCR_SS	396500
TTM_RAT_ACV	10012

